#TITLE:DENIM;
#SUBTITLE:;
#ARTIST:SLAKE;
#TITLETRANSLIT:;
#SUBTITLETRANSLIT:;
#ARTISTTRANSLIT:;
#CREDIT:DMAxel;
#BANNER:DENIM.png;
#BACKGROUND:DENIM-bg.png;
#LYRICSPATH:;
#CDTITLE:beatmania.png;
#MUSIC:DENIM.mp3;
#OFFSET:-0.460;
#SAMPLESTART:35.580;
#SAMPLELENGTH:12.000;
#SELECTABLE:YES;
#BPMS:0.000=150.000;
#STOPS:;
#BGCHANGES:;

//---------------dance-single - ----------------
#NOTES:
     dance-single:
     :
     Easy:
     3:
     0.237,0.355,0.219,0.052,0.000: // measure 1
0000
0000
0000
0000
,  // measure 2
0000
0000
0000
0000
,  // measure 3
1001
0000
1001
0000
,  // measure 4
0110
0000
0110
0000
,  // measure 5
1010
0000
0000
0000
,  // measure 6
0011
0000
0000
0000
,  // measure 7
0110
0000
0110
0000
,  // measure 8
1001
0000
1001
0000
,  // measure 9
0101
0000
0000
0000
,  // measure 10
1100
0000
0000
0000
,  // measure 11
1000
0000
1000
0000
,  // measure 12
0001
0000
0001
0000
,  // measure 13
1000
0000
0100
0000
,  // measure 14
1000
0000
0100
0000
,  // measure 15
1000
0000
1000
0000
,  // measure 16
0001
0000
0001
0000
,  // measure 17
0010
0000
0001
0000
,  // measure 18
0010
0000
0001
0000
,  // measure 19
0100
0000
0010
0000
,  // measure 20
0100
0000
0010
0000
,  // measure 21
0100
0000
0001
0000
,  // measure 22
0100
0000
1000
0000
,  // measure 23
1001
0000
1000
1000
,  // measure 24
1000
0000
0001
0001
,  // measure 25
0001
0000
1000
1000
,  // measure 26
1000
0000
0001
0001
,  // measure 27
0100
0000
0100
0100
,  // measure 28
0100
0000
0010
0010
,  // measure 29
0010
0000
0100
0100
,  // measure 30
0100
0000
0000
0000
,  // measure 31
0001
1000
0001
0000
,  // measure 32
1000
0001
1000
0000
,  // measure 33
0100
1000
0100
0000
,  // measure 34
0010
0001
0010
0000
,  // measure 35
0001
0010
0001
0000
,  // measure 36
1000
0100
1000
0000
,  // measure 37
0010
0100
0010
1000
,  // measure 38
0100
0001
0000
0000
,  // measure 39
1001
1000
0001
0000
,  // measure 40
0010
0001
0010
0000
,  // measure 41
0100
1000
0010
0000
,  // measure 42
0100
0001
0010
0000
,  // measure 43
1001
0001
0100
0100
,  // measure 44
0001
1000
0010
0010
,  // measure 45
1000
0001
0100
0100
,  // measure 46
0220
0330
2002
0000
,  // measure 47
3003
0000
0000
0000
;

//---------------dance-single - ----------------
#NOTES:
     dance-single:
     :
     Challenge:
     9:
     0.661,0.652,0.502,0.026,0.534: // measure 1
0000
0000
0000
0000
,  // measure 2
0000
0000
0000
0000
,  // measure 3
1100
0000
0000
0101
0000
0000
0000
0000
0101
0000
0000
1100
0000
0000
0000
0000
,  // measure 4
1100
0000
0000
1001
0000
0000
0000
0000
1001
0000
0000
0000
1001
0000
0000
0000
,  // measure 5
1020
0000
0000
0000
0000
0000
0000
0001
0000
0031
0000
0000
0000
0000
0000
0000
,  // measure 6
0011
0000
0000
1001
0000
0000
0000
0000
1001
0000
0000
0000
1001
0000
0000
0000
,  // measure 7
0101
0000
0000
1100
0000
0000
0000
0000
1100
0000
0000
0101
0000
0000
0000
0000
,  // measure 8
0101
0000
0000
1001
0000
0000
0000
0000
1001
0000
0000
0000
1001
0000
0000
0000
,  // measure 9
0201
0000
0000
0000
0000
0000
0000
1000
0000
1300
0000
0000
0000
0000
0000
0000
,  // measure 10
1100
0000
0000
1001
0000
0000
0000
0000
1001
0000
0000
0000
0000
0000
0000
0000
,  // measure 11
0001
0000
0100
0000
0010
0100
0000
0000
0001
0000
0100
0000
0010
0100
0000
0000
,  // measure 12
0001
0000
0100
0000
0010
0100
0000
0010
1000
0000
0100
0000
0010
0000
0001
0000
,  // measure 13
1000
0000
0010
0000
0100
0010
0000
0000
1000
0000
0010
0000
0100
0010
0000
0000
,  // measure 14
1000
0000
0010
0000
0100
0010
0000
0100
0001
0000
0010
0000
1010
0000
0000
0000
,  // measure 15
1001
1000
0010
0000
0010
1000
0001
0000
,  // measure 16
0001
1000
0010
0000
0010
1000
0001
0010
,  // measure 17
0100
1000
0010
0000
0010
1000
0100
0000
,  // measure 18
0100
1000
0010
0000
0010
1000
0100
0010
,  // measure 19
0001
0010
0100
0000
0100
0010
0001
0000
,  // measure 20
0001
0010
0100
0000
0100
0010
0001
1000
,  // measure 21
0100
1000
0010
0000
0010
1000
0100
0000
,  // measure 22
0100
1000
0010
0000
1000
0001
0000
0000
,  // measure 23
1001
0000
1000
0000
0010
0000
1000
0000
0100
0000
1000
0000
0010
0100
0000
0100
,  // measure 24
0000
0000
1001
0000
0001
0000
0010
0000
0001
0000
0100
0000
0001
0010
0000
0010
,  // measure 25
0000
0000
1001
0000
1000
0000
0100
0000
1000
0000
0010
0000
1000
0100
0000
0100
,  // measure 26
0000
0000
1001
0000
0001
0000
0010
0000
0001
0000
0100
0000
0001
1000
0000
1100
,  // measure 27
0000
0000
1001
0000
1000
0000
0010
0000
0100
0000
0010
0000
1000
0001
0000
0001
,  // measure 28
0000
0000
1001
0000
0001
0000
0100
0000
0010
0000
0100
0000
0001
1000
0000
1000
,  // measure 29
0000
0000
1001
0000
1000
0000
0100
0000
0010
0000
0100
0000
1000
0001
0000
0001
,  // measure 30
0000
0000
1001
0000
0000
0000
1100
0000
1100
0000
0100
0001
0000
0100
0001
0000
,  // measure 31
1000
0000
0010
0000
0100
0010
0000
0000
1000
0000
0010
0000
0100
0010
0000
0000
,  // measure 32
1000
0000
0010
0000
0100
0010
0000
1000
0001
0000
1000
0000
0001
0000
0010
0000
,  // measure 33
0100
0000
1000
0000
0100
0000
0001
0000
1000
0000
0100
0000
1000
0001
0000
0100
,  // measure 34
0010
1000
0010
0100
0010
1000
0001
0000
,  // measure 35
0001
0000
0010
0000
0100
0010
0000
0000
0001
0000
0010
0000
0100
0010
0000
0000
,  // measure 36
0001
0000
0010
0000
0100
0010
0000
0001
1000
0000
0100
0000
0010
0000
0001
0000
,  // measure 37
1000
0000
0010
0000
0001
0000
0100
0000
0001
0000
1000
0000
0010
0100
0000
0001
,  // measure 38
1000
0000
0100
0000
0010
0000
0001
0010
0000
0000
0000
0000
0000
0000
0000
0000
,  // measure 39
0001
0000
1000
0000
0001
0100
0000
0010
0100
0000
0000
0001
0000
0100
0000
0010
,  // measure 40
1000
0010
0000
0010
1000
0010
0000
0100
0010
0000
1000
0000
0010
0000
0100
0000
,  // measure 41
0001
0000
1000
0000
0001
1000
0000
0010
0100
0000
0000
0001
0000
0100
0000
0010
,  // measure 42
1000
0010
0000
0010
1000
0010
0000
0100
0010
0000
1000
0000
0010
0000
0100
0000
,  // measure 43
0001
0000
1000
0000
0001
1000
0000
0010
0100
0000
0000
0001
0000
0010
0000
0100
,  // measure 44
1000
0100
0000
0100
1000
0100
0000
1000
0001
0000
1000
0000
0100
0000
0010
0000
,  // measure 45
0001
0000
1000
0000
0001
0010
0001
0010
0001
0000
1000
0010
0000
1000
0010
0000
,  // measure 46
1000
0100
1000
0100
1000
0000
0001
0000
0001
0000
0100
0001
0000
0000
0000
0000
,  // measure 47
1001
0000
0000
0000
;

//---------------dance-single - ----------------
#NOTES:
     dance-single:
     :
     Beginner:
     1:
     0.066,0.118,0.064,0.000,0.000: // measure 1
0000
0000
0000
0000
,  // measure 2
0000
0000
0000
0000
,  // measure 3
1000
0000
0000
0000
,  // measure 4
0000
0000
0000
0000
,  // measure 5
0001
0000
0000
0000
,  // measure 6
0000
0000
0000
0000
,  // measure 7
1000
0000
0000
0000
,  // measure 8
0000
0000
0000
0000
,  // measure 9
0001
0000
0000
0000
,  // measure 10
0000
0000
0000
0000
,  // measure 11
1000
0000
0000
0000
,  // measure 12
0000
0000
0000
0000
,  // measure 13
0010
0000
0000
0000
,  // measure 14
0000
0000
0000
0000
,  // measure 15
0100
0000
0000
0000
,  // measure 16
0000
0000
0000
0000
,  // measure 17
0010
0000
0000
0000
,  // measure 18
0000
0000
0000
0000
,  // measure 19
0100
0000
0000
0000
,  // measure 20
0000
0000
0000
0000
,  // measure 21
0001
0000
0000
0000
,  // measure 22
0000
0000
0000
0000
,  // measure 23
1001
0000
0000
0000
,  // measure 24
1000
0000
0000
0000
,  // measure 25
0001
0000
0000
0000
,  // measure 26
1000
0000
0000
0000
,  // measure 27
1001
0000
0000
0000
,  // measure 28
0001
0000
0000
0000
,  // measure 29
1000
0000
0000
0000
,  // measure 30
0001
0000
0000
0000
,  // measure 31
0100
0000
0000
0000
,  // measure 32
0000
0000
0000
0000
,  // measure 33
0100
0000
0000
0000
,  // measure 34
0000
0000
0000
0000
,  // measure 35
0010
0000
0000
0000
,  // measure 36
0000
0000
0000
0000
,  // measure 37
0010
0000
0000
0000
,  // measure 38
0000
0000
0000
0000
,  // measure 39
1001
0000
0000
0000
,  // measure 40
0001
0000
0000
0000
,  // measure 41
1000
0000
0000
0000
,  // measure 42
0001
0000
0000
0000
,  // measure 43
1001
0000
0000
0000
,  // measure 44
1000
0000
0000
0000
,  // measure 45
0001
0000
0000
0000
,  // measure 46
1001
0000
0000
0000
,  // measure 47
0001
0000
0000
0000
;

//---------------dance-single - ----------------
#NOTES:
     dance-single:
     :
     Hard:
     8:
     0.548,0.622,0.296,0.000,0.296: // measure 1
0000
0000
0000
0000
,  // measure 2
0000
0000
0000
0000
,  // measure 3
0010
0000
0000
0010
0000
0000
0000
0000
1000
0000
0000
0001
0000
0000
0000
0000
,  // measure 4
0010
0000
0000
0010
0000
0000
0000
0000
0110
0000
0000
0000
0000
0000
0000
0000
,  // measure 5
1001
0000
0000
0000
0000
0000
0000
1000
0000
1000
0000
0000
0000
0000
0000
0000
,  // measure 6
0010
0000
0000
0010
0000
0000
0000
0000
0110
0000
0000
0000
0000
0000
0000
0000
,  // measure 7
0100
0000
0000
0100
0000
0000
0000
0000
0001
0000
0000
1000
0000
0000
0000
0000
,  // measure 8
0100
0000
0000
0100
0000
0000
0000
0000
0110
0000
0000
0000
0000
0000
0000
0000
,  // measure 9
1001
0000
0000
0000
0000
0000
0000
0001
0000
0001
0000
0000
0000
0000
0000
0000
,  // measure 10
0100
0000
0000
0100
0000
0000
0000
0000
0110
0000
0000
0000
0000
0000
0000
0000
,  // measure 11
0100
0010
0100
0000
0100
0001
1000
0000
,  // measure 12
1000
0100
1000
0000
0100
0010
0001
1000
,  // measure 13
0010
0100
0010
0000
0010
1000
0001
0000
,  // measure 14
0001
0010
0001
0000
0010
0000
1010
0000
,  // measure 15
1000
0001
1000
0000
1000
0100
1000
0000
,  // measure 16
1000
0010
1000
0000
0100
0010
0001
0100
,  // measure 17
0001
1000
0001
0000
0001
0100
0001
0000
,  // measure 18
0001
0010
0001
0000
0010
0100
1000
0010
,  // measure 19
1000
0001
1000
0000
1000
0100
1000
0000
,  // measure 20
1000
0010
1000
0000
0100
0010
0001
0100
,  // measure 21
0001
1000
0001
0000
0001
0010
0001
0000
,  // measure 22
0001
0100
0001
0000
0001
1000
0000
0000
,  // measure 23
1001
0000
0000
0000
1100
0000
0000
0000
0100
0000
0001
0000
0100
0000
0000
0110
,  // measure 24
0000
0000
1001
0000
0000
0000
0001
0000
0010
0000
1000
0000
0010
0000
0000
0110
,  // measure 25
0000
0000
1001
0000
0000
0000
1000
0000
0100
0000
0001
0000
0100
0000
0000
0110
,  // measure 26
0000
0000
1001
0000
0000
0000
0001
0000
0010
0000
1000
0000
0010
0100
0000
0100
,  // measure 27
0000
0000
1001
0000
0000
0000
1000
0000
0010
0000
0100
0000
0010
1000
0000
1000
,  // measure 28
0000
0000
1010
0000
0000
0000
0001
0000
0100
0000
0010
0000
0100
0001
0000
0001
,  // measure 29
0000
0000
0101
0000
0000
0000
1000
0000
0010
0000
0100
0000
0010
1000
0000
1000
,  // measure 30
0000
0000
1010
0000
0000
0000
0100
0000
0100
0000
0001
0010
0000
0001
0010
0000
,  // measure 31
0001
1000
0001
0000
0001
0100
0001
0000
,  // measure 32
0001
0010
0001
0000
0010
0100
1000
0010
,  // measure 33
1000
0001
1000
0100
0010
0001
0100
0001
,  // measure 34
1000
0100
1000
0010
0100
0001
1000
0000
,  // measure 35
1000
0001
1000
0000
1000
0100
1000
0000
,  // measure 36
1000
0010
1000
0000
0100
0010
0001
0100
,  // measure 37
0001
1000
0001
0010
0100
1000
0010
1000
,  // measure 38
0001
0010
0001
0100
0010
0000
0000
0000
,  // measure 39
1000
0000
0010
0000
1000
0100
0000
1000
0100
0000
0000
1001
0000
0000
0000
0000
,  // measure 40
0001
0000
0010
0000
0001
0100
0000
0001
0100
0000
0010
0000
1000
0000
0001
0000
,  // measure 41
1000
0000
0100
0000
1000
0010
0000
1000
0010
0000
0000
1001
0000
0000
0000
0000
,  // measure 42
0001
0000
0100
0000
0001
0010
0000
0001
0010
0000
0100
0000
1000
0000
0001
0000
,  // measure 43
1000
0000
0100
0000
1000
0001
0000
0100
0001
0000
0000
0101
0000
0000
0000
0000
,  // measure 44
0001
0000
0010
0000
0001
1000
0000
0010
1000
0000
0100
0000
1000
0000
0001
0000
,  // measure 45
0010
0000
0100
0000
1000
0000
0010
1000
0010
0000
1000
0001
0000
1000
0001
0000
,  // measure 46
0100
0010
0100
0010
0100
0000
0001
0000
0001
0000
0010
0100
0000
0000
0000
0000
,  // measure 47
1001
0000
0000
0000
;

//---------------dance-single - ----------------
#NOTES:
     dance-single:
     :
     Medium:
     6:
     0.420,0.474,0.554,0.000,0.013: // measure 1
0000
0000
0000
0000
,  // measure 2
0000
0000
0000
0000
,  // measure 3
1001
0001
1001
1000
,  // measure 4
1001
0001
1001
0000
,  // measure 5
0110
0000
1000
0000
,  // measure 6
1001
1000
1010
0000
,  // measure 7
1001
1000
1001
0001
,  // measure 8
1001
1000
1001
0000
,  // measure 9
0110
0000
0001
0000
,  // measure 10
1001
0001
0101
0000
,  // measure 11
0001
1000
0001
1000
,  // measure 12
0001
1000
0010
0010
,  // measure 13
0100
0010
0100
0010
,  // measure 14
0100
0010
1000
1100
,  // measure 15
1001
0010
0001
0010
,  // measure 16
0001
0010
0001
0100
,  // measure 17
1000
0100
1000
0100
,  // measure 18
1000
0100
1000
0100
,  // measure 19
0001
0100
0001
0100
,  // measure 20
0001
0100
0001
0100
,  // measure 21
1000
0010
1000
0010
,  // measure 22
1000
0010
0001
0000
,  // measure 23
1000
0001
0000
0000
0100
0010
0100
0000
,  // measure 24
0101
0000
1001
0000
0010
0100
0010
0000
,  // measure 25
1010
0000
1001
0000
0100
0001
0100
0000
,  // measure 26
0110
0000
1001
0000
0010
1000
0010
0000
,  // measure 27
0110
0000
1001
0000
0010
0001
0010
0000
,  // measure 28
1010
0000
1001
0000
0100
1000
0100
0000
,  // measure 29
0101
0000
1001
0000
0010
0100
0010
0000
,  // measure 30
1010
0000
0000
0000
,  // measure 31
1000
0001
1000
0000
0010
0000
0010
0000
,  // measure 32
1000
0001
1000
0000
0010
0000
0010
0000
,  // measure 33
1000
0001
1000
0000
0100
0000
0100
0000
,  // measure 34
1000
1000
0001
0001
,  // measure 35
0001
1000
0001
0000
0100
0000
0100
0000
,  // measure 36
0001
1000
0001
0000
0100
0000
0100
0000
,  // measure 37
0001
0001
0010
0100
,  // measure 38
1000
0000
0010
0100
0000
0000
0000
0000
,  // measure 39
0001
0100
0001
0000
0011
0000
1001
0000
,  // measure 40
1000
0010
1000
0000
1100
0000
1001
0000
,  // measure 41
0001
0010
0001
0000
0101
0000
1001
0000
,  // measure 42
1000
0100
1000
0000
1100
0000
1001
0000
,  // measure 43
0100
0010
0100
0000
0101
0000
1001
0000
,  // measure 44
0010
0100
0010
0000
1010
0000
1001
0000
,  // measure 45
0100
0000
0001
0000
0100
0000
0001
0000
0100
0000
0000
0010
0000
0010
0000
0000
,  // measure 46
1010
0000
0000
0010
0001
0010
0000
0000
,  // measure 47
0110
0000
0000
0000
;
