#TITLE:DELTADANCE.COM;
#SUBTITLE:;
#ARTIST:NEWFIELD-MORONE-SINCLAIRE;
#TITLETRANSLIT:;
#SUBTITLETRANSLIT:;
#ARTISTTRANSLIT:;
#CREDIT:DMAxel;
#BANNER:DELTADANCE.COM.png;
#BACKGROUND:DELTADANCE.COM-bg.png;
#LYRICSPATH:DELTADANCE.COM.lrc;
#CDTITLE:Avex.png;
#MUSIC:DELTADANCE.COM.mp3;
#OFFSET:-0.760;
#SAMPLESTART:64.125;
#SAMPLELENGTH:12.000;
#SELECTABLE:YES;
#BPMS:0.000=155.100;
#STOPS:;
#BGCHANGES:;

//---------------dance-single - ----------------
#NOTES:
     dance-single:
     :
     Easy:
     4:
     0.356,0.442,0.372,0.105,0.000:
0000
0000
0000
0000
,
0000
0000
0000
0000
,
0000
0000
0000
0000
,
0000
0000
0000
0000
,
0001
1000
1000
0001
,
0100
0010
0010
0100
,
0010
1000
1000
0001
,
0010
0000
0000
0000
,
0010
1001
0000
1000
,
0000
0100
0000
0010
,
1001
1001
0000
0010
,
0110
0000
0000
0000
,
0100
1001
0001
1000
,
0010
0000
0000
0100
,
0101
0010
1000
0001
,
1001
0000
0000
0000
,
1001
0010
0100
0010
,
2000
0000
0000
0000
,
3001
0100
0010
1000
,
0002
0000
0000
1003
,
0010
0100
0010
1000
,
0002
0000
0000
0103
,
0010
1000
0001
0100
,
0020
0000
0000
1030
,
0001
0010
0100
0100
,
0010
1000
0001
0001
,
1000
0100
0010
0001
,
0100
0100
0010
0010
,
1001
0010
0100
0010
,
1001
0100
0010
0100
,
0001
0010
0100
1000
,
0001
1000
1001
0000
,
0000
0100
1000
0100
,
0000
1000
0010
0100
,
0001
0001
0010
0010
,
0200
0000
0000
0000
,
1300
0001
0010
0100
,
1000
0010
0010
0100
,
0001
0010
0100
1000
,
0010
0100
0100
0010
,
1001
0110
1001
1001
,
0011
0000
0000
0000
1010
0000
0000
1001
,
0000
1001
0000
0010
,
0001
0100
0100
0010
,
1000
0100
0100
0000
,
1000
0011
0100
1001
,
0010
1100
0001
0100
,
0010
1000
1000
0010
,
0100
0001
0001
0100
,
1001
0000
1010
0000
0101
0000
0000
1001
,
0000
1001
0010
1001
,
1001
0100
0010
1000
,
1010
0100
0101
0001
,
1000
0100
0100
0010
,
0001
0001
1000
0001
,
1001
0100
0001
0100
,
2002
0000
0000
3003
,
1001
0010
0100
0010
,
2000
0001
0001
3001
,
0100
0010
0100
0010
,
2000
0001
0001
3001
,
0010
0100
0001
0010
,
0200
1000
1000
1300
,
1000
0100
0010
0001
,
0020
0001
0001
0031
,
0101
0000
1010
0000
1001
0000
0000
1100
,
0000
1001
0000
0000
;

//---------------dance-single - ----------------
#NOTES:
     dance-single:
     :
     Hard:
     7:
     0.485,0.474,0.229,0.095,0.095:
0000
0000
0000
0000
,
0000
0000
0000
0000
,
0000
0000
0000
0000
,
0000
0000
0000
0000
,
1000
0010
1000
0001
,
0100
0001
1000
0010
,
0100
0010
0100
0001
,
1000
0000
0000
0000
,
0010
0100
0010
0000
1000
0100
1000
0010
,
0000
0100
0001
0000
0000
0000
1001
0000
,
0010
0000
0001
0100
0000
0000
0010
0000
,
0010
0000
0000
0000
,
1000
0001
1000
0000
0010
0100
0001
0010
,
0000
0001
1000
0000
0000
0000
0100
0000
,
1000
0000
0010
0100
0000
0000
0010
0000
,
2002
0000
0000
3003
,
0010
0001
0010
0001
0000
0010
0100
0000
,
1000
0000
0010
0000
1000
0000
0000
0010
0000
0100
0000
0000
0010
0000
0010
0000
,
1000
0100
1000
0100
0000
1000
0001
0000
,
0010
0000
0001
0000
0010
0000
0000
0001
0000
1000
0000
0000
0010
0000
0010
0000
,
0100
0001
0100
0001
0000
0100
0010
0000
,
1000
0000
0010
0000
1000
0000
0000
0010
0000
0100
0000
0000
0001
0000
0001
0000
,
0100
0001
0100
0001
0000
0100
0010
0000
,
1000
0000
0001
0000
1000
0000
0000
0010
0000
0100
0000
0000
0010
0000
0010
0000
,
1001
0010
0100
0100
,
1001
0100
0010
0010
,
1001
0000
0010
0001
0000
0100
0000
0011
,
0000
1000
0000
1001
0000
0000
0001
0100
,
1001
0010
0100
0100
,
1001
0100
0010
0010
,
1001
0000
1000
0010
0000
0100
0000
0011
,
0000
0100
0000
1001
0000
0000
0000
0000
,
1000
0000
0010
0100
0010
1000
0010
0100
,
0010
0000
0100
0010
0100
0001
0100
0010
,
0000
1000
0000
0010
0000
0100
0010
0000
,
1000
0100
0010
0001
,
0100
0000
0010
0100
0010
1000
0010
0100
,
0010
0000
0100
0010
0100
0001
0100
0010
,
0000
1000
0000
0010
1000
0010
0001
0000
,
2001
0010
0100
3010
,
1100
0101
1010
1001
,
0010
0100
0001
0000
0010
0001
1000
0020
,
0000
0100
0130
0000
0001
0000
0010
0000
,
1000
0010
1000
0100
1000
0000
0010
0000
,
1001
0100
1001
0000
,
0100
0010
1000
0000
0010
0100
0001
0200
,
0000
0010
0310
0000
1000
0000
0010
0000
,
0001
0010
0001
0100
0001
0000
0100
0000
,
1001
0010
1001
0100
,
0010
0100
0001
0000
0100
0010
1000
0020
,
0000
0100
0130
0000
0001
0000
0100
0000
,
1000
0100
1000
0010
1000
0000
0010
0000
,
1001
0100
1001
0010
,
1000
0010
0001
0000
0100
0010
1000
0200
,
0000
1000
1300
0000
0010
0000
0001
0010
,
0100
1000
0010
1000
0000
0010
0100
0000
,
2002
0000
0000
3003
,
1000
0000
0010
0000
0100
0000
0000
0010
0000
0000
0010
0000
0100
0000
0001
0000
,
1000
0000
0100
0000
1000
0000
0000
0010
0000
0100
0000
0000
0001
0000
0001
0000
,
0100
0000
0010
0000
1000
0000
0000
0010
0000
0000
0010
0000
0100
0000
0001
0000
,
0010
0000
0001
0000
0010
0000
0000
0001
0000
1000
0000
0000
0100
0000
0100
0000
,
1000
0000
0010
0000
0100
0000
0000
0001
0000
0000
0001
0000
0100
0000
0010
0000
,
1000
0000
0010
0000
0100
0000
0000
0001
0000
1000
0000
0000
0010
0000
0010
0000
,
0100
0000
0010
0000
1000
0000
0000
0100
0000
0000
0100
0000
0010
0000
1000
0000
,
0010
0000
0100
0000
0001
0000
0000
0010
0000
0001
0000
0000
0100
0000
0100
0000
,
0010
1000
0100
0000
1000
0100
0001
0020
,
0000
0001
0031
0000
0000
0000
0000
0000
;

//---------------dance-single - ----------------
#NOTES:
     dance-single:
     :
     Challenge:
     9:
     0.594,0.632,0.372,0.134,0.186: // measure 1
0000
0000
0000
0000
,  // measure 2
0000
0000
0000
0000
,  // measure 3
0000
0000
0000
0000
,  // measure 4
0000
0000
0000
0000
,  // measure 5
0001
0100
0001
1001
,  // measure 6
1001
1000
0001
0110
,  // measure 7
0110
1000
0010
1001
,  // measure 8
2002
0000
0000
3003
,  // measure 9
0100
0001
0100
0000
0010
1000
0010
0100
,  // measure 10
0000
0001
0020
0000
0000
0000
0001
0000
,  // measure 11
0031
0000
0100
0010
0000
0000
1100
0000
,  // measure 12
0101
1001
1001
0000
,  // measure 13
0010
0001
0010
0000
0100
1000
0100
0010
,  // measure 14
0000
0001
2000
0000
0000
0000
0100
0000
,  // measure 15
3100
0000
1000
0010
0000
0000
0101
0000
,  // measure 16
2001
0001
0002
3003
,  // measure 17
1000
0000
0010
0000
0100
0000
0000
0100
0000
0000
0010
0000
1000
0000
0000
0000
,  // measure 18
0010
0000
0100
0000
0001
0000
0100
0010
0000
0100
0000
0000
0001
0000
1000
0000
,  // measure 19
0001
0000
0100
0000
0010
0000
0000
0010
0000
0000
0100
0000
0001
0000
0000
0000
,  // measure 20
1000
0000
0010
0000
0100
0000
0010
0100
0000
0010
0000
0000
1000
0000
0001
0000
,  // measure 21
1000
0000
0100
0000
0010
0000
0000
0010
0000
0000
0100
0000
1000
0000
0000
0000
,  // measure 22
0001
0000
0100
0000
0001
0000
0100
0010
0000
0100
0000
0000
0001
0000
1000
0000
,  // measure 23
0001
0000
0010
0000
0100
0000
0000
0100
0000
0000
0010
0000
0001
0000
0000
0000
,  // measure 24
0100
0000
0010
0000
0100
0000
0001
1000
0000
0001
0000
1000
0001
0000
0000
0000
,  // measure 25
1000
0100
1000
0010
1000
0100
1000
0000
,  // measure 26
0001
0010
0001
0100
0001
0010
0001
0000
,  // measure 27
0100
0010
0100
0001
0100
1000
0100
0011
,  // measure 28
0000
1100
0000
1001
0000
0000
1000
0100
,  // measure 29
0001
0010
0001
0100
0001
0010
0001
0000
,  // measure 30
1000
0100
1000
0010
1000
0100
1000
0000
,  // measure 31
0010
0100
0010
1000
0010
0001
0010
1100
,  // measure 32
0000
0011
0000
2002
0000
0000
3003
0000
,  // measure 33
0001
0010
1000
0100
1000
0001
0010
0100
,  // measure 34
1000
0000
0001
0010
0100
1000
0010
0100
,  // measure 35
0010
1000
0000
1001
0000
0010
0100
0000
,  // measure 36
0100
0010
1000
0010
0001
0100
1000
0000
,  // measure 37
0010
0000
0010
0100
0010
1000
0010
0100
,  // measure 38
0010
0000
0100
0001
0100
0010
0100
1001
,  // measure 39
0000
0010
0000
1000
0010
0100
0010
0000
,  // measure 40
1000
0010
0001
0100
1000
0100
0010
0001
,  // measure 41
1010
0101
1100
1001
,  // measure 42
0001
0100
1000
0000
0010
0100
0001
0020
,  // measure 43
0000
0001
0031
0000
0100
0000
0001
0100
,  // measure 44
0001
0100
1000
0010
0001
0000
1100
0000
,  // measure 45
0101
1010
1001
0010
,  // measure 46
1000
0010
0001
0000
0100
0010
1000
0200
,  // measure 47
0000
1000
1300
0000
0010
0000
1000
0010
,  // measure 48
1000
0010
0001
0100
1000
0000
0011
0000
,  // measure 49
1010
0101
1001
0010
,  // measure 50
1000
0010
0001
0000
0100
0010
1000
0020
,  // measure 51
0000
0100
0130
0000
0001
0000
1000
0100
,  // measure 52
1000
0100
0001
0010
1000
0000
0010
0100
,  // measure 53
0011
1100
1001
0010
,  // measure 54
1000
0010
0001
0000
0100
0010
1000
0002
,  // measure 55
0000
1000
1003
0000
0010
0000
0100
0001
,  // measure 56
1000
0100
0001
0010
1000
0000
0001
0010
,  // measure 57
1002
1000
2000
3003
,  // measure 58
0001
0000
0100
0000
0001
0000
0100
0010
0000
0000
0010
0000
0100
0000
0000
0001
,  // measure 59
0010
0000
0001
0000
0100
0010
0100
0010
0000
1000
0000
0010
0100
0000
0010
0000
,  // measure 60
1000
0000
0010
0000
1000
0000
0010
0100
0000
0000
0100
0000
0010
0000
0000
1000
,  // measure 61
0100
0000
1000
0000
0010
0100
0010
0100
0000
0001
0000
0100
0010
0000
1000
0000
,  // measure 62
0001
0000
0100
0000
0001
0000
0100
0010
0000
0100
0010
0000
1000
0000
0000
0010
,  // measure 63
0100
0000
0010
0000
1000
0100
1000
0100
0000
1000
0000
0001
0100
0000
0010
0000
,  // measure 64
1000
0000
0010
0000
1000
0000
0010
0100
0000
0010
0100
0000
0001
0000
0000
1000
,  // measure 65
0010
0000
0100
0000
0001
0010
0001
0010
0000
0001
0000
0100
0010
0000
1000
0000
,  // measure 66
0100
0001
1010
0000
0001
0010
1000
0101
,  // measure 67
0000
1000
1001
0000
0000
0000
0000
0000
;

//---------------dance-single - ----------------
#NOTES:
     dance-single:
     :
     Medium:
     6:
     0.440,0.474,0.219,0.114,0.019:
0000
0000
0000
0000
,
0000
0000
0000
0000
,
0000
0000
0000
0000
,
0000
0000
0000
0000
,
0001
0100
0001
1000
,
0010
1000
0001
0100
,
0010
0100
0010
1000
,
0001
0000
0000
0000
,
0100
0000
0101
0000
0010
1000
0010
1000
,
0000
0001
0200
0000
0000
0000
0000
0000
,
0301
0000
0100
0010
0000
0000
1000
0000
,
0001
1001
1001
0000
,
0100
0010
0100
0000
0001
1000
0001
0100
,
0000
0010
2000
0000
0000
0000
3001
0000
,
0100
0000
0010
1000
0000
0000
0001
0000
,
2002
0000
0000
3003
,
1000
0010
1000
0000
0001
0010
0100
1000
,
0010
0010
0010
1001
,
0001
0100
0001
0000
1000
0100
0010
0001
,
0100
0100
0100
1001
,
1000
0100
1000
0000
0001
0010
0100
1000
,
0010
0100
0010
1001
,
0001
0010
0001
0000
1000
0100
0010
0001
,
0100
0010
0100
1001
,
0001
0010
0100
1000
,
0001
0010
0100
1000
,
0010
1000
0100
0010
,
0001
0100
1001
0000
,
1000
0100
0010
0001
,
1000
0100
0010
0001
,
0010
0000
0001
0100
0000
0010
0000
0100
,
0000
0010
0000
1001
0000
0000
0000
0000
,
0000
0000
1000
0000
0010
0000
0100
0010
,
0000
0000
0100
0000
0001
0000
0100
0010
,
0000
1000
0000
0100
0000
1000
0001
0000
,
1000
0100
0010
0001
,
0010
0000
0100
0000
1000
0001
1000
0010
,
0100
0000
0001
1000
0001
0100
0010
0100
,
0000
0001
0000
0100
0000
0010
1000
0000
,
0001
0100
1000
0010
,
0101
1010
1001
1001
,
0001
0100
0001
0000
0100
0010
0100
0001
,
0000
0001
1000
0000
0010
0000
0100
0000
,
0011
0000
0100
1000
0000
0000
0101
0000
,
1002
1000
1003
0010
,
1000
0010
1000
0000
0010
0100
0010
1000
,
0000
1000
0001
0000
0100
0000
0010
0000
,
0100
0000
0001
0100
0000
0100
0010
0000
,
1001
0100
1001
0010
,
1000
0100
1000
0000
0001
0100
0010
0100
,
0000
0100
0001
0000
0100
0000
0010
0000
,
0100
0000
0001
1000
0000
1000
0010
0000
,
1001
0100
1001
0010
,
1000
0010
1000
0000
0001
0010
0100
1000
,
0000
1000
0001
0000
0100
0000
0010
0100
,
0010
0100
0001
1000
0000
1000
0001
0000
,
2002
0000
0000
3003
,
0010
0000
0100
0000
0010
0000
0000
0100
0000
0000
0100
0000
0010
0000
1000
0000
,
0002
1000
1000
1003
,
0100
0000
1000
0000
0100
0000
0000
1000
0000
0000
0001
0000
0100
0000
0010
0000
,
2000
0001
0001
3001
,
0010
0000
0001
0000
0010
0000
0000
0001
0000
0000
0001
0000
0100
0000
0010
0000
,
2000
0001
0001
3001
,
0010
0000
1000
0000
0010
0000
0000
1000
0000
0000
0010
0000
0100
0000
0001
0000
,
0200
0000
0010
0000
0010
0000
0310
0100
,
0010
0000
1001
0000
0100
0000
0010
2000
,
0000
0001
3001
0000
0000
0000
0000
0000
;

//---------------dance-single - ----------------
#NOTES:
     dance-single:
     :
     Beginner:
     2:
     0.142,0.221,0.181,0.000,0.000:
0000
0000
0000
0000
,
0000
0000
0000
0000
,
0000
0000
0000
0000
,
0000
0000
0000
0000
,
1000
0000
0000
0000
,
0001
0000
0000
0000
,
1000
0000
0000
0000
,
0010
0000
0000
0000
,
0100
0000
0000
0000
,
0000
0000
0000
0000
,
0100
0000
0000
0000
,
0000
0000
0000
0000
,
0100
0000
0000
0000
,
0000
0000
0000
0000
,
0010
0000
0000
0000
,
0010
0000
0000
0000
,
1000
0000
1000
0000
,
1001
0000
0000
0000
,
0001
0000
0001
0000
,
1001
0000
0000
0000
,
0100
0000
0100
0000
,
0110
0000
0000
0000
,
0010
0000
0010
0000
,
0110
0000
0000
0000
,
1000
0000
0000
0000
,
0010
0000
0000
0000
,
1000
0000
0000
0000
,
0000
0000
0000
0000
,
0001
0000
0000
0000
,
0100
0000
0000
0000
,
0001
0000
0000
0000
,
0100
0000
1001
0000
,
0000
0001
0000
1000
,
0000
0001
0000
1000
,
0000
0100
0000
1000
,
0000
0001
0000
0010
,
0000
0001
0000
1000
,
0000
0001
0000
1000
,
0000
0010
0000
1000
,
0000
0001
0000
1000
,
0000
0000
0000
0000
,
1001
0000
0010
0000
,
1001
0000
0000
0000
,
1000
0000
0001
0000
,
1000
0000
0000
0000
,
1001
0000
0100
0000
,
1001
0000
0000
1000
,
0000
0100
0000
0010
,
0000
0001
0000
0000
,
1001
0000
0010
0000
,
1001
0000
0000
0000
,
0001
0000
0010
0000
,
0100
0000
1000
0000
,
1001
0000
0100
0000
,
1001
0000
0000
0000
,
0001
0000
0100
0000
,
1001
0000
0000
0000
,
0010
0000
0010
0000
,
1001
0000
0000
0000
,
0100
0000
0100
0000
,
1001
0000
0000
0000
,
1000
0000
1000
0000
,
1001
0000
0000
0000
,
0001
0000
0001
0000
,
1001
0000
0000
0000
,
0100
0000
0000
0000
,
0000
1001
0000
0000
;
