#TITLE:Cyber Force;
#SUBTITLE:-DJ Yoshitaka Remix-;
#ARTIST:Remixed by DJ YOSHITAKA;
#TITLETRANSLIT:;
#SUBTITLETRANSLIT:;
#ARTISTTRANSLIT:;
#CREDIT:DMAxel;
#BANNER:Cyber Force -DJ Yoshitaka Remix-.png;
#BACKGROUND:Cyber Force -DJ Yoshitaka Remix--bg.png;
#LYRICSPATH:;
#CDTITLE:Konami original REMIX.png;
#MUSIC:Cyber Force -DJ Yoshitaka Remix-.mp3;
#OFFSET:0.620;
#SAMPLESTART:97.996;
#SAMPLELENGTH:12.000;
#SELECTABLE:YES;
#BPMS:0.000=146.000;
#STOPS:;
#BGCHANGES:0.000=Cyber Force -DJ Yoshitaka Remix-.AVI=1.000=1=1=0,
99999=-nosongbg-=1.000=0=0=0 // don't automatically add -songbackground-
;

//---------------dance-single - ----------------
#NOTES:
     dance-single:
     :
     Easy:
     2:
     0.145,0.179,0.090,0.060,0.000:
0000
0000
0000
0000
,
0000
0000
0000
0000
,
0000
0000
0000
0000
,
0000
0000
0000
0000
,
0000
0000
0000
0000
,
0000
0000
0000
0000
,
0000
0000
0000
0000
,
0000
0000
0000
0000
,
0000
0000
0000
0000
,
1001
0000
1000
0000
,
1000
0000
1000
0000
,
1001
0000
0001
0000
,
0001
0000
0001
0000
,
1001
0000
1000
0000
,
0001
0000
1000
0000
,
0010
0000
0100
0000
,
0010
0000
0010
0000
,
0110
0000
1000
0000
,
0001
0000
1000
0000
,
1001
0000
0001
0000
,
1000
0000
0001
0000
,
0100
0000
0010
0000
,
0110
0000
0100
0000
,
0010
0000
0010
0000
,
0100
0000
0000
0000
,
0110
0000
0000
0000
,
0001
0000
0000
0000
,
1000
0000
0000
0000
,
0001
0000
0001
0000
,
1000
0000
0000
0000
,
0001
0000
1000
0000
,
1000
0000
1000
0000
,
0001
0000
1000
0000
,
0010
0000
0000
0000
,
0010
0000
0010
0000
,
0100
0000
0100
0000
,
0010
0000
0010
0000
,
0100
0000
0100
0000
,
0001
0000
1000
0000
,
1000
0000
0001
0000
,
0100
0000
0001
0000
,
1000
0000
0010
0000
,
2000
0000
0000
0000
,
0000
0000
0000
0000
,
3002
0000
0000
0000
,
0000
0000
0000
0000
,
2003
0000
0000
0000
,
0000
0000
0000
0000
,
3002
0000
0000
0000
,
0000
0000
0000
0000
,
1003
0000
1000
0000
,
0001
0000
0001
0000
,
0100
0000
0100
0000
,
0010
0000
0110
0000
,
1000
0000
0001
0000
,
0100
0000
0010
0000
,
1000
0000
1000
0000
,
1000
0000
0100
0000
,
0011
0000
0000
0000
,
1001
0000
0000
0000
,
0001
0000
0100
0000
,
0001
0000
1000
0000
,
0001
0000
1000
0000
,
0010
0000
1000
0000
,
0001
0000
1000
0000
,
0010
0000
1000
0000
,
0001
0000
0001
0000
,
1001
0000
0000
0000
,
0001
0000
1000
0000
,
0010
0000
0100
0000
,
0001
0000
1000
0000
,
0010
0000
0100
0000
,
0001
0000
0010
0000
,
0100
0000
1000
0000
,
0001
0000
0100
0000
,
0110
0000
0000
0000
,
2000
0000
0000
0000
,
3002
0000
0000
0000
,
0203
0000
0000
0000
,
0320
0000
0000
0000
0000
0000
0000
0030
;

//---------------dance-single - ----------------
#NOTES:
     dance-single:
     :
     Medium:
     4:
     0.293,0.359,0.142,0.150,0.000: // measure 1
0000
0000
0000
0000
,  // measure 2
0000
0000
0000
0000
,  // measure 3
0000
0000
0000
0000
,  // measure 4
0000
0000
0000
0000
,  // measure 5
0000
0000
0000
0000
,  // measure 6
0000
0000
0000
0000
,  // measure 7
0000
0000
0000
0000
,  // measure 8
0000
0000
0000
0000
,  // measure 9
0000
0000
0000
0000
,  // measure 10
1001
1000
1000
1000
,  // measure 11
0001
0001
0001
0001
,  // measure 12
1000
1000
1000
1000
,  // measure 13
0010
0010
0110
0110
,  // measure 14
1001
0001
0001
0001
,  // measure 15
1000
1000
1000
1000
,  // measure 16
0100
0100
0100
0100
,  // measure 17
0110
0000
0010
0010
,  // measure 18
0110
1000
0001
1000
,  // measure 19
0100
1000
0100
1000
,  // measure 20
0001
1000
0001
1000
,  // measure 21
0001
0010
0001
0001
,  // measure 22
1001
1000
0100
1000
,  // measure 23
0010
1000
0010
1000
,  // measure 24
0001
0100
0001
0100
,  // measure 25
0001
0010
0001
0010
,  // measure 26
1001
0000
0000
0000
,  // measure 27
0001
0000
0010
0000
,  // measure 28
0001
1000
0001
0000
,  // measure 29
1000
0000
0100
0000
,  // measure 30
1000
0001
1000
0000
,  // measure 31
1001
0000
0001
0000
,  // measure 32
0001
0010
0001
0100
,  // measure 33
0001
0000
0001
0000
,  // measure 34
1000
0100
1000
0010
,  // measure 35
1000
0000
1000
0000
,  // measure 36
0001
1000
0010
1000
,  // measure 37
0001
0000
0001
0000
,  // measure 38
1000
0001
0100
0001
,  // measure 39
1001
0000
1000
0000
,  // measure 40
1000
0010
1000
0001
,  // measure 41
1000
0000
1000
0000
,  // measure 42
0001
0000
0010
0001
,  // measure 43
2000
0000
3200
0000
,  // measure 44
0320
0000
0032
0000
,  // measure 45
2003
0000
3200
0000
,  // measure 46
0320
0000
0031
1000
,  // measure 47
0002
0000
0023
0000
,  // measure 48
0230
0000
2300
0000
,  // measure 49
3002
0000
0023
0000
,  // measure 50
0230
0000
1300
0001
,  // measure 51
1001
0100
0010
0001
,  // measure 52
1000
0100
0010
0001
,  // measure 53
1000
0100
0010
0001
,  // measure 54
1000
0100
0011
1001
,  // measure 55
0001
0100
0001
0100
,  // measure 56
0010
1000
0010
1000
,  // measure 57
0001
0010
0001
0010
,  // measure 58
0100
1000
0100
1000
,  // measure 59
0220
0000
0000
0330
,  // measure 60
1001
0000
0000
0000
,  // measure 61
0001
0100
0001
0100
,  // measure 62
0001
1000
0001
1000
,  // measure 63
0010
1000
0010
1000
,  // measure 64
0001
0000
1000
0000
0001
1000
0001
1000
,  // measure 65
0001
0010
0001
0010
,  // measure 66
0001
1000
0001
1000
,  // measure 67
0100
1000
0100
1000
,  // measure 68
1001
0000
0000
1001
,  // measure 69
0011
0100
1000
0100
,  // measure 70
0010
0001
1000
0001
,  // measure 71
1100
0010
0001
0010
,  // measure 72
0100
1000
0001
1000
,  // measure 73
0001
0010
0001
0000
1000
0000
0100
0000
,  // measure 74
1000
0010
1000
0000
0001
0000
0100
0000
,  // measure 75
0001
0100
0001
0000
1000
0000
0010
0000
,  // measure 76
1000
0001
0000
0000
0000
0000
1000
0000
,  // measure 77
0200
0000
1000
0000
,  // measure 78
2300
0000
0010
0000
,  // measure 79
3020
0000
0100
0000
,  // measure 80
0230
0000
0000
0000
0001
0000
0000
0300
;

//---------------dance-single - ----------------
#NOTES:
     dance-single:
     :
     Hard:
     7:
     0.477,0.538,0.576,0.090,0.079: // measure 1
0000
0000
0000
0000
,  // measure 2
0000
0000
0000
0000
,  // measure 3
0000
0000
0000
0000
,  // measure 4
0000
0000
0000
0000
,  // measure 5
0000
0000
0000
0000
,  // measure 6
0000
0000
0000
0000
,  // measure 7
0000
0000
0000
0000
,  // measure 8
0000
0000
0000
0000
,  // measure 9
0000
0000
0000
0000
,  // measure 10
1001
0000
0001
0000
0001
0000
0001
0010
,  // measure 11
1000
0000
1000
0000
1000
0000
1000
0100
,  // measure 12
0001
0000
0001
0000
0001
0000
0001
0010
,  // measure 13
1000
1000
1010
0011
,  // measure 14
1001
0000
1000
0000
1000
0000
1000
0100
,  // measure 15
0001
0000
0001
0000
0001
0000
0001
0010
,  // measure 16
1000
1000
1000
1000
,  // measure 17
1010
0000
1010
0011
,  // measure 18
1001
0000
0000
0000
1000
0000
0000
0000
0001
0000
0000
0100
0000
0000
0001
0000
,  // measure 19
1000
0000
0000
0000
0001
0000
0000
0000
1000
0000
0000
0010
0000
0000
1000
0000
,  // measure 20
0001
0000
0000
0000
1000
0000
0000
0000
0001
0000
0000
0010
0000
0000
0001
0000
,  // measure 21
1000
0001
0101
1100
,  // measure 22
1001
0000
0001
0000
0001
0100
0001
0000
,  // measure 23
1001
0000
1000
0000
1000
0010
1000
0000
,  // measure 24
1000
0001
1000
0000
1000
0100
1000
0000
,  // measure 25
0001
1000
0001
1000
0001
0010
0001
0000
,  // measure 26
2002
0000
0000
3003
,  // measure 27
1000
0010
0100
0010
0010
0000
1000
0100
,  // measure 28
0001
0100
0010
0100
0100
0000
0001
0010
,  // measure 29
1000
0010
0100
0010
0010
0000
1000
0100
,  // measure 30
0001
0100
0010
0000
1010
0000
0110
0000
,  // measure 31
1001
0000
0001
0100
0001
1000
0000
1000
,  // measure 32
0001
0100
0001
1000
0100
0000
0110
0000
,  // measure 33
1001
0000
1000
0010
1000
0001
0000
0001
,  // measure 34
1000
0010
1000
0001
0010
0000
0110
0000
,  // measure 35
0101
0000
0100
0001
1000
0100
0010
0000
,  // measure 36
1010
0000
0010
1000
0001
0010
0100
0000
,  // measure 37
0101
0000
0100
0001
1000
0100
0010
0000
,  // measure 38
1010
0000
0010
1000
0001
0010
0100
0000
,  // measure 39
1000
0010
1000
0001
0010
0100
0000
1000
,  // measure 40
0001
0000
0100
0000
0001
0000
1000
0000
0100
0010
0000
0000
1001
0000
0000
0000
,  // measure 41
0001
0100
0001
1000
0100
0010
0000
0001
,  // measure 42
1000
0000
0010
0000
1000
0000
0001
0000
0010
0100
0000
0000
1001
0000
0000
0000
,  // measure 43
0011
0010
1010
0100
,  // measure 44
0101
0100
1100
0010
,  // measure 45
0011
0010
1010
0100
,  // measure 46
0101
0100
1100
0001
,  // measure 47
1100
0100
0101
0010
,  // measure 48
1010
0010
0011
0100
,  // measure 49
1100
0100
0101
0010
,  // measure 50
1010
0010
0011
1000
,  // measure 51
1001
0101
1100
1100
,  // measure 52
1001
1010
0011
0011
,  // measure 53
1001
0011
1010
1010
,  // measure 54
1001
1100
0101
0101
,  // measure 55
1001
0000
0010
0010
1010
0000
0100
0100
,  // measure 56
0101
0000
0010
0010
0011
0000
0100
0100
,  // measure 57
1100
1010
0101
0011
,  // measure 58
1001
0110
1001
0110
,  // measure 59
1001
0000
0000
0000
,  // measure 60
0220
0000
0000
0330
,  // measure 61
1000
0000
0010
0000
0000
0100
0000
0000
0010
0000
0000
1000
0000
0000
0001
0000
,  // measure 62
0100
0000
0010
0000
0000
0100
0000
0000
0001
0000
0000
1000
0000
0000
0001
0000
,  // measure 63
1000
0000
0010
0000
0000
1000
0000
0000
0100
0000
0000
1000
0000
0000
0001
0000
,  // measure 64
0100
0000
0010
0000
0000
0100
0000
0000
0001
0000
0100
0000
0101
0000
0000
0000
,  // measure 65
1000
0000
0001
0000
0000
0100
0000
0000
0001
0000
0000
0100
0000
0000
0010
0000
,  // measure 66
1000
0000
0001
0000
0000
1000
0000
0000
0100
0000
0000
1000
0000
0000
0010
0000
,  // measure 67
1000
0000
0000
1000
0000
0000
0001
0000
0000
0001
0000
0000
0100
0000
0010
0000
,  // measure 68
2020
0000
3030
0101
,  // measure 69
1001
0000
0000
0000
0001
0000
0100
0000
0001
0000
0000
1000
0000
0000
0100
0000
,  // measure 70
1000
0000
0001
0000
1000
0000
0010
0000
1000
0000
0000
0001
0000
0000
0010
0000
,  // measure 71
0001
0000
1000
0000
0001
0000
0100
0000
0001
0000
0000
1000
0000
0000
0100
0000
,  // measure 72
1000
0001
1000
0010
1000
0100
0001
0100
,  // measure 73
1000
0010
1000
0010
0001
0010
0001
0100
,  // measure 74
1000
0100
1000
0100
0001
0100
0001
0010
,  // measure 75
1000
0010
1000
0010
0001
0010
0001
0100
,  // measure 76
0010
2020
0000
0000
0000
0000
3030
0000
,  // measure 77
0201
0000
0001
0000
,  // measure 78
0302
0000
1000
0000
,  // measure 79
2003
0000
0010
0000
,  // measure 80
3020
0000
0000
0000
0100
0000
0000
0030
;

//---------------dance-single - ----------------
#NOTES:
     dance-single:
     :
     Challenge:
     9:
     0.569,0.628,0.322,0.239,0.385: // measure 1
0000
0000
0000
0000
,  // measure 2
0000
0000
0000
0000
,  // measure 3
0000
0000
0000
0000
,  // measure 4
0000
0000
0000
0000
,  // measure 5
0000
0000
0000
0000
,  // measure 6
0000
0000
0000
0000
,  // measure 7
0000
0000
0000
0000
,  // measure 8
0000
0000
0000
0000
,  // measure 9
0000
0000
0000
0000
,  // measure 10
0001
0000
0100
0000
0000
0010
0000
0000
0100
0000
0000
0001
0000
0000
0010
0000
,  // measure 11
1000
0000
0010
0000
0000
0100
0000
0000
0010
0000
0000
1000
0000
0000
0100
0000
,  // measure 12
0001
0000
0100
0000
0000
0010
0000
0000
0100
0000
0000
0001
0000
0000
0010
0000
,  // measure 13
1000
0000
0010
0000
0000
0100
0000
0000
0110
0000
0000
0000
0101
0000
0000
0000
,  // measure 14
0001
0000
1000
0000
0000
0010
0000
0000
1000
0000
0000
0001
0000
0000
0100
0000
,  // measure 15
1000
0000
0001
0000
0000
0100
0000
0000
0001
0000
0000
1000
0000
0000
0100
0000
,  // measure 16
0001
0000
0000
0001
0000
0000
1000
0000
0000
1000
0000
0000
0001
0000
0010
0000
,  // measure 17
0110
0000
1010
0011
,  // measure 18
0001
0000
0100
0000
0010
0100
0000
0000
0001
0000
0000
0100
0000
0000
0001
0000
,  // measure 19
1000
0000
0010
0000
0100
0010
0000
0000
1000
0000
0000
0010
0000
0000
1000
0000
,  // measure 20
0001
0000
0100
0000
0010
0100
0000
0000
0001
0000
0000
0100
0000
0000
0001
0000
,  // measure 21
1000
0000
0010
0000
0100
0010
0000
0000
0101
0000
0000
0100
0001
0000
0000
0001
,  // measure 22
1000
0000
0100
0000
1000
0001
0000
0000
0010
0000
0001
0000
0010
0100
0000
0000
,  // measure 23
1001
0000
0010
0000
0001
1000
0000
0000
0100
0000
1000
0000
0100
0010
0000
0000
,  // measure 24
0001
1000
0001
0000
1000
0000
0001
0000
0100
0010
0100
0000
0010
0000
0100
0000
,  // measure 25
1001
0000
0001
0000
1000
0000
1000
0000
0010
0000
0010
0100
0010
0000
1000
0000
,  // measure 26
2002
0000
0000
3003
,  // measure 27
0100
0000
0000
0100
0000
0000
0100
0000
1000
0000
0010
0000
1000
0000
0100
0000
,  // measure 28
0010
0000
0000
0010
0000
0000
0010
0000
0001
0000
0100
0000
0001
0000
0010
0000
,  // measure 29
0100
0000
0000
0100
0000
0000
0100
0000
1000
0000
0010
0000
1000
0000
0100
0000
,  // measure 30
0010
0000
0000
0010
0000
0000
0010
0000
0001
0000
0100
0000
0101
0000
0000
0000
,  // measure 31
1001
0000
0000
1000
0000
0010
1000
0000
0010
0000
0100
0000
0001
0000
0000
0000
,  // measure 32
0001
0000
0000
0001
0000
0100
0001
0000
0100
0000
0010
0000
1000
0000
0000
0000
,  // measure 33
1000
0000
0000
1000
0000
0010
1000
0000
0010
0000
0100
0000
0001
0000
0000
0000
,  // measure 34
0001
0000
0000
0001
0000
0100
0001
0000
0100
0000
0010
0000
1000
0010
1000
0000
,  // measure 35
1001
0000
0000
1000
0010
0000
0100
0000
0010
0000
1000
0000
0001
0000
0000
0000
,  // measure 36
1001
0000
0000
0001
0100
0000
0010
0000
0100
0000
0001
0000
1000
0000
0000
0000
,  // measure 37
1001
0000
0000
1000
0010
0000
0100
0000
0010
0000
1000
0000
0001
0000
0000
0000
,  // measure 38
1001
0000
0000
0001
0100
0000
0010
0000
0100
0000
0001
0000
0101
0000
0000
0000
,  // measure 39
1001
0000
0000
0000
1000
0000
0000
1000
0000
0010
1000
0000
0001
0000
0001
0000
,  // measure 40
0100
0000
0000
0000
0001
0000
0000
0001
0000
0100
0001
0000
1000
0000
1000
0000
,  // measure 41
0010
0000
0000
0000
1000
0000
0000
1000
0000
0010
1000
0000
0001
0000
0001
0000
,  // measure 42
0100
0000
0010
0000
0100
0000
0000
0001
0000
0100
0001
0000
0100
0010
0100
0000
,  // measure 43
0002
0000
0000
1000
0000
0000
1003
0000
0200
0000
0000
1000
0000
0000
1300
0000
,  // measure 44
0020
0000
0000
0001
0000
0000
0031
0000
0200
0000
0000
1000
0000
0000
1300
0000
,  // measure 45
0002
0000
0000
1000
0000
0000
1003
0000
0020
0000
0000
0100
0000
0000
0130
0000
,  // measure 46
2000
0000
0000
0001
0000
0000
3001
0000
0200
0000
0000
0010
0000
0000
0310
0000
,  // measure 47
2000
0000
0000
0010
0000
0000
3010
0000
0002
0000
0000
0100
0000
0000
0103
0000
,  // measure 48
2000
0000
0000
0010
0000
0000
3010
0000
0002
0000
0000
0100
0000
0000
0103
0000
,  // measure 49
0020
0000
0000
0100
0000
0000
0130
0000
2000
0000
0000
0001
0000
0000
3001
0000
,  // measure 50
0200
0000
0000
0010
0000
0000
0310
0000
0002
0000
0000
1000
0000
0000
1003
0000
,  // measure 51
0010
0100
0010
1000
1100
0000
0101
0000
,  // measure 52
0100
0010
0100
0001
0011
0000
1010
0000
,  // measure 53
0010
1000
0001
0010
0110
0000
0101
0000
,  // measure 54
0100
0001
1000
0100
0110
0000
1010
0000
,  // measure 55
1000
0000
0010
0000
0100
0010
0100
0000
0001
0000
0100
0000
0010
0100
0010
0000
,  // measure 56
1000
0000
0100
0000
1000
0001
1000
0000
0001
0000
0010
0000
0001
1000
0001
0000
,  // measure 57
0010
0100
1000
0001
0010
0100
1000
0001
,  // measure 58
0010
0000
0001
1000
0001
0000
1000
0001
1000
0000
0100
0000
0010
0000
0001
0000
,  // measure 59
2002
0000
0000
3003
,  // measure 60
0220
0000
0000
0330
,  // measure 61
1000
0000
0010
0000
0100
0010
0000
0000
1000
0000
0000
0001
0000
0000
0100
0000
,  // measure 62
0001
0000
0100
0000
0010
0100
0000
0000
0001
0000
0000
1001
0000
0000
0001
0000
,  // measure 63
1000
0000
0100
0000
1000
0010
0000
0000
1000
0000
0000
0001
0000
0000
0100
0000
,  // measure 64
0001
0000
0010
0000
0001
0100
0000
0000
0001
0000
0100
0000
0010
0100
0010
0000
,  // measure 65
1000
0000
0001
0000
1000
0100
0000
0000
1000
0000
0000
0001
0000
0000
0010
0000
,  // measure 66
0001
0000
1000
0000
0001
0010
0000
0000
0001
0000
0000
1001
0000
0000
0001
0000
,  // measure 67
1000
0000
0000
0010
0000
0000
0100
0000
0000
0001
0000
0000
0100
0000
1000
0000
,  // measure 68
0220
0000
0330
0101
,  // measure 69
1001
0000
0010
0000
0001
0100
0000
0000
1100
0000
0000
1001
0000
0000
0001
0000
,  // measure 70
1000
0000
0100
0000
1000
0010
0000
0000
0011
0000
0000
1001
0000
0000
1000
0000
,  // measure 71
0001
0000
0100
0000
0001
0010
0000
0000
1010
0000
0000
1001
0000
0000
0100
0000
,  // measure 72
1000
0000
0010
0000
1000
0100
0000
0000
0101
0000
0100
0000
0001
1000
0001
0000
,  // measure 73
1000
0000
0010
0000
0100
0010
0100
0000
0001
0000
0100
0000
0010
0100
0010
0000
,  // measure 74
1000
0000
0100
0000
1000
0001
1000
0000
0001
0000
0100
0000
0001
1000
0001
0000
,  // measure 75
1000
0010
0100
0001
1000
0010
0100
0001
,  // measure 76
0101
0110
0000
0000
0000
0000
0110
0000
,  // measure 77
1002
0000
0203
0000
,  // measure 78
0320
0000
2030
0000
,  // measure 79
3200
0000
0320
0000
,  // measure 80
0032
0000
0000
0000
2003
0000
0000
3000
;

//---------------dance-single - ----------------
#NOTES:
     dance-single:
     :
     Beginner:
     1:
     0.053,0.117,0.015,0.000,0.000:
0000
0000
0000
0000
,
0000
0000
0000
0000
,
0000
0000
0000
0000
,
0000
0000
0000
0000
,
0000
0000
0000
0000
,
0000
0000
0000
0000
,
0000
0000
0000
0000
,
0000
0000
0000
0000
,
0000
0000
0000
0000
,
1000
0000
0000
0000
,
0000
0000
0000
0000
,
0001
0000
0000
0000
,
0000
0000
0000
0000
,
1000
0000
0000
0000
,
0000
0000
0000
0000
,
0001
0000
0000
0000
,
1000
0000
0000
0000
,
1000
0000
0000
0000
,
0000
0000
0000
0000
,
0001
0000
0000
0000
,
0000
0000
0000
0000
,
0001
0000
0000
0000
,
1000
0000
0000
0000
,
0001
0000
0000
0000
,
1000
0000
0000
0000
,
1000
0000
0000
0000
,
0100
0000
0000
0000
,
0000
0000
0000
0000
,
0100
0000
0000
0000
,
0000
0000
0000
0000
,
1000
0000
0000
0000
,
0000
0000
0000
0000
,
0001
0000
0000
0000
,
0000
0000
0000
0000
,
0010
0000
0000
0000
,
0000
0000
0000
0000
,
0010
0000
0000
0000
,
0000
0000
0000
0000
,
0001
0000
0000
0000
,
0000
0000
0000
0000
,
1000
0000
0000
0000
,
0000
0000
0000
0000
,
1000
0000
0000
0000
,
0000
0000
0000
0000
,
0100
0000
0000
0000
,
0000
0000
0000
0000
,
0010
0000
0000
0000
,
0000
0000
0000
0000
,
0001
0000
0000
0000
,
0000
0000
0000
0000
,
0001
0000
0000
0000
,
0000
0000
0000
0000
,
0100
0000
0000
0000
,
0000
0000
0000
0000
,
0010
0000
0000
0000
,
1000
0000
0000
0000
,
0010
0000
0000
0000
,
1000
0000
0000
0000
,
1000
0000
0000
0000
,
1001
0000
0000
0000
,
0001
0000
0000
0000
,
1000
0000
0000
0000
,
0001
0000
0000
0000
,
1000
0000
0000
0000
,
1000
0000
0000
0000
,
0001
0000
0000
0000
,
1000
0000
0000
0000
,
0001
0000
0000
0000
,
0100
0000
0000
0000
,
0000
0000
0000
0000
,
0010
0000
0000
0000
,
0000
0000
0000
0000
,
1000
0000
0000
0000
,
0001
0000
0000
0000
,
1000
0000
0000
0000
,
1001
0000
0000
0000
,
1000
0000
0000
0000
,
0000
0000
0000
0000
,
0001
0000
0000
0000
;
