#TITLE:Custom-made Girl;
#SUBTITLE:-NOT FOR SALE!-;
#ARTIST:Togo project feat. Sana;
#TITLETRANSLIT:;
#SUBTITLETRANSLIT:;
#ARTISTTRANSLIT:;
#CREDIT:DMAxel;
#BANNER:Custom-made Girl -NOT FOR SALE!-.png;
#BACKGROUND:Custom-made Girl -NOT FOR SALE!--bg.png;
#LYRICSPATH:Custom-made Girl -NOT FOR SALE!-.lrc;
#CDTITLE:ee'MALL.png;
#MUSIC:Custom-made Girl -NOT FOR SALE!-.mp3;
#OFFSET:-9.740;
#SAMPLESTART:88.223;
#SAMPLELENGTH:12.000;
#SELECTABLE:YES;
#BPMS:0.000=101.000,4.000=202.000,244.000=101.000,268.000=202.000,320.500=101.000;
#STOPS:;
#BGCHANGES:;

//---------------dance-single - ----------------
#NOTES:
     dance-single:
     :
     Easy:
     2:
     0.117,0.167,0.107,0.033,0.000: // measure 1
0000
0000
0000
0000
,  // measure 2
0001
0000
0000
0000
,  // measure 3
1000
0000
0000
0000
,  // measure 4
0001
0000
0000
0000
,  // measure 5
2000
0000
0000
0000
,  // measure 6
3010
0000
0000
0000
,  // measure 7
1000
0000
0000
0000
,  // measure 8
0001
0000
0000
0000
,  // measure 9
0200
0000
0000
0000
,  // measure 10
0301
0000
0000
0000
,  // measure 11
1000
0000
0000
0000
,  // measure 12
0001
0000
0000
0000
,  // measure 13
0001
0000
0000
0000
,  // measure 14
1000
0000
0000
0000
,  // measure 15
0001
0000
0000
0000
,  // measure 16
1000
0000
0000
0000
,  // measure 17
1000
0000
0000
0000
,  // measure 18
1001
0000
0000
0000
,  // measure 19
0000
0000
0000
0000
,  // measure 20
0110
0000
0000
0000
,  // measure 21
0000
0000
0000
0000
,  // measure 22
0001
0000
0000
0000
,  // measure 23
1000
0000
0000
0000
,  // measure 24
0001
0000
0000
0000
,  // measure 25
0001
0000
0000
0000
,  // measure 26
1000
0000
0000
0000
,  // measure 27
0001
0000
0000
0000
,  // measure 28
1000
0000
0000
0000
,  // measure 29
1000
0000
0000
0000
,  // measure 30
0010
0000
0000
0000
,  // measure 31
0100
0000
0000
0000
,  // measure 32
0010
0000
0000
0000
,  // measure 33
1000
0000
0000
0000
,  // measure 34
0010
0000
0000
0000
,  // measure 35
1000
0000
0000
0000
,  // measure 36
1001
0000
0000
0000
,  // measure 37
0000
0000
0000
0000
,  // measure 38
0110
0000
0000
0000
,  // measure 39
1001
0000
0000
0000
,  // measure 40
1001
0000
0000
0000
,  // measure 41
0000
0000
0000
0000
,  // measure 42
0110
0000
0000
0000
,  // measure 43
0000
0000
0000
0000
,  // measure 44
1000
0000
0000
0000
,  // measure 45
0100
0000
0000
0000
,  // measure 46
1000
0000
0000
0000
,  // measure 47
0001
0000
0000
0000
,  // measure 48
0100
0000
0000
0000
,  // measure 49
0010
0000
0000
0000
,  // measure 50
0100
0000
0000
0000
,  // measure 51
0010
0000
0000
0000
,  // measure 52
1000
0000
0000
0000
,  // measure 53
1000
0000
0000
0000
,  // measure 54
0001
0000
0000
0000
,  // measure 55
0001
0000
0000
0000
,  // measure 56
0010
0000
0000
0000
,  // measure 57
0001
0000
0000
0000
,  // measure 58
0010
0000
0000
0000
,  // measure 59
0000
0000
0000
0000
,  // measure 60
0001
0000
0000
0000
,  // measure 61
0001
0000
0000
0000
,  // measure 62
1001
0000
0000
0000
,  // measure 63
0000
0000
1000
1000
,  // measure 64
1000
0000
0010
0000
,  // measure 65
1000
0000
0001
0000
,  // measure 66
0100
0000
0001
0000
,  // measure 67
1000
0000
0001
0000
,  // measure 68
1000
0000
1000
0000
,  // measure 69
0001
0000
0000
0000
,  // measure 70
0001
0000
0001
0000
,  // measure 71
1000
0000
0000
0000
,  // measure 72
0010
0000
0010
0000
,  // measure 73
0100
0000
0000
0000
,  // measure 74
0100
0000
0100
0000
,  // measure 75
0010
0000
0000
0000
,  // measure 76
1001
0000
0000
0000
,  // measure 77
0000
1100
0000
0000
,  // measure 78
1001
0000
0000
0000
,  // measure 79
0000
0011
0000
0000
,  // measure 80
0001
0000
0000
0000
,  // measure 81
0000
0220
0000
0000
0000
0000
0000
0000
,  // measure 82
0000
0000
0000
0000
0000
0000
0000
0000
0000
0330
0000
0000
0000
0000
0000
0000
;

//---------------dance-single - ----------------
#NOTES:
     dance-single:
     :
     Medium:
     4:
     0.234,0.301,0.188,0.115,0.004: // measure 1
0000
0000
0000
0000
,  // measure 2
1000
0000
0001
0000
0000
0001
0000
1000
,  // measure 3
0000
0000
0000
0000
,  // measure 4
0001
0000
1000
0000
0000
1000
0000
0001
,  // measure 5
0000
0000
0000
0000
,  // measure 6
0100
0000
0010
0000
0000
0010
0000
0100
,  // measure 7
0000
0000
0000
0000
,  // measure 8
0001
0000
1000
0000
0000
1000
0000
0001
,  // measure 9
0000
0000
0000
0000
,  // measure 10
1001
0000
0001
0000
,  // measure 11
0010
0000
0001
0000
,  // measure 12
0010
0000
0100
0000
,  // measure 13
1000
0000
0001
0000
,  // measure 14
1001
0000
1000
0000
,  // measure 15
0100
0000
1000
0000
,  // measure 16
0100
0000
0010
0000
,  // measure 17
0001
1000
0001
0000
,  // measure 18
0022
0000
0000
0033
,  // measure 19
0000
1001
0000
0000
,  // measure 20
2200
0000
0000
3300
,  // measure 21
0000
1001
0000
0000
,  // measure 22
1000
0000
0010
0000
,  // measure 23
1000
0000
0010
0000
,  // measure 24
1000
0000
1000
0000
,  // measure 25
0001
0000
0001
0000
,  // measure 26
0001
0000
0100
0000
,  // measure 27
0001
0000
0100
0000
,  // measure 28
0001
0000
0001
0000
,  // measure 29
1000
0000
1000
0000
,  // measure 30
0010
0000
0100
0000
,  // measure 31
0010
0000
1001
0000
,  // measure 32
0100
0000
0010
0000
,  // measure 33
0100
0000
1001
0000
,  // measure 34
0001
0000
1000
0000
,  // measure 35
0001
0000
0010
0000
,  // measure 36
0001
0000
0001
0000
,  // measure 37
1000
0000
1000
0000
,  // measure 38
0010
0000
0010
0000
,  // measure 39
1001
0000
0000
0000
,  // measure 40
2200
0000
0000
3300
,  // measure 41
0000
1001
1001
0000
,  // measure 42
0022
0000
0000
0033
,  // measure 43
0000
1001
1001
0000
,  // measure 44
0001
0000
0010
0000
,  // measure 45
0001
0000
0010
0000
,  // measure 46
0001
0000
0001
0000
,  // measure 47
1000
0000
1000
0000
,  // measure 48
0100
0000
1000
0000
,  // measure 49
0100
0000
1000
0000
,  // measure 50
0010
0000
0010
0000
,  // measure 51
0100
0000
0100
0000
,  // measure 52
1001
0000
0010
0000
,  // measure 53
0001
0000
0011
0000
,  // measure 54
0100
0000
1000
0000
,  // measure 55
1100
0000
1000
0000
,  // measure 56
1000
0000
0001
0000
,  // measure 57
1000
0000
0010
0000
,  // measure 58
0200
0000
0000
0000
,  // measure 59
0302
0000
0000
0000
,  // measure 60
1003
0000
1000
0000
,  // measure 61
0001
0000
0001
0000
,  // measure 62
1000
0000
0001
0000
1000
0000
0001
0100
,  // measure 63
1000
0100
0001
0000
,  // measure 64
1000
0100
0010
0001
,  // measure 65
0010
0100
1000
0001
,  // measure 66
0010
0100
1000
0100
,  // measure 67
0010
0001
1000
0000
,  // measure 68
1001
0000
0001
0000
,  // measure 69
0010
0000
0001
0000
,  // measure 70
1000
0000
1000
0000
,  // measure 71
0001
0000
0001
0000
,  // measure 72
1000
0000
0100
0000
,  // measure 73
1000
0000
0100
0000
,  // measure 74
1000
0000
1000
0000
,  // measure 75
0001
0000
0000
0000
,  // measure 76
0101
0000
0000
0100
0000
0100
0000
0100
,  // measure 77
0000
1001
0000
0000
,  // measure 78
1010
0000
0000
0010
0000
0010
0000
0010
,  // measure 79
0000
2002
0000
0000
,  // measure 80
3003
0000
0000
0000
0000
0000
0000
0000
0000
0002
0000
0000
0000
0000
0000
0000
,  // measure 81
0000
2000
0000
0000
0000
0000
0000
0000
,  // measure 82
0000
0000
0000
0000
0000
0000
0000
0000
0000
3003
0000
0000
0010
0000
0000
0000
;

//---------------dance-single - ----------------
#NOTES:
     dance-single:
     :
     Hard:
     7:
     0.462,0.502,0.287,0.205,0.004: // measure 1
0000
0000
0000
0000
,  // measure 2
0101
0000
0101
0000
0000
1000
0000
1001
,  // measure 3
0000
1000
0001
1000
,  // measure 4
1100
0000
1001
0000
0000
0001
0000
1001
,  // measure 5
0000
0001
1000
0001
,  // measure 6
0011
0000
1001
0000
0000
0100
0000
1100
,  // measure 7
0000
0001
1000
0010
,  // measure 8
0110
0000
0110
0000
0000
0010
0000
0011
,  // measure 9
0000
1000
0010
0200
,  // measure 10
0302
0000
0100
0000
0000
0203
0000
0000
,  // measure 11
0320
0000
1000
0000
0000
2030
0000
0000
,  // measure 12
0001
0000
3001
0000
0100
0010
0000
1000
,  // measure 13
0100
1000
0001
0200
,  // measure 14
0302
0000
1000
0000
0000
2003
0000
0000
,  // measure 15
3020
0000
0100
0000
0000
2030
0000
0000
,  // measure 16
0001
0000
0001
0000
3001
0100
0000
0010
,  // measure 17
0000
1000
0010
0000
0010
0000
0110
0000
,  // measure 18
0001
1000
0000
0010
0000
0100
0000
0010
,  // measure 19
0000
2020
0000
3030
,  // measure 20
1000
0001
0000
0100
0000
0010
0000
0100
,  // measure 21
0000
0202
0000
0303
,  // measure 22
0001
0010
0100
1000
,  // measure 23
0100
0001
0100
1000
,  // measure 24
0001
0010
0100
0000
,  // measure 25
1000
0100
0010
0000
,  // measure 26
0001
0010
0100
1000
,  // measure 27
0100
0001
0100
1000
,  // measure 28
0001
0010
0100
0000
,  // measure 29
1000
0100
0010
0000
,  // measure 30
1002
0000
1003
0010
,  // measure 31
0100
0000
0000
0001
1000
0000
1100
0000
,  // measure 32
1001
0001
0100
0010
,  // measure 33
0000
1000
0000
1000
0001
0000
0011
0000
,  // measure 34
1001
1000
0010
0100
,  // measure 35
0001
0010
1000
0010
,  // measure 36
0001
1000
0001
1000
0000
0100
0000
1000
,  // measure 37
0000
0010
0000
0100
0001
0000
0000
0000
,  // measure 38
1000
0001
1000
0001
0000
0010
0000
0001
,  // measure 39
1000
0000
0000
0000
,  // measure 40
0001
0100
0000
0010
0000
0110
0000
1000
,  // measure 41
0000
0000
0010
0100
0010
0000
0000
0000
,  // measure 42
1000
0010
0000
0100
0000
0110
0000
0001
,  // measure 43
0000
0000
0100
0010
0100
0000
0100
0000
,  // measure 44
1001
0010
0100
0010
,  // measure 45
1000
0100
0010
0001
,  // measure 46
0100
1000
0100
0001
,  // measure 47
0010
1000
0010
0001
,  // measure 48
1001
0010
0100
0010
,  // measure 49
1000
0100
0010
0001
,  // measure 50
0100
0010
0100
0001
,  // measure 51
0100
1000
0100
0001
,  // measure 52
1000
0010
1000
0000
0001
0100
0001
0000
,  // measure 53
1000
0000
0000
0010
0100
0000
0110
0000
,  // measure 54
0001
0000
0001
0000
1000
0010
0000
1000
,  // measure 55
0000
0010
0000
0100
0010
0000
0110
0000
,  // measure 56
1000
0010
1000
0000
0001
0100
0001
0000
,  // measure 57
0010
0100
1000
0010
,  // measure 58
0200
0000
0001
0000
0301
0000
0000
2000
,  // measure 59
0000
0010
3010
0100
,  // measure 60
0002
0010
0000
0013
,  // measure 61
0200
1000
0000
1300
,  // measure 62
1000
0100
0010
0001
1000
0100
0010
0001
,  // measure 63
1000
0100
0010
0001
1000
0000
0000
0000
,  // measure 64
0001
1000
0001
0100
0001
1000
0001
0100
,  // measure 65
0001
0010
0100
1000
0001
0000
0001
0000
,  // measure 66
1000
0001
1000
0010
1000
0001
1000
0010
,  // measure 67
1000
0100
0010
0001
1000
0000
0000
0000
,  // measure 68
1001
0000
1000
0010
1000
0000
0010
0100
,  // measure 69
0002
0000
1000
0000
1003
0100
1000
0000
,  // measure 70
1000
0000
0001
0100
0001
0000
0100
0010
,  // measure 71
2000
0000
0001
0000
3001
0010
0001
0000
,  // measure 72
0001
0000
1000
0100
1000
0000
0010
0100
,  // measure 73
0002
0000
1000
0000
1003
0010
1000
0000
,  // measure 74
1000
0000
0001
0010
0001
0000
0100
0010
,  // measure 75
2000
0000
0001
0000
3001
0100
0001
0000
,  // measure 76
1000
0010
0000
0100
0000
0110
0000
0101
,  // measure 77
0000
0000
1000
0100
1000
0000
1001
0000
,  // measure 78
0001
0100
0000
0010
0000
0110
0000
1010
,  // measure 79
0000
0000
0001
0010
0001
0000
1000
0100
,  // measure 80
0010
0000
0000
0000
0000
0000
0000
0000
0000
0101
0000
0000
0000
0000
0000
0000
,  // measure 81
0000
2002
0000
0000
0000
0000
0000
0000
,  // measure 82
0000
0000
0000
0000
0000
0000
0000
0000
0000
3003
0000
0000
0110
0000
0000
0000
;

//---------------dance-single - ----------------
#NOTES:
     dance-single:
     :
     Beginner:
     1:
     0.054,0.098,0.033,0.000,0.000: // measure 1
0000
0000
0000
0000
,  // measure 2
1000
0000
0000
0000
,  // measure 3
0000
0000
0000
0000
,  // measure 4
0001
0000
0000
0000
,  // measure 5
0000
0000
0000
0000
,  // measure 6
1000
0000
0000
0000
,  // measure 7
0000
0000
0000
0000
,  // measure 8
1000
0000
0000
0000
,  // measure 9
0000
0000
0000
0000
,  // measure 10
0001
0000
0000
0000
,  // measure 11
0000
0000
0000
0000
,  // measure 12
0010
0000
0000
0000
,  // measure 13
0000
0000
0000
0000
,  // measure 14
0001
0000
0000
0000
,  // measure 15
0000
0000
0000
0000
,  // measure 16
0010
0000
0000
0000
,  // measure 17
0000
0000
0000
0000
,  // measure 18
1001
0000
0000
0000
,  // measure 19
0000
0000
0000
0000
,  // measure 20
1001
0000
0000
0000
,  // measure 21
0000
0000
0000
0000
,  // measure 22
1000
0000
0000
0000
,  // measure 23
0000
0000
0000
0000
,  // measure 24
0100
0000
0000
0000
,  // measure 25
0000
0000
0000
0000
,  // measure 26
1000
0000
0000
0000
,  // measure 27
0000
0000
0000
0000
,  // measure 28
0100
0000
0000
0000
,  // measure 29
0000
0000
0000
0000
,  // measure 30
1000
0000
0000
0000
,  // measure 31
0000
0000
0000
0000
,  // measure 32
1000
0000
0000
0000
,  // measure 33
0000
0000
0000
0000
,  // measure 34
1000
0000
0000
0000
,  // measure 35
0000
0000
0000
0000
,  // measure 36
0001
0000
0000
0000
,  // measure 37
0000
0000
0000
0000
,  // measure 38
0001
0000
0000
0000
,  // measure 39
0000
0000
0000
0000
,  // measure 40
1000
0000
0000
0000
,  // measure 41
0000
0000
0000
0000
,  // measure 42
0001
0000
0000
0000
,  // measure 43
0000
0000
0000
0000
,  // measure 44
0001
0000
0000
0000
,  // measure 45
0000
0000
0000
0000
,  // measure 46
0100
0000
0000
0000
,  // measure 47
0000
0000
0000
0000
,  // measure 48
0001
0000
0000
0000
,  // measure 49
0000
0000
0000
0000
,  // measure 50
0001
0000
0000
0000
,  // measure 51
0000
0000
0000
0000
,  // measure 52
1000
0000
0000
0000
,  // measure 53
0000
0000
0000
0000
,  // measure 54
0010
0000
0000
0000
,  // measure 55
0000
0000
0000
0000
,  // measure 56
1000
0000
0000
0000
,  // measure 57
0000
0000
0000
0000
,  // measure 58
1000
0000
0000
0000
,  // measure 59
0000
0000
0000
0000
,  // measure 60
0001
0000
0000
0000
,  // measure 61
0000
0000
0000
0000
,  // measure 62
1000
0000
0000
0000
,  // measure 63
0000
0000
0000
0000
,  // measure 64
0001
0000
0000
0000
,  // measure 65
0001
0000
0000
0000
,  // measure 66
1000
0000
0000
0000
,  // measure 67
1000
0000
0000
0000
,  // measure 68
1000
0000
0000
0000
,  // measure 69
0000
0000
0000
0000
,  // measure 70
0001
0000
0000
0000
,  // measure 71
0000
0000
0000
0000
,  // measure 72
1000
0000
0000
0000
,  // measure 73
0000
0000
0000
0000
,  // measure 74
0001
0000
0000
0000
,  // measure 75
0000
0000
0000
0000
,  // measure 76
1001
0000
0000
0000
,  // measure 77
0000
0000
0000
0000
,  // measure 78
1001
0000
0000
0000
,  // measure 79
0000
0000
0000
0000
,  // measure 80
0000
0000
0000
0000
,  // measure 81
0000
1000
0000
0000
0000
0000
0000
0000
;

//---------------dance-single - ----------------
#NOTES:
     dance-single:
     :
     Challenge:
     8:
     0.587,0.603,0.410,0.213,0.008: // measure 1
0000
0000
0000
0000
,  // measure 2
1100
0000
1100
0000
0001
1000
0100
0010
,  // measure 3
0001
0100
0001
0000
1000
0100
1000
0000
,  // measure 4
0011
0000
0011
0000
1000
0001
0010
0100
,  // measure 5
1000
0010
1000
0000
0010
0100
0010
0000
,  // measure 6
0110
0000
0110
0000
1000
0001
0010
0100
,  // measure 7
1000
0010
1000
0000
0001
0010
0001
0000
,  // measure 8
0110
0000
0110
0000
0001
1000
0100
0010
,  // measure 9
0001
0100
0001
0000
1000
0000
0020
0000
,  // measure 10
2030
0000
0001
0000
3001
0010
0200
0000
,  // measure 11
2300
0000
0001
0000
3001
0010
0200
0000
,  // measure 12
1000
0000
1000
0000
1300
0001
0000
0100
,  // measure 13
0000
0010
0000
1000
0001
0000
0200
0000
,  // measure 14
0302
0000
1000
0000
1003
0100
0020
0000
,  // measure 15
0032
0000
1000
0000
1003
0100
0020
0000
,  // measure 16
0001
0000
0001
0000
0031
1000
0000
0010
,  // measure 17
0000
0100
0001
0010
0100
1000
0001
0000
,  // measure 18
1000
0001
0000
0101
0000
1100
0000
1100
,  // measure 19
0000
0000
1000
0001
0100
0000
0101
0000
,  // measure 20
1000
0001
0000
0011
0000
1010
0000
1010
,  // measure 21
0000
0000
0001
1000
0010
0000
1010
0000
,  // measure 22
0001
0000
0001
0100
0010
0000
1000
0100
,  // measure 23
1000
0000
0010
0100
0001
0010
0100
0000
,  // measure 24
1010
0000
0010
0000
0110
0000
0001
1000
,  // measure 25
0000
0010
0000
0100
0001
0000
0001
0000
,  // measure 26
1000
0000
1000
0010
0100
0000
0001
0010
,  // measure 27
0001
0000
0100
0010
1000
0100
0010
0000
,  // measure 28
0101
0000
0100
0000
0110
0000
1000
0001
,  // measure 29
0000
0100
0000
0010
1000
0000
1000
0000
,  // measure 30
2001
0000
0000
3001
0100
0001
0000
0010
,  // measure 31
0000
0100
0000
1000
0001
0000
1001
0000
,  // measure 32
0001
1000
0010
1000
0010
1000
0000
0100
,  // measure 33
0000
0010
0000
0001
1000
0000
1001
0000
,  // measure 34
0001
0000
0001
1000
0100
0010
0000
0001
,  // measure 35
0000
0100
0000
0010
1000
0100
0010
0000
,  // measure 36
0001
0100
1000
0200
0000
0301
0000
0002
,  // measure 37
0000
1000
0000
1003
0020
0000
0000
0000
,  // measure 38
1030
0100
0001
0200
0000
1000
0000
1300
,  // measure 39
0001
0000
0000
0000
,  // measure 40
0100
0010
0000
1010
0000
1010
0000
1001
,  // measure 41
0000
0010
0100
1000
0001
0000
0001
0000
,  // measure 42
0010
0100
0000
0101
0000
0101
0000
1001
,  // measure 43
0000
0100
0010
0001
1000
0000
1000
0000
,  // measure 44
0001
0000
0001
0100
0010
0000
1000
0100
,  // measure 45
1000
0000
0010
0100
0001
0010
0100
0000
,  // measure 46
2000
0000
0001
0000
3001
0100
0001
0000
,  // measure 47
1000
0100
0010
0001
1000
0000
0001
0000
,  // measure 48
1000
0000
1000
0010
0100
0000
0001
0010
,  // measure 49
0001
0000
0100
0010
1000
0100
0010
0000
,  // measure 50
0002
0000
1000
0000
1003
0100
1000
0000
,  // measure 51
0001
0010
0100
1000
0001
0000
1000
0000
,  // measure 52
0001
0100
0000
0001
0100
0001
0000
2000
,  // measure 53
0000
0000
0000
3010
0100
0000
0110
0000
,  // measure 54
0001
0000
1001
0000
1000
0010
0000
2000
,  // measure 55
0000
0001
0000
3001
0100
0000
0110
0000
,  // measure 56
1001
0000
1000
0010
1000
0010
1000
0001
,  // measure 57
0000
0200
0000
0000
0301
0000
0100
0000
,  // measure 58
0110
0000
1000
0000
0100
1000
0000
0020
,  // measure 59
0000
0000
0130
0000
0010
0100
0010
0000
,  // measure 60
2000
0000
0001
0000
3001
0100
0000
0010
,  // measure 61
0000
1000
0010
1000
0001
0000
1000
0000
,  // measure 62
1000
0100
0010
0001
0010
0100
1000
0100
,  // measure 63
0010
0001
0010
0100
1000
0001
0100
0100
,  // measure 64
1001
1000
0010
1000
0001
1000
0100
1000
,  // measure 65
1000
0100
0010
0001
2000
0000
0001
0000
,  // measure 66
3001
0010
0001
0100
0001
0010
1000
0010
,  // measure 67
0001
0000
0010
0000
0100
0000
1000
0000
0110
0000
0000
0001
1000
0000
1000
0000
,  // measure 68
0001
0010
0100
0000
1000
0010
0100
0010
,  // measure 69
1000
0100
0010
0000
0001
1000
0001
0000
,  // measure 70
1000
0100
0010
0000
0001
0100
0010
0100
,  // measure 71
0001
0010
0100
0000
1000
0001
1000
0000
,  // measure 72
1001
0000
0001
1000
0100
0010
0001
0000
,  // measure 73
0101
0101
1001
1000
,  // measure 74
0001
0100
0010
0000
1000
0100
0010
0001
,  // measure 75
2000
0010
0010
3010
,  // measure 76
0100
0001
0000
0101
0000
0110
0000
1010
,  // measure 77
0000
0100
0010
0001
1000
0000
1001
0000
,  // measure 78
0010
1000
0000
1010
0000
0110
0000
0101
,  // measure 79
0000
0010
0100
1000
0001
0000
0001
0100
,  // measure 80
0010
0000
0000
0000
0000
0000
0000
0000
0000
1010
0000
0000
0000
0000
0000
0000
,  // measure 81
0000
2002
0000
0000
0000
0000
0000
0000
,  // measure 82
0000
0000
0000
0000
0000
0000
0000
0000
0000
3003
0000
0000
0110
0000
0000
0000
;
