#TITLE:Cry Out;
#SUBTITLE:(Superior Mix);
#ARTIST:good-cool feat. KöHey;
#TITLETRANSLIT:;
#SUBTITLETRANSLIT:;
#ARTISTTRANSLIT:;
#CREDIT:DMAxel;
#BANNER:Cry Out (Superior Mix).png;
#BACKGROUND:Cry Out (Superior Mix)-bg.png;
#LYRICSPATH:Cry Out (Superior Mix).lrc;
#CDTITLE:pop'n music.png;
#MUSIC:Cry Out (Superior Mix).mp3;
#OFFSET:0.180;
#SAMPLESTART:55.699;
#SAMPLELENGTH:12.000;
#SELECTABLE:YES;
#BPMS:0.000=180.000;
#STOPS:;
#BGCHANGES:;

//---------------dance-single - ----------------
#NOTES:
     dance-single:
     :
     Easy:
     3:
     0.190,0.308,0.134,0.053,0.000: // measure 1
0000
0000
0000
0000
,  // measure 2
0000
0000
0000
0000
,  // measure 3
0000
0000
0000
0000
,  // measure 4
0000
0000
0000
0000
,  // measure 5
0000
0000
0000
0000
,  // measure 6
0000
0000
0000
0000
,  // measure 7
1000
0000
1000
0000
,  // measure 8
0001
0000
0001
0000
,  // measure 9
0100
0010
0100
0000
,  // measure 10
0001
0000
1000
0000
,  // measure 11
1001
0000
0001
0000
,  // measure 12
0010
0000
0001
0000
,  // measure 13
1000
0000
1000
0000
,  // measure 14
0100
0000
1000
0000
,  // measure 15
0001
0000
0100
0000
,  // measure 16
0001
0000
0100
0000
,  // measure 17
0010
0000
0100
0000
,  // measure 18
0010
0000
0000
0000
,  // measure 19
1001
0000
1000
0000
,  // measure 20
0010
0000
1000
0000
,  // measure 21
0001
0000
0100
0000
,  // measure 22
0001
0000
1000
0000
,  // measure 23
1000
0000
0100
0000
,  // measure 24
1000
0000
0001
0000
,  // measure 25
0010
0000
0001
0000
,  // measure 26
0001
0000
0000
0000
,  // measure 27
1001
0000
0001
0000
,  // measure 28
1000
0000
1000
0000
,  // measure 29
0010
0000
0010
0000
,  // measure 30
0100
0000
0100
0000
,  // measure 31
0002
0000
0000
0000
,  // measure 32
0003
0000
0000
0000
,  // measure 33
2000
0000
0000
0000
,  // measure 34
3000
0000
0000
0000
,  // measure 35
1001
0000
0010
0000
,  // measure 36
0001
0000
0100
0000
,  // measure 37
0010
0000
1000
0000
,  // measure 38
0100
0000
1000
0000
,  // measure 39
0002
0000
0000
0000
,  // measure 40
0003
0000
0000
0000
,  // measure 41
2000
0000
0000
0000
,  // measure 42
3000
0000
0000
0000
,  // measure 43
0001
0000
1000
0000
,  // measure 44
0001
0000
0001
0000
,  // measure 45
1000
0000
0010
0000
,  // measure 46
1000
0000
1000
0000
,  // measure 47
0001
0000
0100
0000
,  // measure 48
0001
0000
0001
0000
,  // measure 49
1001
0000
1001
0000
,  // measure 50
1000
0000
0000
0000
,  // measure 51
1000
0000
0100
0000
,  // measure 52
1000
0000
0001
0000
,  // measure 53
1000
0000
0001
0000
,  // measure 54
0010
0000
0001
0000
,  // measure 55
1000
0000
0010
0000
,  // measure 56
0100
0000
0010
0000
,  // measure 57
1001
0000
1001
0000
,  // measure 58
0001
0000
0000
0000
,  // measure 59
0220
0000
0000
0330
,  // measure 60
1001
0000
0000
0001
0000
0000
0001
0000
,  // measure 61
1000
0000
0001
0000
,  // measure 62
1000
0000
0010
0000
,  // measure 63
1000
0000
0001
0000
,  // measure 64
1000
0000
0001
0000
,  // measure 65
0100
0000
0001
0000
,  // measure 66
1000
0000
0001
0000
,  // measure 67
0110
0000
0000
0000
,  // measure 68
0110
0000
0000
0000
,  // measure 69
1000
0000
0100
0000
,  // measure 70
1000
0000
0001
0000
,  // measure 71
0010
0000
0001
0000
,  // measure 72
1000
0000
0100
0000
,  // measure 73
1001
0000
0010
0000
,  // measure 74
0100
0000
1000
0000
,  // measure 75
0001
1000
0001
0000
,  // measure 76
0100
0010
0100
0000
,  // measure 77
0110
0000
0000
0000
0000
0001
0000
1001
;

//---------------dance-single - ----------------
#NOTES:
     dance-single:
     :
     Medium:
     6:
     0.433,0.479,0.241,0.071,0.000: // measure 1
0000
0000
0000
0000
,  // measure 2
0000
0000
0000
0000
,  // measure 3
0000
0000
0000
0000
,  // measure 4
0000
0000
0000
0000
,  // measure 5
0000
0000
0000
0000
,  // measure 6
0000
0000
0000
0000
,  // measure 7
0001
0001
0010
0100
,  // measure 8
1000
0010
1000
0100
,  // measure 9
1000
0001
1000
0000
0001
1000
0001
0000
,  // measure 10
0010
0001
0010
0100
,  // measure 11
1001
1000
1000
0001
,  // measure 12
1000
0001
0010
0100
,  // measure 13
1001
0001
0001
1000
,  // measure 14
0001
1000
0100
0010
,  // measure 15
1001
0001
0001
1000
,  // measure 16
0010
1000
0100
0010
,  // measure 17
0001
0000
0100
0001
0100
0000
0001
0000
,  // measure 18
1000
0010
0000
0010
0000
0010
0000
0000
,  // measure 19
1001
1000
1000
0001
,  // measure 20
0100
0001
0010
0100
,  // measure 21
1000
0000
0010
1000
0010
0000
1000
0000
,  // measure 22
0001
0000
0100
0010
0100
0010
0100
0000
,  // measure 23
1001
0001
0001
1000
,  // measure 24
0010
1000
0100
0010
,  // measure 25
0001
0000
0100
0001
0100
0000
0001
0000
,  // measure 26
1000
0000
0010
0100
0010
0100
0010
0000
,  // measure 27
1000
0001
0000
1000
0001
0000
0100
0000
,  // measure 28
0001
1000
0000
0001
1000
0010
1000
0000
,  // measure 29
0010
1000
0000
0001
1000
0000
0001
0000
,  // measure 30
0100
0001
0000
1000
0001
0000
1000
0000
,  // measure 31
0010
0000
1000
0001
0000
1000
0001
0000
,  // measure 32
0100
0010
0100
0001
,  // measure 33
1000
0000
0001
1000
0000
0001
1000
0000
,  // measure 34
0010
0100
0001
0100
,  // measure 35
0001
1000
0000
0010
1000
0000
0001
0000
,  // measure 36
1000
0001
0100
0010
,  // measure 37
0100
0010
0100
0001
0000
1000
0001
0000
,  // measure 38
0010
0001
0100
0010
,  // measure 39
1000
0110
0000
0110
,  // measure 40
0001
1000
0010
0100
,  // measure 41
2002
0000
0000
0000
,  // measure 42
3003
0000
0000
0000
,  // measure 43
1000
0100
0001
0100
,  // measure 44
1000
0000
0010
0000
0100
0010
0100
0000
,  // measure 45
0001
0010
1000
0010
,  // measure 46
0001
0000
0100
0000
0010
0100
0010
0000
,  // measure 47
1000
0100
0001
0100
,  // measure 48
1000
0000
0010
0000
0100
0010
0100
0000
,  // measure 49
0001
0110
1000
0110
,  // measure 50
2002
0000
0000
3003
,  // measure 51
0001
0100
1000
0100
,  // measure 52
0001
0000
1000
0000
0010
0100
0010
0000
,  // measure 53
1000
0010
0001
0010
,  // measure 54
1000
0000
0001
0000
0100
0010
0100
0000
,  // measure 55
0001
0010
1000
0100
,  // measure 56
0001
0000
0100
0010
0100
0000
0001
0000
,  // measure 57
1000
0110
0001
0110
,  // measure 58
2002
0000
0000
3003
,  // measure 59
0220
0000
0000
0330
,  // measure 60
1001
0000
0000
1001
0000
0000
0010
0000
,  // measure 61
1001
0000
1000
0010
0000
1000
0010
0000
,  // measure 62
1000
0100
0010
0001
,  // measure 63
1001
0000
0001
0100
0000
0001
0100
0000
,  // measure 64
0001
0010
0100
1000
,  // measure 65
1001
0000
1000
0100
0000
1000
0001
0000
,  // measure 66
1000
0100
0010
0001
,  // measure 67
0100
0010
0100
0000
0001
1000
0001
0000
,  // measure 68
0100
0010
0100
0000
0001
1000
0001
0000
,  // measure 69
1001
0000
0001
0010
0000
0001
1000
0000
,  // measure 70
0001
0010
0100
1000
,  // measure 71
1001
0000
1000
0100
0000
1000
0010
0000
,  // measure 72
1000
0010
0100
0001
,  // measure 73
1001
0000
0001
0010
0000
0001
0100
0000
,  // measure 74
0001
0100
0010
1000
,  // measure 75
0010
0100
0010
0000
1000
0001
1000
0000
,  // measure 76
0010
0100
0010
0000
1000
0001
1000
0000
,  // measure 77
0110
0000
0110
0000
0000
0101
0000
1001
;

//---------------dance-single - ----------------
#NOTES:
     dance-single:
     :
     Hard:
     8:
     0.574,0.582,0.561,0.053,0.000: // measure 1
0000
0000
0000
0000
,  // measure 2
0000
0000
0000
0000
,  // measure 3
0000
0000
0000
0000
,  // measure 4
0000
0000
0000
0000
,  // measure 5
0000
0000
0000
0000
,  // measure 6
0000
0000
0000
0000
,  // measure 7
1001
0000
0001
1000
0100
0010
0001
1000
,  // measure 8
0000
1000
0001
0000
0100
0000
0110
0000
,  // measure 9
0001
0001
0001
0000
0001
0010
0100
1000
,  // measure 10
0010
0100
0010
1000
0100
0010
0001
0000
,  // measure 11
1001
0000
1010
0000
0011
0000
0000
0001
,  // measure 12
0000
0001
1000
0100
1000
0000
1000
0000
,  // measure 13
1001
0000
1000
0010
0000
0100
0001
0000
,  // measure 14
0010
0000
0001
1000
0100
0010
0001
0000
,  // measure 15
1001
0000
0101
0000
1100
0000
0000
1000
,  // measure 16
0000
1000
0001
0010
0001
0000
1000
0000
,  // measure 17
0100
0000
1000
0001
0000
0001
1000
0000
,  // measure 18
0001
0100
0000
0100
0010
1000
0100
0010
,  // measure 19
1001
0000
0101
0000
1100
0000
0000
1000
,  // measure 20
0000
1000
0001
0100
0001
0100
0001
0000
,  // measure 21
1000
0000
0100
1000
0000
1000
0001
0000
,  // measure 22
1000
0000
0010
1000
0100
0010
0001
0000
,  // measure 23
1001
0000
1010
0000
0011
0000
0000
0001
,  // measure 24
0000
0001
1000
0010
1000
0010
1000
0000
,  // measure 25
0001
0000
0010
0001
0000
0001
1000
0000
,  // measure 26
0001
1000
0001
1000
0100
0010
0001
0000
,  // measure 27
0100
0001
0000
0010
1000
0000
0010
0100
,  // measure 28
0010
1000
0000
0100
0001
1000
0001
0000
,  // measure 29
0100
0001
0000
0010
1000
0000
0010
0100
,  // measure 30
0010
1000
0000
0100
0001
1000
0001
0000
,  // measure 31
1001
0000
0010
1000
0000
0100
0001
0000
,  // measure 32
0100
0010
0100
0001
0010
0100
1000
0000
,  // measure 33
1001
0000
0100
0001
0000
0010
1000
0000
,  // measure 34
0010
0100
0010
1000
0100
0010
0001
0000
,  // measure 35
0010
1000
0000
0100
0001
0000
0100
0010
,  // measure 36
0100
0001
0000
0010
1000
0001
1000
0000
,  // measure 37
0010
1000
0000
0100
0001
0000
0100
0010
,  // measure 38
0100
0001
0000
0010
1000
0001
1000
0000
,  // measure 39
0101
0000
0001
0100
0000
1000
0010
0000
,  // measure 40
1010
0100
0001
0010
,  // measure 41
0001
0000
0001
0000
0000
1000
0000
0100
,  // measure 42
0000
0000
0000
0000
,  // measure 43
1001
0000
0010
1000
0010
0000
1000
0001
,  // measure 44
1000
0001
0010
0001
0010
0100
0010
0000
,  // measure 45
1001
0000
0100
0001
0100
0000
0001
1000
,  // measure 46
0001
1000
0100
1000
0100
0010
0100
0000
,  // measure 47
1001
0000
1010
0000
1001
0000
0100
0001
,  // measure 48
0100
0001
0010
0100
1000
0001
1000
0000
,  // measure 49
1010
0110
0101
0110
,  // measure 50
2002
0000
0000
3003
,  // measure 51
1001
0000
0010
0001
0010
0000
0001
1000
,  // measure 52
0001
1000
0100
1000
0100
0010
0100
0000
,  // measure 53
1001
0000
0100
1000
0100
0000
1000
0001
,  // measure 54
1000
0001
0010
0001
0010
0100
0010
0000
,  // measure 55
1001
0000
0101
0000
1001
0000
1000
0100
,  // measure 56
0010
0001
0100
0010
0100
0000
0001
0000
,  // measure 57
0101
0110
1010
0110
,  // measure 58
2002
0000
0000
3003
,  // measure 59
0220
0000
0000
0000
0000
0330
0000
0001
,  // measure 60
0101
0000
0000
1001
0000
0000
1100
0000
,  // measure 61
1001
0000
0001
0100
0000
0001
0100
0010
,  // measure 62
1000
0100
0010
0001
0100
0000
0110
0000
,  // measure 63
1001
0000
1000
0010
0000
1000
0010
0100
,  // measure 64
0001
0010
0100
1000
0010
0000
0110
0000
,  // measure 65
1001
0000
0001
0010
0000
0001
0010
0100
,  // measure 66
1000
0001
1000
0010
0100
0001
1000
0000
,  // measure 67
1010
0110
1010
0000
,  // measure 68
0101
0110
0101
0000
,  // measure 69
1001
0000
1000
0100
0000
1000
0100
0010
,  // measure 70
0001
0100
0010
0100
0001
0000
0110
0000
,  // measure 71
1001
0000
0001
0010
0000
0001
0010
0100
,  // measure 72
1000
0010
0100
0010
1000
0000
0110
0000
,  // measure 73
1001
0000
1000
0100
0000
1000
0010
0100
,  // measure 74
0001
0010
0100
1000
0010
0100
0010
0000
,  // measure 75
1000
1000
0010
1000
0001
0001
0100
0000
,  // measure 76
0001
0001
0100
0010
1000
1000
0001
0000
,  // measure 77
0101
0000
0101
0000
0000
1100
0000
1001
;

//---------------dance-single - ----------------
#NOTES:
     dance-single:
     :
     Beginner:
     1:
     0.065,0.135,0.080,0.000,0.000: // measure 1
0000
0000
0000
0000
,  // measure 2
0000
0000
0000
0000
,  // measure 3
0000
0000
0000
0000
,  // measure 4
0000
0000
0000
0000
,  // measure 5
0000
0000
0000
0000
,  // measure 6
0000
0000
0000
0000
,  // measure 7
0001
0000
0000
0000
,  // measure 8
0000
0000
0000
0000
,  // measure 9
1000
0000
0000
0000
,  // measure 10
0000
0000
0000
0000
,  // measure 11
1001
0000
0000
0000
,  // measure 12
0000
0000
0000
0000
,  // measure 13
1000
0000
0000
0000
,  // measure 14
0000
0000
0000
0000
,  // measure 15
0100
0000
0000
0000
,  // measure 16
0000
0000
0000
0000
,  // measure 17
1000
0000
0000
0000
,  // measure 18
0000
0000
0000
0000
,  // measure 19
0001
0000
0000
0000
,  // measure 20
0000
0000
0000
0000
,  // measure 21
0010
0000
0000
0000
,  // measure 22
0000
0000
0000
0000
,  // measure 23
0001
0000
0000
0000
,  // measure 24
0000
0000
0000
0000
,  // measure 25
1000
0000
0000
0000
,  // measure 26
0000
0000
0000
0000
,  // measure 27
1001
0000
0000
0000
,  // measure 28
0000
0000
0000
0000
,  // measure 29
1000
0000
0000
0000
,  // measure 30
0000
0000
0000
0000
,  // measure 31
1000
0000
0000
0000
,  // measure 32
0000
0000
0000
0000
,  // measure 33
1000
0000
0000
0000
,  // measure 34
0000
0000
0000
0000
,  // measure 35
1001
0000
0000
0000
,  // measure 36
0000
0000
0000
0000
,  // measure 37
0001
0000
0000
0000
,  // measure 38
0000
0000
0000
0000
,  // measure 39
0001
0000
0000
0000
,  // measure 40
0000
0000
0000
0000
,  // measure 41
0001
0000
0000
0000
,  // measure 42
0000
0000
0000
0000
,  // measure 43
0100
0000
0000
0000
,  // measure 44
0100
0000
0000
0000
,  // measure 45
0010
0000
0000
0000
,  // measure 46
0010
0000
0000
0000
,  // measure 47
0100
0000
0000
0000
,  // measure 48
0100
0000
0000
0000
,  // measure 49
0110
0000
0000
0000
,  // measure 50
0000
0000
0000
0000
,  // measure 51
1000
0000
0000
0000
,  // measure 52
1000
0000
0000
0000
,  // measure 53
0001
0000
0000
0000
,  // measure 54
0001
0000
0000
0000
,  // measure 55
1000
0000
0000
0000
,  // measure 56
1000
0000
0000
0000
,  // measure 57
1001
0000
0000
0000
,  // measure 58
0000
0000
0000
0000
,  // measure 59
0000
0000
0000
0000
,  // measure 60
1001
0000
0000
0000
,  // measure 61
0001
0000
0000
0000
,  // measure 62
0000
0000
0000
0000
,  // measure 63
0100
0000
0000
0000
,  // measure 64
0000
0000
0000
0000
,  // measure 65
0001
0000
0000
0000
,  // measure 66
0000
0000
0000
0000
,  // measure 67
1001
0000
0000
0000
,  // measure 68
0000
0000
0000
0000
,  // measure 69
1000
0000
0000
0000
,  // measure 70
0000
0000
0000
0000
,  // measure 71
0010
0000
0000
0000
,  // measure 72
0000
0000
0000
0000
,  // measure 73
1000
0000
0000
0000
,  // measure 74
0000
0000
0000
0000
,  // measure 75
1001
0000
0000
0000
,  // measure 76
0000
0000
0000
0000
,  // measure 77
1001
0000
0000
0000
;

//---------------dance-single - ----------------
#NOTES:
     dance-single:
     :
     Challenge:
     9:
     0.669,0.719,0.454,0.134,0.045: // measure 1
0000
0000
0000
0000
,  // measure 2
0000
0000
0000
0000
,  // measure 3
0000
0000
0000
0000
,  // measure 4
0000
0000
0000
0000
,  // measure 5
0000
0000
0000
0000
,  // measure 6
0000
0000
0000
0000
,  // measure 7
1001
0000
1000
0001
1000
0100
0010
0001
,  // measure 8
0000
0001
1000
0010
0000
1000
1001
0000
,  // measure 9
1000
1000
1000
0010
1000
0100
0001
0010
,  // measure 10
0100
1000
0001
0010
0100
1000
0100
0010
,  // measure 11
1001
0000
1000
0001
0010
0001
0000
0001
,  // measure 12
1000
0100
1000
0010
0100
0001
1001
0000
,  // measure 13
0011
0000
0001
1000
0000
1000
0010
0000
,  // measure 14
0100
0001
1000
0001
0010
1000
0100
0010
,  // measure 15
0001
0000
1000
0001
0010
0001
0000
0001
,  // measure 16
1000
0010
1000
0010
0100
0001
1001
0000
,  // measure 17
1100
0000
1000
0001
0000
0001
0100
0000
,  // measure 18
0010
0000
1000
0010
1000
0000
0010
0000
0100
0000
0001
0000
0010
0000
0100
0000
,  // measure 19
1001
0000
0001
1000
0100
1000
0000
1000
,  // measure 20
0001
0100
0001
0100
0010
1000
1001
0000
,  // measure 21
0011
0000
0001
1000
0000
1000
0010
0000
,  // measure 22
0100
0001
0010
0100
1000
0100
0001
0100
,  // measure 23
1000
0010
1000
0001
0000
0001
1000
0010
,  // measure 24
0100
0001
0100
1000
0100
0010
0001
0000
,  // measure 25
0001
0100
0001
1000
0000
1000
0001
0000
,  // measure 26
0100
0000
0001
0100
0001
0000
0100
0000
0001
0000
0010
0000
0100
0000
1000
0000
,  // measure 27
0020
1000
0000
0230
0001
0000
0301
0100
,  // measure 28
0020
1000
0000
0130
0001
1000
1001
0000
,  // measure 29
0200
0001
0000
0320
1000
0000
1030
0010
,  // measure 30
0200
0001
0000
0310
1000
0001
1001
0000
,  // measure 31
1100
0000
0100
0001
0000
0001
1000
0000
,  // measure 32
1000
0001
1000
0100
0001
0100
1000
0000
,  // measure 33
0011
0000
0010
1000
0000
1000
0001
0000
,  // measure 34
0001
1000
0001
0010
1000
0010
0001
0000
,  // measure 35
0200
0001
0000
0320
1000
0000
1030
0010
,  // measure 36
0200
0001
0000
0310
1000
0001
1001
0000
,  // measure 37
0020
1000
0000
0230
0001
0000
0301
0100
,  // measure 38
0020
1000
0000
0130
0001
1000
1001
0000
,  // measure 39
1010
0000
0010
0001
0000
0001
1000
0000
,  // measure 40
1000
0000
0001
0000
1000
0010
1000
0000
0001
0000
0010
0000
0100
0000
0100
0000
,  // measure 41
2000
0000
0001
0000
0000
0100
0000
3100
,  // measure 42
0000
0000
0000
0000
,  // measure 43
1000
0100
0001
0100
1000
0010
0100
0001
,  // measure 44
0100
0010
1000
0001
1000
0001
1000
0000
,  // measure 45
0001
0010
1000
0010
0001
0100
0010
1000
,  // measure 46
0010
0100
0001
1000
0001
1000
0001
0000
,  // measure 47
1000
0010
1000
0001
0010
0001
0100
0010
,  // measure 48
1000
0010
0001
0010
1000
0001
1001
0000
,  // measure 49
0101
1001
1010
1001
,  // measure 50
0001
0001
0001
0100
0001
1000
0001
0000
,  // measure 51
1000
0010
0001
0010
1000
0100
0010
0001
,  // measure 52
0010
0100
1000
0001
0010
0001
1001
0000
,  // measure 53
0001
0100
1000
0100
0001
0010
0100
1000
,  // measure 54
0100
0010
0001
1000
0100
1000
1001
0000
,  // measure 55
0001
0100
0001
1000
0100
1000
0010
0100
,  // measure 56
0001
0100
1000
0100
0001
1000
1001
0000
,  // measure 57
1010
1001
0101
1001
,  // measure 58
1000
1000
1000
0010
1000
0001
1000
0000
,  // measure 59
0220
0000
0000
0000
0000
0000
0000
0000
0000
0000
0330
0000
0000
0000
1000
0100
,  // measure 60
1000
0000
0001
1001
0000
0010
0011
0000
,  // measure 61
1001
0000
1000
0001
0000
0001
0100
0010
,  // measure 62
1000
0010
0001
0010
1000
0001
1001
0000
,  // measure 63
1001
0000
0001
1000
0000
1000
0010
0100
,  // measure 64
0001
0100
1000
0100
0001
1000
1001
0000
,  // measure 65
1001
0000
0001
0010
0100
1000
0010
0100
,  // measure 66
0001
1000
0001
0100
0010
1000
1001
0000
,  // measure 67
0101
0110
1001
1000
,  // measure 68
1010
0000
0110
0000
1000
0100
0010
0001
,  // measure 69
1001
0000
1000
0010
0000
0010
0100
0001
,  // measure 70
0100
1000
0100
0010
0001
1000
0100
0010
,  // measure 71
1001
0000
0001
0100
0000
0100
0010
1000
,  // measure 72
0010
0001
0010
0100
1000
0001
0010
0100
,  // measure 73
1001
0000
1000
0010
0000
0010
0100
0001
,  // measure 74
0100
1000
0100
0010
0001
1000
1001
0000
,  // measure 75
0001
0100
0001
0000
0100
0000
0010
1000
0000
0010
1000
0000
0001
0000
0000
0000
,  // measure 76
1000
0010
1000
0000
0010
0000
0100
0001
0000
0100
0001
0000
1000
0000
0010
0000
,  // measure 77
0110
0000
0110
0000
0000
0101
0000
1001
;
