#TITLE:Craze for You;
#SUBTITLE:;
#ARTIST:TAKA feat. 百太郎;
#TITLETRANSLIT:;
#SUBTITLETRANSLIT:;
#ARTISTTRANSLIT:TAKA feat. MOMOTAROU;
#CREDIT:DMAxel;
#BANNER:Craze for You.png;
#BACKGROUND:Craze for You-bg.png;
#LYRICSPATH:Craze for You.lrc;
#CDTITLE:ee'mall.png;
#MUSIC:Craze for You.mp3;
#OFFSET:-0.400;
#SAMPLESTART:58.016;
#SAMPLELENGTH:12.000;
#SELECTABLE:YES;
#BPMS:0.000=166.500,192.000=83.250,208.000=166.500;
#STOPS:;
#BGCHANGES:;

//---------------dance-single - ----------------
#NOTES:
     dance-single:
     :
     Easy:
     4:
     0.337,0.464,0.303,0.064,0.000:
0000
0000
0000
0000
,
0000
0000
0000
0000
,
0000
0000
0000
0000
,
0000
0000
0000
0000
,
0001
0001
0001
0001
,
1000
1000
1000
1000
,
0010
0010
0010
0010
,
0220
0000
0330
0000
,
0000
0001
0000
0010
0000
0001
0000
0000
,
0000
1000
0000
0100
0000
1000
0000
0000
,
0000
0001
0000
0100
0000
0001
0000
0000
,
0000
1000
0000
0010
0000
1000
0000
0000
,
0000
0010
0000
0100
0000
0010
0000
0000
,
0000
1000
0000
0001
0000
1000
0000
0000
,
0000
0001
0000
1000
0000
0001
0000
0000
,
0000
0100
0000
0000
0000
0000
0000
0000
,
0000
0001
0000
1000
0000
0001
0000
1000
,
0000
0010
0000
0100
0000
0010
0000
0000
,
0000
1000
0000
0001
0000
1000
0000
0001
,
0000
0100
0000
0010
0000
0100
0000
0000
,
0000
0001
0000
1000
0000
0001
0000
1000
,
0000
0010
0000
0100
0000
0010
0000
0000
,
0000
1000
0000
0001
0000
1000
0000
0010
,
0000
0100
0000
0000
0000
0000
0000
0000
,
0001
0001
0010
0010
,
0100
0100
1000
1000
,
0001
1000
0001
1000
,
0001
0000
1001
1001
,
0010
0010
0100
0100
,
1000
1000
0100
0100
,
0010
0010
0001
0001
,
1000
0000
0000
0000
,
1001
1001
1001
1001
,
1001
0010
0100
1000
,
1001
1001
1001
1001
,
0100
0010
0001
0000
,
1001
1001
1001
1001
,
0100
0010
1000
0000
,
1001
1001
1001
1001
,
0220
0000
0330
0000
,
0001
0001
0001
0001
,
1000
1000
1000
1000
,
0010
0010
0010
0010
,
0100
0100
0110
0000
,
0001
1000
0001
1000
,
0100
1000
0100
1000
,
0001
0010
0001
0100
,
0110
0000
0000
0000
,
1001
0001
0000
0000
,
1000
1000
0100
0000
,
1000
0100
0010
0000
0001
0010
0100
0000
,
1000
0001
1000
0000
0010
0010
0010
0010
,
0010
0110
0100
0110
,
0010
0110
0100
0110
,
0001
1001
1000
1001
,
0001
1001
0002
0000
,
1003
0010
1000
0010
,
1000
0001
1000
0000
,
0001
0100
0001
1000
,
0001
0000
0000
0000
,
1001
0001
0001
0001
,
1000
1000
1000
1000
,
0100
0100
0100
0100
,
0010
0010
0010
0000
,
0001
0010
0001
0010
,
0001
1000
0001
1000
,
0100
1000
0100
0010
,
0022
0000
0033
0000
;

//---------------dance-single - ----------------
#NOTES:
     dance-single:
     :
     Medium:
     7:
     0.506,0.557,0.697,0.083,0.009:
0000
0000
0000
0000
,
0000
0000
0000
0000
,
0000
0000
0000
0000
,
0000
0000
0000
0000
,
1000
0001
1000
0000
0010
0000
0110
0000
,
0001
1000
0001
0000
0100
0000
0110
0000
,
1000
0001
1000
0000
0010
0000
0110
0000
,
0110
0000
0000
0000
0000
0000
0000
1001
0000
0000
0000
0000
0000
0000
0000
0000
,
0000
1000
0000
0100
1000
0000
1000
0001
,
0000
0001
0000
0010
0001
0000
0001
1000
,
0000
1001
0000
0010
1000
0000
1000
0001
,
0000
0001
0000
0100
0001
0000
0001
1000
,
0000
1001
0000
0100
0001
0100
0001
0100
,
0000
0010
1000
0010
1000
0010
1000
0010
,
0000
1001
0000
0010
1000
0010
1000
0010
,
0000
0100
0001
0000
0000
0000
0000
0000
,
0000
1001
0000
0001
0100
0000
0100
0001
,
0000
0001
0000
1000
0010
0000
0010
1000
,
0000
0110
0000
0001
0010
0000
0010
0001
,
0000
1000
0000
1000
0100
0000
0100
1000
,
0000
1001
0000
1000
0100
0000
0100
1000
,
0000
0110
0000
0001
0100
0000
0100
0001
,
0000
0100
0000
0001
0010
0100
1000
0100
,
1000
0100
0000
0000
0000
0000
0000
0000
,
1000
0001
1000
0000
0001
0000
0100
0010
,
0100
0000
0010
1000
0000
0000
1000
0000
,
0001
1000
0001
0000
1000
0000
0010
0100
,
0010
0000
1001
1001
,
1000
0001
1000
0000
0001
0000
0100
0010
,
0100
0000
0010
1000
0000
0000
1000
0000
,
0001
1000
0001
0000
0100
0000
0010
0100
,
0010
0000
0000
0100
0001
0000
0000
0000
,
1001
1001
0101
0101
,
1001
1001
1010
1010
,
1001
1001
0011
0011
,
1001
0000
1001
0000
0100
1000
0000
0000
,
1001
1001
1010
1010
,
1001
1001
0101
0101
,
1001
1100
1001
0011
,
0220
0000
0330
0000
,
1000
0100
1000
0000
0010
0000
0110
0000
,
0001
0010
0001
0000
0100
0000
0110
0000
,
1000
0100
1000
0000
0010
0000
0110
0000
,
0001
0010
0001
0000
0110
0000
0110
0000
,
1000
0010
1000
0010
1000
0001
0100
0000
,
0001
0100
0001
0100
0001
1000
0010
0000
,
1000
0100
1000
0100
1000
0001
0010
0000
,
0220
0000
0000
0330
,
2000
0000
3020
0000
1030
0100
0010
0001
,
0010
0100
1000
0001
0200
0000
0000
0000
,
0301
1000
0100
0010
0001
1000
0100
0001
,
0100
1000
0010
0001
0100
1000
0010
0001
,
0110
0110
1001
1001
,
1100
1100
0101
0101
,
1010
1010
0011
0011
,
1001
1001
0110
0000
,
0001
0010
0001
0010
0000
0001
1000
0000
,
1000
0100
1000
0100
0000
1000
0001
0000
,
1000
0010
0100
0001
,
0220
0000
0000
0330
,
1000
0100
1000
0000
1010
0000
1001
0000
,
0001
0100
0001
0000
0011
0000
1001
0000
,
1000
0010
1000
0000
1100
0000
1001
0000
,
0001
0100
0001
0000
0011
0000
1001
0000
,
1100
0000
0010
0000
0001
1000
0001
0000
,
0011
0000
0100
0000
1000
0001
1000
0000
,
1100
0000
0010
0000
0001
1000
0001
0000
,
0110
0000
0000
0000
0000
0000
0000
1001
0000
0000
0000
0000
0000
0000
0000
0000
;

//---------------dance-single - ----------------
#NOTES:
     dance-single:
     :
     Hard:
     8:
     0.601,0.804,0.165,0.092,0.105:
0000
0000
0000
0000
,
0000
0000
0000
0000
,
0000
0000
0000
0000
,
0000
0000
0000
0000
,
0001
1000
0001
0010
1000
0100
0010
0000
,
1001
0000
1000
0100
0001
0010
0100
0000
,
1001
0000
0001
0100
1000
0100
0010
0000
,
0202
0000
0000
0000
0000
0303
0000
1001
0000
0000
0000
0000
0000
0000
1000
0001
,
1000
0001
0100
0001
0010
0100
0010
0001
,
0000
1000
0010
1000
0100
0010
0100
1000
,
0000
1001
0000
0100
0001
0010
0100
1000
,
0000
0100
1000
0010
1000
0100
0010
0001
,
0000
1001
0000
0010
0100
1000
0100
0010
,
0000
1001
0000
0100
0010
0001
0010
0100
,
0000
1001
0000
0010
0100
1000
0100
0010
,
0001
0010
1000
0000
0010
1000
0000
0000
,
0000
1000
0010
1000
0100
0010
0100
1000
,
0000
0001
0100
0001
0010
0100
0010
0001
,
0000
1001
0000
0010
1000
0100
0010
0001
,
0000
0010
0001
0100
0001
0010
0100
1000
,
0000
1001
0000
0100
0010
0001
0010
0100
,
0000
1001
0000
0010
0100
1000
0100
0010
,
0000
1001
0000
0100
0010
0001
0010
0100
,
1000
0010
0001
0000
0010
0001
0000
0000
,
0001
0010
0100
1000
0010
0100
0001
1000
,
0100
0010
0001
0100
0010
1000
0001
0010
,
1000
0010
0100
0001
0010
0100
1000
0010
,
0110
0000
1001
1001
,
1000
0100
0010
0001
0100
0010
1000
0001
,
0010
0100
1000
0010
0100
0001
1000
0100
,
0001
0100
0010
1000
0100
0010
0001
0100
,
0110
0000
0000
0001
1000
0000
0000
0000
,
1000
0001
1000
0001
1000
0100
0001
0100
,
0000
1000
0100
0001
0000
0100
0010
0100
,
0001
1000
0001
1000
0001
0010
1000
0010
,
0000
0001
0010
1000
0010
0100
0000
0010
,
1000
0001
1000
0001
1000
0010
0001
0010
,
0000
1000
0010
0001
0000
0100
0010
0100
,
0001
1000
0001
1000
0001
0100
1000
0100
,
0020
0000
0001
0030
,
0001
1000
0001
0010
1000
0100
0010
0000
,
0001
0000
1000
0100
0001
0010
0100
0000
,
1000
0000
0001
0010
1000
0100
0010
0000
,
0001
1000
0001
0010
1000
0100
0010
0000
,
0001
0100
0010
1000
0100
0010
0100
1000
,
0010
0100
0001
0010
0100
0010
0001
0000
,
1000
0010
0100
0001
0010
0100
0010
0001
,
0100
0200
0000
0310
,
2000
0000
3100
0010
0002
0000
0000
0000
1003
0010
1000
0010
1000
0100
0010
0001
,
0100
0001
0100
0001
0010
0100
1000
0001
2000
0000
0000
0000
0000
0000
3000
0000
,
0001
0010
0100
1000
0000
1000
0010
1000
0000
1000
0100
0010
0001
0000
0001
0000
,
1001
0000
1000
0001
1000
0001
1000
0001
1000
0010
0100
0010
0100
0000
0000
0000
,
0001
0010
0100
1000
0100
0010
0001
1000
,
0100
0010
0001
0010
0100
1000
0010
0100
,
0001
0100
0010
1000
0100
0010
0100
1000
,
0001
0010
0100
0010
0001
0000
0000
0000
,
1000
0100
0010
0001
0000
0001
0100
0001
,
0100
0001
0010
0100
1000
0000
0001
0010
,
0100
1000
0010
1000
0010
1000
0100
0010
,
0002
0000
2000
3003
,
1000
0001
1000
0100
0001
0010
0100
0000
,
1000
0000
0001
0010
1000
0100
0010
0000
,
0001
0000
1000
0100
0001
0010
0100
0000
,
1000
0000
0001
0010
1000
0100
0010
0000
,
0001
1000
0001
0010
1000
0100
0010
0001
,
1000
0001
1000
0100
0001
0010
0100
1000
,
0001
1000
0001
0010
1000
0100
0010
0001
,
0200
0000
0000
0000
0000
0300
0000
1001
0000
0000
0000
0000
0000
0000
0000
0000
;

//---------------dance-single - ----------------
#NOTES:
     dance-single:
     :
     Beginner:
     2:
     0.075,0.154,0.055,0.000,0.000:
0000
0000
0000
0000
,
0000
0000
0000
0000
,
0000
0000
0000
0000
,
0000
0000
0000
0000
,
1000
0000
0000
0000
,
0001
0000
0000
0000
,
1000
0000
0000
0000
,
0001
0000
0000
0000
,
0000
0100
0000
0000
0000
0000
0000
0000
,
0000
0000
0000
0000
,
0000
0010
0000
0000
0000
0000
0000
0000
,
0000
0000
0000
0000
,
0000
0100
0000
0000
0000
0000
0000
0000
,
0000
0000
0000
0000
,
0000
0010
0000
0000
0000
0000
0000
0000
,
0000
0000
0000
0000
,
0000
1000
0000
0000
0000
0000
0000
0000
,
0000
0000
0000
0000
,
0000
1000
0000
0000
0000
0000
0000
0000
,
0000
0000
0000
0000
,
0000
0001
0000
0000
0000
0000
0000
0000
,
0000
0000
0000
0000
,
0000
0001
0000
0000
0000
0000
0000
0000
,
0000
0000
0000
0000
,
0001
0000
0000
0000
,
0000
0000
0000
0000
,
1000
0000
0000
0000
,
0000
0000
1001
0000
,
0001
0000
0000
0000
,
1000
0000
0000
0000
,
0001
0000
0000
0000
,
1000
0000
0000
0000
,
1001
0000
0000
0000
,
1000
0000
0000
0000
,
1001
0000
0000
0000
,
0001
0000
0000
0000
,
1001
0000
0000
0000
,
1000
0000
0000
0000
,
1001
0000
0000
0000
,
0001
0000
0000
0000
,
0100
0000
0000
0000
,
0100
0000
0000
0000
,
0010
0000
0000
0000
,
0010
0000
0000
0000
,
1001
0000
0000
0000
,
1000
0000
0000
0000
,
0001
0000
0000
0000
,
0001
0000
0000
0000
,
1000
0000
0000
0000
,
0000
0000
0000
0000
,
0100
0000
0000
0000
,
0010
0000
0000
0000
,
0001
0000
0000
0000
,
0000
0000
0000
0000
,
1000
0000
0000
0000
,
0000
0000
0000
0000
,
0001
0000
0000
0000
,
0000
0000
0000
0000
,
0010
0000
0000
0000
,
0100
0000
0000
0000
,
1000
0000
0000
0000
,
1000
0000
0000
0000
,
0001
0000
0000
0000
,
0001
0000
0000
0000
,
1000
0000
0000
0000
,
0100
0000
0000
0000
,
0010
0000
0000
0000
,
0001
0000
0000
0000
;

//---------------dance-single - ----------------
#NOTES:
     dance-single:
     :
     Challenge:
     10:
     0.736,0.897,0.202,0.009,0.449: // measure 1
0000
0000
0000
0000
,  // measure 2
0000
0000
0000
0000
,  // measure 3
0000
0000
0000
0000
,  // measure 4
0000
0000
0000
0000
,  // measure 5
1000
0100
0010
0001
0100
0001
0010
1000
,  // measure 6
0001
0010
0100
1000
0010
1000
0100
0001
,  // measure 7
1000
0100
0010
0001
0010
1000
0001
0100
,  // measure 8
0001
0010
0001
0010
0001
0010
0000
1001
0000
0000
0000
0000
0000
0000
0001
1000
,  // measure 9
0001
0010
0100
1000
0010
0100
0010
1000
,  // measure 10
0001
0010
0100
1000
0010
0100
0010
1000
,  // measure 11
0000
1001
0100
0010
0001
0100
0010
0100
,  // measure 12
0001
1000
0100
0010
0001
0100
0010
0100
,  // measure 13
0000
1001
0010
0100
1000
0100
0001
0100
,  // measure 14
0000
1001
0100
0010
0001
0010
1000
0010
,  // measure 15
0000
1001
0010
0100
1000
0100
0001
0100
,  // measure 16
1000
0000
0001
1000
0001
0000
1000
0000
0010
0100
0010
0000
1000
0000
0100
0000
,  // measure 17
0000
1001
0100
0010
0001
1000
0100
1000
,  // measure 18
0001
1000
0100
0010
0001
1000
0100
1000
,  // measure 19
0000
1001
0010
0100
1000
0001
0010
0001
,  // measure 20
1000
0001
0010
0100
1000
0001
0010
0001
,  // measure 21
0000
1001
0010
0100
0001
0100
1000
0100
,  // measure 22
0000
1001
0100
0010
1000
0010
0001
0010
,  // measure 23
0000
1001
0010
0100
0001
0100
1000
0100
,  // measure 24
0001
0000
0100
0010
0100
0000
0001
0000
0100
0010
0100
0000
0001
0000
1000
0000
,  // measure 25
0001
0000
0010
0000
0100
0000
1000
0010
0000
0010
1000
0000
0001
0000
1000
0000
,  // measure 26
1000
0000
0100
0000
0010
0000
0001
0100
0000
0100
0001
0000
1000
0000
0001
0000
,  // measure 27
0001
0000
0010
0000
0100
0000
1000
0010
0000
0010
1000
0000
0001
0000
1000
0000
,  // measure 28
0010
0100
0010
0100
0010
0100
0010
0000
1001
0000
0000
0000
1001
0000
0000
0000
,  // measure 29
1000
0000
0010
0000
0100
0000
0001
0010
0000
0010
0001
0000
1000
0000
0001
0000
,  // measure 30
0001
0000
0100
0000
0010
0000
1000
0100
0000
0100
1000
0000
0001
0000
1000
0000
,  // measure 31
1000
0000
0010
0000
0100
0000
0001
0010
0000
0010
0001
0000
1000
0000
0010
0000
,  // measure 32
0100
0010
0100
0010
0100
0000
0001
0000
1000
0000
1000
0000
1000
0000
0000
0000
,  // measure 33
0001
0100
0000
0000
0001
0100
0000
0000
0010
1000
0000
0000
0010
1000
0000
0000
,  // measure 34
0010
1000
0100
0010
0001
0100
0001
0000
,  // measure 35
1000
0010
0000
0000
1000
0010
0000
0000
0100
0001
0000
0000
0100
0001
0000
0000
,  // measure 36
0100
0000
0001
0000
0010
0000
0100
0000
1001
0000
0000
0000
0100
0010
0100
0000
,  // measure 37
0001
0010
0000
0000
0001
0010
0000
0000
0100
1000
0000
0000
0100
1000
0000
0000
,  // measure 38
0010
1000
0100
0010
0001
0100
0001
0000
,  // measure 39
1000
0100
0000
0000
1000
0100
0000
0000
0010
0001
0000
0000
0010
0001
0000
0000
,  // measure 40
0100
0000
0001
0000
0010
0000
0001
0000
1000
0001
1000
0001
1000
0000
0000
0000
,  // measure 41
0001
0010
0100
1000
0010
0001
1000
0010
,  // measure 42
1000
0100
0010
0001
0010
1000
0001
0100
,  // measure 43
0001
0010
0100
1000
0100
0001
1000
0010
,  // measure 44
1000
0000
0100
0000
0010
0000
0001
0000
0010
0000
1000
0001
1000
0000
0001
1000
,  // measure 45
0001
0010
0100
1000
0100
0001
0010
0100
,  // measure 46
1001
0100
0010
0001
0010
1000
0100
0010
,  // measure 47
1001
0010
0100
1000
0100
0001
0010
0100
,  // measure 48
1000
0000
0010
0000
1000
0000
0001
0000
0100
0010
0100
0010
0100
0010
0100
0000
,  // measure 49
1001
0000
0001
0010
0100
0000
1000
0001
0000
0001
0100
0001
0010
0100
1000
0001
,  // measure 50
0010
0100
1000
0100
0001
0100
1000
0010
1000
0001
0000
0001
1000
0000
0000
0000
,  // measure 51
1001
0100
0010
0001
0000
0001
0100
0001
0000
0001
0010
0100
1000
0010
1000
0000
,  // measure 52
1001
0000
0001
1000
0001
1000
0001
1000
0001
0100
0010
0100
0010
0000
0000
0000
,  // measure 53
1001
0000
0000
1000
0010
0000
0000
0010
0100
0000
0000
0010
0100
0000
0000
0100
,  // measure 54
0001
0000
0000
0100
0001
0000
0000
0001
1000
0000
0000
0001
1000
0000
0000
1000
,  // measure 55
0100
0000
0000
1000
0100
0000
0000
0100
0010
0000
0000
0100
0010
0000
0000
0010
,  // measure 56
0001
0000
0000
0010
0001
0000
0100
0000
0020
0000
0000
0000
0000
0000
0000
0000
,  // measure 57
1030
0100
0010
0001
0010
1000
0010
0001
,  // measure 58
0010
0100
1000
0100
0001
0100
1000
0100
,  // measure 59
0010
0001
0100
0001
0100
0001
0010
0100
,  // measure 60
1000
0000
0010
1000
0000
1000
0001
0000
0100
0000
0010
0000
0100
0000
0000
0000
,  // measure 61
0001
0010
0100
1000
0100
0001
0010
0100
,  // measure 62
1000
0100
0010
0001
0010
1000
0100
0010
,  // measure 63
0001
0000
1000
0001
1000
0000
0010
0000
1000
0000
0100
0000
0010
0000
0001
0000
,  // measure 64
0010
0000
1000
0000
0100
0000
0010
0000
0001
0000
0100
0010
0100
0000
0001
1000
,  // measure 65
0001
0100
0010
1000
0010
0001
0010
0100
,  // measure 66
1001
0000
0100
0010
0100
0000
0001
0000
0100
0000
1000
0000
0100
0000
0010
0000
,  // measure 67
1001
0000
0010
0100
0010
0000
1000
0000
0010
0000
0001
0000
0010
0000
0100
0000
,  // measure 68
1000
0100
1000
0100
1000
0100
0000
1001
0000
0000
0000
0000
0000
0000
0000
0000
;
