#TITLE:Comical Hustle;
#SUBTITLE:;
#ARTIST:神前暁;
#TITLETRANSLIT:;
#SUBTITLETRANSLIT:;
#ARTISTTRANSLIT:Satoru Kousaki;
#CREDIT:DMAxel;
#BANNER:Comical Hustle.png;
#BACKGROUND:Comical Hustle-bg.png;
#LYRICSPATH:;
#CDTITLE:DMAxel Original Simfile.png;
#MUSIC:Comical Hustle.mp3;
#OFFSET:-0.160;
#SAMPLESTART:16.698;
#SAMPLELENGTH:12.000;
#SELECTABLE:YES;
#BPMS:0.000=240.000,98.000=120.000,130.000=240.000;
#STOPS:;
#BGCHANGES:;

//---------------dance-single - ----------------
#NOTES:
     dance-single:
     :
     Easy:
     4:
     0.310,0.357,0.100,0.043,0.000:
0000
0000
0000
0000
,
0000
0000
0000
0000
,
0000
0000
0000
0000
,
0000
0000
0000
0000
,
0000
0000
0000
1000
,
0000
0100
0000
1000
,
0000
0010
0000
0100
,
0000
0001
0000
0010
,
0000
0001
0000
1000
,
1000
0000
0010
0000
,
0000
0100
0100
0000
,
0010
0000
1000
0000
,
0001
0000
0010
0001
,
0001
0000
0000
0100
,
0000
0010
0000
1000
,
0000
0010
0000
0100
,
0000
0010
0000
1000
,
1000
0000
0010
0000
,
0100
0000
0001
0000
,
0010
0010
0001
0100
,
0000
0010
0000
1000
,
0000
0001
1000
1000
,
0000
0100
0000
1000
,
0000
0010
0010
0100
,
0000
0010
1001
0000
,
0000
0010
0011
0000
,
0000
0100
1100
0000
,
0000
0010
1001
0000
,
0000
0100
0100
0100
,
0010
0010
1000
1000
,
0001
0001
1000
1000
,
0100
0100
0010
0010
,
0002
0000
1003
0100
,
1000
0100
1000
0010
,
0000
0100
0100
0010
,
0100
0001
0010
0100
,
1000
0010
0000
1000
,
1000
0010
1000
0001
,
0100
0000
0010
0010
,
1000
0100
0010
0001
,
0100
0100
0000
0010
,
0010
0000
0100
0010
,
1000
0010
0010
1000
,
0010
0100
0001
0010
,
0100
1000
0000
0100
,
0100
1000
1001
0000
,
1001
0000
0001
0001
,
1000
0010
0100
0100
,
0010
0100
1001
0000
,
0100
0000
1000
0000
,
0100
0001
0010
0000
,
1000
0000
0010
0000
,
0001
0100
1000
0000
,
0100
0000
0001
0000
,
0100
1000
0002
0000
,
0000
2003
0000
0000
3001
0000
0000
0000
;

//---------------dance-single - ----------------
#NOTES:
     dance-single:
     :
     Hard:
     8:
     0.551,0.515,0.528,0.057,0.000: // measure 1
0000
0000
0000
0000
,  // measure 2
0000
0000
0000
0000
,  // measure 3
0000
0000
0000
0000
,  // measure 4
0000
0000
0000
0000
,  // measure 5
0000
0000
1000
0001
,  // measure 6
0100
0001
1000
0010
,  // measure 7
0100
0001
1000
0010
,  // measure 8
0100
0001
1000
0010
,  // measure 9
0100
0001
1000
0011
,  // measure 10
0011
0000
0000
1000
0100
1000
0000
0011
,  // measure 11
0000
0100
0010
0000
1001
0000
1001
0000
,  // measure 12
0001
1000
0000
0100
0000
0010
0001
0000
,  // measure 13
0010
0100
1000
1100
,  // measure 14
1100
0000
0000
0001
0100
0001
0000
1010
,  // measure 15
0000
0001
1000
0000
1001
0000
1001
0000
,  // measure 16
0010
0100
0000
0001
0000
0100
0010
0000
,  // measure 17
1000
0001
1001
1010
,  // measure 18
1010
0000
0000
0010
0100
0001
0000
1100
,  // measure 19
0000
0001
0010
0100
1000
0000
0100
0000
,  // measure 20
1000
0010
1000
0010
,  // measure 21
1001
1001
0000
0101
,  // measure 22
0101
0000
0000
1000
0010
0100
0000
0011
,  // measure 23
0000
0001
0010
0100
1000
0000
1001
0000
,  // measure 24
0100
1000
0000
0010
0000
1000
0100
0010
,  // measure 25
0001
0110
2000
0001
,  // measure 26
0001
0001
3002
0100
,  // measure 27
0100
0100
0203
0010
,  // measure 28
0010
0010
0320
1000
,  // measure 29
1000
1000
1030
0100
,  // measure 30
0010
0001
0100
0000
0010
0000
1000
0000
,  // measure 31
0010
0100
0001
0000
0010
0000
0100
0000
,  // measure 32
1000
0010
0100
0000
1001
0000
0010
0000
,  // measure 33
1000
0100
0001
0010
1001
0000
0001
0000
,  // measure 34
1001
0000
0000
0010
0100
0010
0000
0100
,  // measure 35
0000
0001
0010
0100
1000
0000
0100
0000
,  // measure 36
1000
0010
0000
1001
0000
0010
0001
0010
,  // measure 37
0001
1000
0000
0010
,  // measure 38
0100
0000
0000
0001
1000
0001
0000
1000
,  // measure 39
0000
0010
0100
0001
0100
0000
0101
0000
,  // measure 40
0010
1000
0000
0010
0000
1000
0100
0010
,  // measure 41
0001
1100
0000
1001
,  // measure 42
1001
0000
0000
0010
1000
0010
0000
1000
,  // measure 43
0000
0001
0100
0001
0100
0000
0001
0000
,  // measure 44
1000
0100
0000
1000
0000
0001
0010
0001
,  // measure 45
0010
1001
0000
1000
,  // measure 46
0010
0000
0000
1000
0100
1000
0000
0010
,  // measure 47
0000
1000
0100
0010
0001
0000
0010
0000
,  // measure 48
0001
1000
0000
0100
0000
1000
0010
0100
,  // measure 49
0010
0000
1001
0000
1100
0000
0000
0010
,  // measure 50
0000
0000
0001
0000
0000
0100
0000
0000
,  // measure 51
0010
0000
1001
0000
0011
0000
0000
0100
,  // measure 52
0000
0000
1000
0000
0000
0010
0000
0000
,  // measure 53
0100
0000
1001
0000
1010
0000
0000
0100
,  // measure 54
0000
0000
0001
0000
0000
0100
0000
0000
,  // measure 55
0010
0000
1001
0000
1000
0100
0010
0001
,  // measure 56
0000
0001
0010
0100
1000
0000
0000
0000
;

//---------------dance-single - ----------------
#NOTES:
     dance-single:
     :
     Challenge:
     9:
     0.657,0.832,0.728,0.043,0.193: // measure 1
0000
0000
0000
0000
,  // measure 2
0000
0000
0000
0000
,  // measure 3
0000
0000
0000
0000
,  // measure 4
0000
0000
0000
0000
,  // measure 5
0000
0000
0100
1000
,  // measure 6
0010
0100
0001
0000
0010
0000
0001
0000
,  // measure 7
0100
0010
1000
0000
0010
0000
0100
0000
,  // measure 8
0001
1000
0001
0000
0100
0000
0010
1000
,  // measure 9
0001
1000
0100
0010
0001
0000
1100
0000
,  // measure 10
1100
0000
0000
0010
0001
0100
0000
0010
,  // measure 11
0000
1000
0010
0000
1000
0000
0011
0000
,  // measure 12
0100
0010
0000
0100
0000
0001
0100
0010
,  // measure 13
1000
0011
0100
1010
,  // measure 14
1010
0000
0000
0100
0010
1000
0000
0001
,  // measure 15
0000
0100
0010
0000
1000
0000
1010
0000
,  // measure 16
0100
0001
0000
0100
0000
0010
0100
0000
,  // measure 17
0001
1100
0011
0101
,  // measure 18
1001
0000
0000
0010
0100
0001
0000
0100
,  // measure 19
0000
0010
0100
0000
0001
0000
0101
0000
,  // measure 20
0100
0010
0000
0100
0000
0001
1000
0000
,  // measure 21
0010
1100
1010
1001
,  // measure 22
1001
0000
0000
0010
0100
0001
0000
0100
,  // measure 23
0000
0010
0100
0000
0001
0000
1001
0000
,  // measure 24
0010
0001
0000
1100
0000
0001
0010
0100
,  // measure 25
1000
0000
0000
0000
0011
0000
0000
0000
1001
0000
0000
1000
0000
0000
0001
0000
,  // measure 26
0000
0100
0000
0000
0001
0000
0010
0000
1000
0000
0000
0010
0000
0000
0100
0000
,  // measure 27
0000
0010
0000
0000
1000
0000
0100
0000
0001
0000
0000
0100
0000
0000
0010
0000
,  // measure 28
0000
1000
0000
0000
0001
0000
0100
0000
1000
0000
0000
0010
0000
0000
0100
0000
,  // measure 29
0000
0010
0000
0000
1000
0000
0010
0000
0001
0010
0000
0010
0100
0000
0100
1000
,  // measure 30
0000
1000
0001
0000
1000
0000
0001
0000
1000
0100
0000
0100
0010
0000
0010
0001
,  // measure 31
0000
0001
1000
0000
0001
0000
0100
0000
0001
0100
0000
0010
1000
0000
1000
0010
,  // measure 32
0000
0100
0001
0000
0100
0000
0010
0000
1000
0010
0000
0100
0001
0000
0001
0100
,  // measure 33
0001
0100
0010
1000
0010
1000
0001
1000
0001
0000
0000
0000
1100
0000
0000
0000
,  // measure 34
1001
0000
0000
0100
0010
0100
0000
1001
,  // measure 35
0000
1000
0100
0010
0001
0000
0110
0000
,  // measure 36
1000
0100
0000
1001
0000
1000
0100
0010
,  // measure 37
0001
1100
0010
0101
,  // measure 38
1001
0000
0000
0100
0010
0100
0000
1001
,  // measure 39
0000
0001
0100
0010
1000
0000
1010
0000
,  // measure 40
0100
0001
0000
0110
0000
1000
0100
0010
,  // measure 41
0001
0011
0101
1001
,  // measure 42
1001
0000
0000
0100
0010
1000
0000
0110
,  // measure 43
0000
0001
0010
0100
1000
0000
0110
0000
,  // measure 44
0001
0100
0000
1010
0000
1000
0100
0010
,  // measure 45
0001
1100
1010
1001
,  // measure 46
1001
0000
0000
0000
0101
0000
0000
1100
,  // measure 47
0000
1000
0010
0100
0001
0000
0110
0000
,  // measure 48
1000
0010
0000
0101
0000
0001
0010
0100
,  // measure 49
1000
0000
1001
0000
0020
0000
0000
1000
,  // measure 50
0000
0000
1000
0000
0000
1000
0000
0000
,  // measure 51
1030
0000
1001
0000
0200
0000
0000
0001
,  // measure 52
0000
0000
0001
0000
0000
0001
0000
0000
,  // measure 53
0301
0000
1001
0000
0002
0000
0000
1000
,  // measure 54
0000
0000
1000
0000
0000
1000
0000
0000
,  // measure 55
1003
0000
0011
0000
1000
0100
0010
0001
,  // measure 56
0000
0100
0010
1000
1001
0000
0000
0000
;

//---------------dance-single - ----------------
#NOTES:
     dance-single:
     :
     Medium:
     6:
     0.434,0.515,0.343,0.128,0.000:
0000
0000
0000
0000
,
0000
0000
0000
0000
,
0000
0000
0000
0000
,
0000
0000
0000
0000
,
0000
0000
1000
0000
,
0010
0000
0100
0000
,
0010
0000
1000
0000
,
0001
0000
0100
0000
,
0010
0000
1000
1001
,
1001
0000
0000
0010
1000
0000
0000
0010
,
0000
0100
0001
0000
0010
0000
0001
0000
,
1000
0100
0000
1000
0000
0001
0100
0000
,
0010
0010
0000
1001
,
1001
0000
0000
0010
0001
0000
0000
0010
,
0000
0001
1000
0000
0100
0000
1001
0000
,
0001
0100
0000
0010
0000
1000
0010
0000
,
0100
0100
0001
1001
,
1001
0000
0000
0010
1000
0000
0000
0010
,
0000
0100
0001
0000
0010
0000
1001
0000
,
0100
0010
0000
1000
0000
0010
0100
0010
,
0100
0001
0000
0100
,
1001
0000
0000
0001
0100
0001
0000
0100
,
0000
0010
1000
0010
1000
0000
1001
0000
,
0001
0100
0000
0001
0000
1000
0100
1000
,
0100
1000
0002
0000
,
0000
0000
2003
0000
,
0000
0000
3020
0000
,
0000
0000
0230
0000
,
0000
0000
0301
1000
,
0010
0100
0001
0000
0010
0000
0001
0000
,
0100
0010
1000
0000
0010
0000
1000
0000
,
0001
0010
1000
0000
1001
0000
0010
0000
,
1000
0010
0002
0000
1003
0000
0100
0000
,
1001
0000
0000
0100
0010
0100
0000
0010
,
0000
1000
0100
1000
0100
0000
1000
0000
,
0001
0010
0000
1001
0000
0100
0010
0100
,
0010
1001
0000
0100
,
0010
0000
0000
1000
0001
1000
0000
0001
,
0000
0010
0001
0010
0001
0000
1100
0000
,
0010
0100
0000
0001
0000
1000
0001
1000
,
0001
0110
0000
1001
,
1001
0000
0000
0100
0001
0100
0000
1001
,
0000
0010
1000
0010
1000
0000
0010
0000
,
0100
0001
0000
0010
0000
0001
0010
0001
,
0010
1001
0000
0001
,
0100
0000
0000
0000
0101
0000
0000
1010
,
0000
0100
1001
0010
,
1000
0001
0000
0100
0000
0001
0100
0010
,
0100
1001
0020
0000
,
0000
0000
0000
0000
,
0000
0000
2030
0000
,
0000
0000
0000
0000
,
0000
0000
3002
0000
,
0000
0000
0000
0000
,
0000
0000
0203
0000
,
0000
0000
0310
0000
;

//---------------dance-single - ----------------
#NOTES:
     dance-single:
     :
     Beginner:
     2:
     0.126,0.238,0.143,0.000,0.000:
0000
0000
0000
0000
,
0000
0000
0000
0000
,
0000
0000
0000
0000
,
0000
0000
0000
0000
,
0000
0000
0000
1000
,
0000
0000
0000
0000
,
0000
0000
0000
0001
,
0000
0000
0000
0000
,
0000
0000
0000
1000
,
0000
0000
1000
0000
,
0000
0000
0010
0000
,
0000
0000
0000
0000
,
0000
0000
0000
0100
,
0000
0000
0100
0000
,
0000
0000
1001
0000
,
0000
0000
0000
0000
,
0000
0000
0000
0010
,
0000
0000
0010
0000
,
0000
0000
1000
0000
,
0000
0000
0000
0000
,
0000
0000
0000
0010
,
0000
0000
0010
0000
,
0000
0000
1001
0000
,
0000
0000
0000
0000
,
0000
0000
0100
0000
,
0000
0000
0100
0000
,
0000
0000
0010
0000
,
0000
0000
0010
0000
,
0000
0000
1000
0000
,
0000
0000
1000
0000
,
0000
0000
0001
0000
,
0000
0000
0001
0000
,
0000
0000
1000
0000
,
0000
0000
1000
0000
,
0000
0000
0010
0000
,
0000
0000
0000
0000
,
0000
0000
0000
0100
,
0000
0000
0100
0000
,
0000
0000
0001
0000
,
0000
0000
0010
0000
,
0000
0000
0000
0001
,
0000
0000
0001
0000
,
0000
0000
0100
0000
,
0000
0000
0100
0000
,
0000
0000
0000
0010
,
0000
0000
1001
0000
,
0000
0000
1001
0000
,
0000
0000
0110
0000
,
0000
0000
1001
0000
,
1000
0000
1000
0000
,
1000
0000
1001
0000
,
0001
0000
0001
0000
,
0001
0000
1001
0000
,
0100
0000
0100
0000
,
0100
0000
1001
0000
,
0010
0000
1001
0000
;
