#TITLE:Citta' del sole;
#SUBTITLE:;
#ARTIST:Q-mex;
#TITLETRANSLIT:;
#SUBTITLETRANSLIT:;
#ARTISTTRANSLIT:;
#CREDIT:DMAxel;
#BANNER:Citta' del sole.png;
#BACKGROUND:Citta' del sole-bg.png;
#LYRICSPATH:;
#CDTITLE:KEYBOARDMANIA.png;
#MUSIC:Citta' del sole.mp3;
#OFFSET:1.220;
#SAMPLESTART:62.157;
#SAMPLELENGTH:12.000;
#SELECTABLE:YES;
#BPMS:0.000=140.000;
#STOPS:;
#BGCHANGES:3.020=Citta' del sole.avi=1.000=1=0=1,
99999=-nosongbg-=1.000=0=0=0 // don't automatically add -songbackground-
;

//---------------dance-single - ----------------
#NOTES:
     dance-single:
     :
     Easy:
     2:
     0.152,0.173,0.095,0.238,0.000:
0000
0000
0000
0000
,
0000
0000
0000
0000
,
0000
0000
0000
0000
,
0000
0000
0000
0000
,
0000
0000
0000
0000
,
0002
0000
0000
0000
,
0023
0000
0000
0000
,
0230
0000
0000
0000
,
2300
0000
0000
0000
,
3002
0000
0000
0000
,
2003
0000
0000
0000
,
3200
0000
0000
0000
,
0320
0000
0000
0000
,
0032
0000
0000
0000
,
2003
0000
0000
0000
,
3002
0000
0000
0003
,
1001
0000
0000
0000
,
1100
0000
0000
0000
,
1000
0000
0000
0000
,
0011
0000
0000
0000
,
0001
0000
0000
0000
,
1001
0000
0001
0000
,
1000
0000
1000
0000
,
1001
0000
0000
0000
,
0001
0000
0000
0000
,
1001
0000
0000
0000
,
1000
0000
0000
0000
,
1001
0000
1000
0000
,
0001
0000
0001
0000
,
0100
0000
0100
0000
,
0001
0000
1000
0000
,
0010
0000
0010
0000
,
1000
0000
0001
0000
,
1000
0000
1000
0000
,
0001
0000
0001
0000
,
0110
0000
0000
0000
,
0110
0000
0000
0000
,
2000
0000
0000
0000
,
3200
0000
0000
0000
,
0320
0000
0000
0000
,
0032
0000
0000
0000
,
2003
0000
0000
0000
,
3002
0000
0000
0000
,
0203
0000
0000
0000
,
0320
0000
0000
0000
,
2030
0000
0000
0000
,
3002
0000
0000
0000
,
0023
0000
0000
0000
,
0230
0000
0000
0000
,
1300
0000
0100
0000
,
1000
0000
0001
0000
,
0100
0000
0001
0000
,
1000
0000
0001
0000
,
1000
0000
1000
0000
,
0001
0000
0001
0000
,
0010
0000
0010
0000
,
0100
0000
0100
0000
,
1000
0000
0001
0000
,
0010
0000
0001
0000
,
1000
0000
0100
0000
,
2002
0000
0000
3003
;

//---------------dance-single - ----------------
#NOTES:
     dance-single:
     :
     Medium:
     4:
     0.266,0.346,0.162,0.276,0.000:
0000
0000
0000
0000
,
0000
0000
0000
0000
,
0000
0000
0000
0000
,
0000
0000
0000
0000
,
0000
0000
0000
0000
,
2000
0000
0000
0100
0000
0000
0000
0000
,
3002
0000
0000
0000
,
2003
0000
0000
3010
,
0100
0010
0000
0000
,
1002
0000
0000
0000
,
0203
0000
0000
0000
,
0320
0000
0000
0000
,
2030
0000
0000
3001
,
0200
0000
0000
0310
,
2000
0000
0000
3100
,
0020
0000
0000
0030
,
1001
0000
0000
0000
,
0011
0000
0000
0001
0000
0000
1000
0000
,
1100
0000
0000
1000
0000
0000
0001
0000
,
0101
0000
0000
0001
0000
0000
1000
0000
,
1010
0000
0000
1000
0000
0000
0001
0000
,
1000
0100
2000
0000
,
3001
0010
0002
0000
,
1003
0000
0000
0010
0000
0000
0010
0000
,
1001
0000
0000
0100
0000
0000
0100
0000
,
1001
0000
0000
0001
0000
0000
0100
0000
,
1001
0000
0000
1000
0000
0000
0010
0000
,
1000
0100
1000
1000
,
0001
0010
0001
0001
,
1000
0010
1000
1000
,
0001
0100
0001
0001
,
1001
0000
0000
0100
0000
0000
0010
0000
,
0001
0000
0000
0010
0000
0000
0100
0000
,
1000
0000
0000
0010
0000
0000
1000
0000
,
0001
0000
0000
0100
0000
0000
0001
0000
,
1001
0000
0000
1000
0000
0000
0000
0000
,
1001
0000
0000
0002
0000
0000
0000
0000
,
0203
0000
0000
0000
,
0320
0000
1000
1000
,
2030
0000
0000
0000
,
3200
0000
0000
0310
,
0002
0000
0000
0100
0000
0000
0000
0000
,
2003
0000
0000
3100
,
0020
0000
0000
0000
,
0031
1000
0001
1000
,
2100
0000
3002
0000
,
0203
0000
0320
1000
,
1000
2030
0000
0001
,
3002
0000
0000
0100
,
0203
0000
0310
1000
,
0001
0000
0000
1000
0000
0000
0100
0000
,
0010
0001
0100
0010
,
1000
0100
0010
0001
,
0100
0010
0100
0001
,
1000
0100
0010
0001
,
0100
0010
1000
0010
,
0100
0001
0010
0100
,
1001
1000
0100
0110
,
0001
0001
0100
0110
,
1000
0000
0001
0000
0100
0010
0100
0000
,
2002
0000
0000
3003
;

//---------------dance-single - ----------------
#NOTES:
     dance-single:
     :
     Hard:
     7:
     0.441,0.491,0.209,0.219,0.010:
0000
0000
0000
0000
,
0000
0000
0000
0000
,
0000
0000
0000
0000
,
0000
0000
0000
0000
,
0000
0000
0000
0000
,
0001
0000
0000
1000
0000
0001
0000
1000
,
0002
0000
0000
0103
,
0010
0000
0010
0000
,
1000
0001
1000
0000
,
1001
0010
0010
0001
,
0100
1000
1000
0100
,
0001
0010
0010
0001
,
1000
0010
0010
0100
,
0001
1000
1000
0001
,
0100
0000
0010
0000
0010
0100
0010
0000
,
1000
0000
0001
1000
0000
1000
0010
0100
,
0020
0000
0000
0030
,
1100
0000
1000
0010
0000
0010
0100
0000
,
0001
0010
0001
0100
0000
0100
0010
0000
,
0011
0000
0001
0100
0000
0100
0010
0000
,
1000
0100
1000
0010
0000
0010
0100
0000
,
0001
0010
0100
1000
0020
0000
1000
0000
,
1030
0100
0010
0001
0200
0000
0001
0000
,
0301
0000
0100
0010
0000
0010
1000
0000
,
0001
0010
0001
2000
0000
0010
3010
0000
,
1001
0000
0010
0100
0000
0100
0001
0000
,
1000
0100
1000
0002
0000
0100
0103
0000
,
0001
0100
0100
0000
1000
0100
0001
0000
,
1000
0010
0010
0000
0001
0010
1000
0000
,
0001
0010
0010
0000
1000
0010
0001
0000
,
1000
0100
0100
0000
0001
0100
1000
0000
,
1001
0000
0001
0010
0000
0010
0100
0000
,
1001
0000
1000
0100
0000
0100
0010
0000
,
1001
0000
0001
0100
0000
0100
0010
0000
,
1001
0000
1000
0010
0000
0010
0100
0000
,
1001
0000
0000
1000
0000
0000
2020
0000
0000
0000
0000
0000
3030
0000
0000
0000
,
1001
0000
0000
0001
0000
0000
0202
0000
0000
0000
0000
0000
0303
0000
0000
0000
,
0020
0000
0001
0000
0001
0000
0031
1000
,
0200
0000
1000
0000
1000
0000
1300
0001
,
0200
0000
0001
0000
0001
0000
0301
1000
,
0020
0000
1000
0000
1000
0000
1030
0100
,
0010
0000
0001
0010
0000
0010
0000
0001
,
2000
0000
0001
0000
0001
0000
3001
0010
,
0200
0000
1000
0000
1000
0000
1300
0010
,
0100
0001
0200
0000
0010
0000
0310
0000
,
1002
0000
1000
0000
1000
0000
1003
0100
,
0020
0000
0001
0000
0001
0000
0031
0010
,
0200
0000
1000
0000
1000
0000
1300
0010
,
0200
0000
0001
0000
0001
0000
0301
0100
,
0010
1000
0010
0000
1010
0000
1001
0000
,
1000
0001
0100
0000
0101
0000
1001
0000
,
0001
0100
0010
0000
0110
0000
1001
0000
,
1000
0010
0100
0000
0110
0000
1001
0000
,
0010
1000
0010
1000
0001
0010
0001
0000
,
0100
0001
0100
0001
1000
0100
1000
0000
,
0100
1000
0100
1000
0001
0100
0001
0000
,
0010
0001
0010
0001
1000
0010
1000
0000
,
0010
1000
0100
0001
0100
0010
1000
0000
,
0001
0010
0100
1000
0100
0001
0010
0000
,
1000
0100
0010
0001
0010
1000
0010
0100
,
2002
0000
0000
3003
;

//---------------dance-single - ----------------
#NOTES:
     dance-single:
     :
     Challenge:
     8:
     0.550,0.548,0.124,0.257,0.086: // measure 1
0000
0000
0000
0000
,  // measure 2
0000
0000
0000
0000
,  // measure 3
0000
0000
0000
0000
,  // measure 4
0000
0000
0000
0000
,  // measure 5
0000
0000
0000
0000
,  // measure 6
1000
0000
1000
0010
0000
0010
1000
0001
,  // measure 7
2000
0000
0010
0000
0010
0000
3010
0100
,  // measure 8
0002
0000
0100
0000
0100
0000
0103
0010
,  // measure 9
1000
0001
2000
0000
0001
0000
3001
0010
,  // measure 10
0200
0000
1000
0000
1000
0000
1300
0001
,  // measure 11
0010
0000
0010
0001
0100
0010
0100
0010
,  // measure 12
2000
0000
0001
0000
3001
0100
0010
0100
,  // measure 13
0002
0000
1000
0000
1003
0100
1000
0100
,  // measure 14
0020
0000
0001
0000
0031
0010
0001
0010
,  // measure 15
0200
0000
1000
0000
1300
0100
0001
0000
,  // measure 16
0101
0000
0001
1000
0000
1000
0100
0010
,  // measure 17
2002
0000
0000
3003
,  // measure 18
1001
0000
0100
0001
0100
0000
0001
0000
0000
0000
0001
0000
1000
0000
0100
0000
,  // measure 19
1000
0000
0010
1000
0010
0000
1000
0000
0000
0000
1000
0000
0001
0000
0000
0000
,  // measure 20
1001
0000
0010
1000
0010
0000
1000
0000
0000
0000
1000
0000
0001
0000
0010
0000
,  // measure 21
0001
0000
0100
0001
0100
0000
0001
0000
0000
0000
0001
0000
1000
0000
0010
0000
,  // measure 22
1000
0100
0010
0001
0100
0010
0100
0001
,  // measure 23
1000
0100
0010
0001
0100
0010
1000
0010
,  // measure 24
0100
0000
0010
1000
0010
0000
1000
0000
0000
0000
1000
0000
0001
0000
0010
0000
,  // measure 25
0001
0000
0100
0001
0100
0000
0002
0000
0000
0000
1000
0000
1003
0000
0100
0000
,  // measure 26
1000
0000
0010
1000
0010
0000
1000
0000
0000
0000
1000
0000
0001
0000
0010
0000
,  // measure 27
0001
0000
0100
0001
0100
0000
0002
0000
0000
0000
1000
0000
1003
0000
0100
0000
,  // measure 28
1000
1000
0010
0010
1000
1000
0100
0010
,  // measure 29
0001
0001
0100
0100
0001
0001
0010
0100
,  // measure 30
1000
1000
0100
0100
1000
1000
0010
0100
,  // measure 31
0001
0001
0010
0010
0001
0001
0100
0010
,  // measure 32
2000
0000
0010
0000
3010
1000
0100
0010
,  // measure 33
0002
0000
0100
0000
0103
0001
0010
0100
,  // measure 34
1000
0000
0000
0010
0000
0000
1000
0000
0000
0000
1000
0000
0100
0000
0010
0000
,  // measure 35
0001
0000
0000
0100
0000
0000
0001
0000
0000
0000
0001
0000
0010
0000
0100
0000
,  // measure 36
1001
0000
0000
1100
0000
0000
0101
0000
0000
0000
0010
0100
0010
0100
0010
0000
,  // measure 37
1001
0000
0000
0011
0000
0000
1010
0000
0000
0000
0100
0010
0100
0010
0100
0000
,  // measure 38
0001
1000
0020
0000
0100
0000
0130
0001
,  // measure 39
2000
0000
0001
0000
3001
0100
0001
0100
,  // measure 40
0020
0000
1000
0000
1030
0001
1000
0010
,  // measure 41
0200
0000
0001
0000
0001
0000
0301
1000
,  // measure 42
0020
0000
0000
1000
0000
1030
0100
0010
,  // measure 43
0002
0000
1000
0000
1000
0000
1003
0100
,  // measure 44
0020
0000
0001
0000
0001
0000
0031
0100
,  // measure 45
0010
1000
0020
0000
0100
0000
0130
0000
,  // measure 46
1001
0000
0001
0100
0001
0100
0001
0010
,  // measure 47
0200
0000
1000
0000
1300
0010
1000
0100
,  // measure 48
0020
0000
0001
0000
0031
1000
0001
1000
,  // measure 49
0200
1000
1000
1300
,  // measure 50
1000
0010
1000
0001
0010
1000
0010
0000
,  // measure 51
0001
0100
0001
1000
0100
0001
0010
0100
,  // measure 52
1000
0100
1000
0001
0010
1000
0010
0000
,  // measure 53
0001
0010
0001
1000
0100
0001
0100
1000
,  // measure 54
0001
1000
1000
0100
0001
0010
0100
0000
,  // measure 55
1000
0001
0001
0010
1000
0100
0010
0001
,  // measure 56
1000
0001
0001
0010
1000
0100
0010
0000
,  // measure 57
0001
1000
1000
0100
0001
0010
0100
0000
,  // measure 58
1001
0001
0010
1000
0100
0010
0001
0000
,  // measure 59
1000
1000
0100
0001
0010
0100
1000
0000
,  // measure 60
0001
0000
0001
0000
0100
0000
0010
0000
1000
0000
0001
1000
0001
1000
0001
0000
,  // measure 61
0220
0000
0000
0330
;

//---------------dance-single - ----------------
#NOTES:
     dance-single:
     :
     Beginner:
     1:
     0.045,0.114,0.010,0.000,0.000:
0000
0000
0000
0000
,
0000
0000
0000
0000
,
0000
0000
0000
0000
,
0000
0000
0000
0000
,
0000
0000
0000
0000
,
0000
0000
0000
0000
,
0000
0000
0000
0000
,
0000
0000
0000
0000
,
0000
0000
0000
0000
,
1000
0000
0000
0000
,
0000
0000
0000
0000
,
0001
0000
0000
0000
,
0000
0000
0000
0000
,
1000
0000
0000
0000
,
0000
0000
0000
0000
,
0010
0000
0000
0000
,
0010
0000
0000
0000
,
1000
0000
0000
0000
,
0000
0000
0000
0000
,
0001
0000
0000
0000
,
0000
0000
0000
0000
,
1000
0000
0000
0000
,
0000
0000
0000
0000
,
0100
0000
0000
0000
,
0000
0000
0000
0000
,
0100
0000
0000
0000
,
0000
0000
0000
0000
,
1000
0000
0000
0000
,
0001
0000
0000
0000
,
1000
0000
0000
0000
,
0001
0000
0000
0000
,
0010
0000
0000
0000
,
0000
0000
0000
0000
,
0010
0000
0000
0000
,
0000
0000
0000
0000
,
0010
0000
0000
0000
,
0001
0000
0000
0000
,
1000
0000
0000
0000
,
0000
0000
0000
0000
,
0001
0000
0000
0000
,
0000
0000
0000
0000
,
1000
0000
0000
0000
,
0000
0000
0000
0000
,
0100
0000
0000
0000
,
0000
0000
0000
0000
,
1000
0000
0000
0000
,
0000
0000
0000
0000
,
0001
0000
0000
0000
,
0000
0000
0000
0000
,
1000
0000
0000
0000
,
0000
0000
0000
0000
,
0001
0000
0000
0000
,
0000
0000
0000
0000
,
0010
0000
0000
0000
,
0000
0000
0000
0000
,
0001
0000
0000
0000
,
0000
0000
0000
0000
,
1000
0000
0000
0000
,
0100
0000
0000
0000
,
1000
0000
0000
0000
,
1001
0000
0000
0000
;
