#TITLE:Chaos Age;
#SUBTITLE:;
#ARTIST:Waldeus vön Dovjak;
#TITLETRANSLIT:;
#SUBTITLETRANSLIT:;
#ARTISTTRANSLIT:Waldeus von Dovjak;
#CREDIT:DMAxel;
#BANNER:Chaos Age.png;
#BACKGROUND:Chaos Age-bg.png;
#LYRICSPATH:Chaos Age.lrc;
#CDTITLE:pop'n music.png;
#MUSIC:Chaos Age.mp3;
#OFFSET:-0.160;
#SAMPLESTART:49.481;
#SAMPLELENGTH:12.000;
#SELECTABLE:YES;
#BPMS:0.000=134.950,65.000=67.475,68.000=134.950,77.000=67.475,92.000=134.950,129.000=67.475,154.000=134.950;
#STOPS:91.250=0.880
,203.500=1.300
;
#BGCHANGES:;

//---------------dance-single - ----------------
#NOTES:
     dance-single:
     :
     Easy:
     2:
     0.214,0.264,0.154,0.086,0.000: // measure 1
0000
0000
0000
0000
,  // measure 2
0000
0000
0000
0000
,  // measure 3
0000
0000
1000
0000
,  // measure 4
1000
0000
1000
0000
,  // measure 5
1000
0000
0001
0000
,  // measure 6
0001
0000
0001
0000
,  // measure 7
0001
0000
0010
0000
,  // measure 8
0100
0000
1000
0000
,  // measure 9
0001
0000
1000
0000
,  // measure 10
0010
0000
0000
0000
,  // measure 11
0110
0000
0010
0000
,  // measure 12
1000
0000
0010
0000
,  // measure 13
1000
0001
0001
0001
,  // measure 14
0010
0100
1000
0001
,  // measure 15
1000
1000
1000
0100
,  // measure 16
0010
0001
1000
0001
,  // measure 17
1000
0000
0000
0000
,  // measure 18
0000
1001
0110
1001
,  // measure 19
0110
1100
1001
1100
,  // measure 20
1001
0011
0000
0000
,  // measure 21
0000
0000
0000
0000
,  // measure 22
0000
0000
0000
0100
0000
0000
0000
0100
,  // measure 23
0000
0000
0000
0100
0000
0000
0000
0000
,  // measure 24
0000
1001
1000
0100
,  // measure 25
1000
0010
0010
0010
,  // measure 26
0100
1001
0010
0001
,  // measure 27
0100
0010
0010
0010
,  // measure 28
0100
0001
0010
0100
,  // measure 29
1000
0010
1000
1000
,  // measure 30
1000
0100
0010
0001
,  // measure 31
0100
0001
0001
0001
,  // measure 32
1000
0110
0001
0110
,  // measure 33
1000
0000
0220
0000
0000
0000
0330
0001
,  // measure 34
0001
0001
2002
0000
0000
0000
0000
3003
,  // measure 35
0000
0010
1000
0020
,  // measure 36
0000
0230
0000
0302
,  // measure 37
0000
1003
0010
0200
,  // measure 38
0000
0320
0000
2030
,  // measure 39
0000
0000
3000
0000
,  // measure 40
1001
0010
0001
0010
,  // measure 41
0001
0010
0100
1000
,  // measure 42
0010
1000
0010
1000
,  // measure 43
0100
0010
0001
0100
,  // measure 44
0001
0010
0100
1000
,  // measure 45
0010
0010
0100
0100
,  // measure 46
0001
0001
1000
1000
,  // measure 47
0001
0001
1000
1000
,  // measure 48
0001
0010
0100
1000
,  // measure 49
0100
0010
0001
0010
,  // measure 50
0100
1000
0100
1000
,  // measure 51
0001
0100
0001
0100
,  // measure 52
0000
1001
0000
0000
;

//---------------dance-single - ----------------
#NOTES:
     dance-single:
     :
     Hard:
     7:
     0.435,0.462,0.317,0.172,0.163: // measure 1
0000
0000
0000
0000
,  // measure 2
0000
0000
0000
0000
,  // measure 3
0000
0001
1001
0100
,  // measure 4
1010
0000
0100
0001
0100
0001
0010
0100
,  // measure 5
0000
1000
0001
1000
0001
0000
0000
0000
1001
0000
0000
0000
0010
0000
0000
0000
,  // measure 6
0100
0000
0000
0001
0000
0000
0010
0000
0000
0000
0000
0000
1001
0000
0000
0000
0100
0000
1000
0000
0000
0000
0000
0000
,  // measure 7
0010
0000
0101
0000
0010
1000
0100
0000
,  // measure 8
0110
0000
0100
0001
0010
0001
0010
0000
,  // measure 9
0001
1000
0100
0000
1000
0100
0010
0000
,  // measure 10
0110
0000
0000
0000
,  // measure 11
0110
0000
0100
0001
0100
0010
0100
1000
,  // measure 12
0100
0000
0010
0001
0010
0100
0010
1000
,  // measure 13
0010
0000
1001
0000
0100
0100
0001
0010
,  // measure 14
0100
1000
0010
0001
0010
0100
1000
0000
,  // measure 15
1001
0000
0010
0010
1000
0100
0010
0001
,  // measure 16
0010
1000
0100
0010
0001
0100
1000
0000
,  // measure 17
1001
0200
2300
3200
,  // measure 18
0310
0000
0000
0001
0100
0000
0000
0100
0001
0000
0000
0001
1000
0000
0000
1000
,  // measure 19
0100
0000
0000
1000
0010
0000
0000
0010
0100
0000
0000
0100
0001
0000
0000
0001
,  // measure 20
0100
0000
0010
0100
0020
0000
0000
0000
0000
0000
0000
0000
0000
0000
2030
0000
,  // measure 21
0000
0000
0000
3002
0000
0000
0000
0203
,  // measure 22
0000
0000
0000
0320
0000
0000
0000
0230
,  // measure 23
0000
0000
0000
0000
0000
0000
0302
0000
0000
0000
0000
0000
0000
0003
0000
0000
,  // measure 24
0000
0001
1000
0001
1000
0000
0000
0000
1100
0000
0000
0000
0001
0000
0000
0000
,  // measure 25
0011
0000
0100
1000
0100
0010
0001
0100
,  // measure 26
0000
0010
1000
0010
1000
0000
0000
0000
1010
0000
0000
0000
0001
0000
0000
0000
,  // measure 27
0100
0001
0010
0001
0010
0100
1000
0010
,  // measure 28
0000
0100
0001
0100
0001
0000
0000
0001
0100
0000
0000
0100
0010
0000
0000
0010
,  // measure 29
1000
0000
0110
0000
0100
0001
0010
0000
,  // measure 30
0001
0000
0100
0000
0010
0000
0000
0100
0001
0000
0000
0001
1000
0000
0100
0000
,  // measure 31
1000
0001
0010
0000
0001
0010
1000
0000
,  // measure 32
0010
1000
0110
0000
0100
0001
0110
0000
,  // measure 33
0010
1000
0220
0000
0000
0000
0330
0101
,  // measure 34
0101
1010
2002
0000
0000
0000
0000
3003
,  // measure 35
0000
0000
0010
0000
1000
0000
0100
0000
1000
0000
0010
1000
0020
0000
0000
0100
,  // measure 36
0130
0000
0100
0001
0200
0000
0000
0010
0310
0000
1000
0001
1000
0000
0000
0001
,  // measure 37
1000
0000
0100
0000
0010
0000
0001
0000
0100
0000
0001
0100
0002
0000
0000
0100
,  // measure 38
0103
0000
1000
0010
2000
0000
0000
0010
3010
0000
0010
0100
0020
0000
0000
0000
,  // measure 39
0000
0000
0000
0000
2030
0000
0000
0000
0000
3000
0000
0000
0000
0001
1000
0001
,  // measure 40
1000
0000
0100
1000
0100
0000
1000
0001
,  // measure 41
1000
0000
0001
0100
0010
0000
0100
0001
,  // measure 42
0010
0010
0001
0010
0100
1000
0010
0100
,  // measure 43
0010
1000
0100
0010
0001
1000
0001
1000
,  // measure 44
0001
0010
0100
1000
0010
0100
0010
1000
,  // measure 45
0001
0010
0001
1000
0010
1000
0001
0100
,  // measure 46
0001
0011
1001
1100
,  // measure 47
1001
0101
1001
1010
,  // measure 48
0100
0001
0100
0001
0010
0001
0010
1000
,  // measure 49
0100
0001
0100
1000
0100
0010
0001
0000
,  // measure 50
0101
1001
1010
1001
,  // measure 51
0101
1001
1010
1001
,  // measure 52
0000
0100
0010
0100
0010
0000
0000
0000
0000
0000
0000
0000
0000
0000
0000
0000
;

//---------------dance-single - ----------------
#NOTES:
     dance-single:
     :
     Challenge:
     8:
     0.514,0.506,0.172,0.137,0.425: // measure 1
0000
0000
0000
0000
,  // measure 2
0000
0000
0000
0000
,  // measure 3
0000
0000
1001
0000
0100
0001
0010
0000
,  // measure 4
0100
0000
0000
1000
0100
0000
0000
0100
0010
0000
0000
0010
0001
0000
0010
0000
,  // measure 5
0000
0001
1000
0001
1000
0000
0000
0000
1001
0000
0000
0000
0100
0000
1000
0000
,  // measure 6
0010
0000
0000
0100
0000
0000
0100
0000
0000
0000
0000
0000
0010
0000
0100
0000
0001
0000
0100
0000
0000
0000
0000
0000
,  // measure 7
1001
0000
0000
0000
1010
0000
0000
0000
0100
0000
0001
0000
0010
0000
0000
0001
,  // measure 8
0100
0000
0000
0000
0010
0000
0000
0010
1000
0000
0000
1000
0100
0000
0000
0000
,  // measure 9
1000
0000
0001
0000
0010
0000
0000
0000
0001
0000
0010
0000
0100
0000
0000
1000
,  // measure 10
0001
0200
0000
0000
,  // measure 11
0300
0001
1000
0001
1000
0000
0010
0000
1000
0000
0100
0000
0010
0000
0001
0000
,  // measure 12
1000
0001
1000
0001
1000
0000
0001
0000
0010
0000
0100
0000
1000
0000
0010
0000
,  // measure 13
1000
0001
1000
0001
2000
0000
0000
0000
0010
0000
3010
0000
1000
0000
0100
0000
,  // measure 14
0010
0000
0001
0000
0100
0000
1000
0000
0100
0000
0010
0000
0001
0000
0000
1000
,  // measure 15
0001
0000
0100
0100
0001
0010
0100
1000
,  // measure 16
0100
0000
0001
0000
0010
0000
0100
0000
1000
0000
0010
0000
0001
0000
0000
0001
,  // measure 17
1000
0000
0010
0000
0200
0000
0000
0310
2000
0000
0000
3100
0020
0000
0000
0031
,  // measure 18
0100
0010
0100
0010
0100
0000
0010
1000
0010
0000
0000
1000
0001
0000
0000
0001
,  // measure 19
1000
0000
0001
0100
0001
0000
0000
0001
1000
0000
0000
1000
0001
0000
0000
1000
,  // measure 20
0010
0000
0100
0010
0100
0001
0010
0000
0000
1000
0100
0010
0001
0100
0001
0000
,  // measure 21
0000
0010
0100
0000
0000
1000
0001
0000
0000
0001
0010
0100
1000
0010
1000
0000
,  // measure 22
0000
0000
0000
1000
0100
0010
0001
0000
0000
0000
0010
0001
0010
0100
1000
0000
,  // measure 23
0000
0010
0100
0000
0000
0001
1000
0000
0000
1000
0100
0010
0001
0100
0000
0000
,  // measure 24
0000
1000
0001
1000
0001
0000
0000
0000
0011
0000
0000
0000
0100
0000
1000
0000
,  // measure 25
0010
0000
0000
0100
0001
0000
0000
0001
0010
0000
0000
0010
0100
0000
1000
0000
,  // measure 26
0000
0001
1000
0001
1000
0000
0000
0000
1100
0000
0000
0000
0010
0000
0001
0000
,  // measure 27
0100
0000
0000
0010
1000
0000
0000
1000
0100
0000
0000
0100
0010
0000
0001
0000
,  // measure 28
0000
1000
0001
1000
0001
0000
0100
0010
0100
0000
0000
0001
1000
0000
0000
1000
,  // measure 29
0010
0000
0000
0000
0110
0000
0000
0000
0010
0000
1000
0000
0100
0000
0000
1000
,  // measure 30
0001
0100
0010
0100
0010
0000
0000
1000
0001
0000
0000
0001
1000
0000
0010
0000
,  // measure 31
1000
0000
0100
0000
0010
0000
0000
0000
0001
0000
0100
0000
0010
0000
0000
1000
,  // measure 32
0001
0100
0010
0100
0010
0000
0000
0000
1001
0000
0100
0010
0100
0000
0000
0000
,  // measure 33
1001
0000
0010
0200
0020
0000
0000
0000
0000
0000
0000
0000
0330
0000
1010
0000
,  // measure 34
1010
0101
2002
0000
0000
0000
0000
3003
,  // measure 35
0000
0000
0010
0000
0001
0000
0010
0000
1000
0000
0010
0100
0020
0000
0000
1000
,  // measure 36
1030
0000
0100
0010
0200
0000
0000
0001
0301
0000
0010
0100
0020
0000
0000
1030
,  // measure 37
0100
0010
0001
0010
1000
0000
0100
0000
0001
0000
0100
0010
0200
0000
0000
0001
,  // measure 38
0301
0000
0010
0100
0020
0000
0000
1000
1030
0000
0100
0010
0200
0000
0000
0000
,  // measure 39
0000
0000
0000
0000
0302
0000
0000
0000
0000
0003
0000
0000
0000
1000
0001
1000
,  // measure 40
0001
0000
0010
0001
0100
0000
0001
0100
,  // measure 41
0001
0000
1000
0010
0100
0000
0010
1000
,  // measure 42
0100
0000
0100
0000
1000
0000
0100
0000
0010
0000
0001
0000
0010
0000
1000
0001
,  // measure 43
1000
0000
0001
0000
0010
0000
0100
0000
1000
0000
0010
0000
0001
0000
1000
0001
,  // measure 44
1000
0000
0100
0000
0010
0000
0001
0000
0100
0000
0001
0000
0010
0000
0001
1000
,  // measure 45
0001
0000
0100
0000
1000
0000
0001
0000
0100
0000
0001
0000
1000
0000
0010
0100
,  // measure 46
0010
1100
1001
0011
,  // measure 47
1001
1010
1001
0101
,  // measure 48
0010
1000
0010
1000
0100
1000
0100
0001
,  // measure 49
0010
1000
0100
0001
0010
0100
1000
0010
,  // measure 50
1000
0100
1000
0000
0100
0000
0010
0000
0001
0000
1000
0000
0010
0000
1000
0000
,  // measure 51
0001
0100
0001
0000
0010
0000
0100
0000
1000
0001
1000
0000
0100
0000
0010
0000
,  // measure 52
0000
0001
1000
0001
1000
0000
0000
0000
0000
0000
0000
0000
0000
0000
0000
0000
;

//---------------dance-single - ----------------
#NOTES:
     dance-single:
     :
     Beginner:
     1:
     0.055,0.087,0.034,0.000,0.000: // measure 1
0000
0000
0000
0000
,  // measure 2
0000
0000
0000
0000
,  // measure 3
0000
1000
0000
0000
,  // measure 4
0000
0000
0000
0000
,  // measure 5
0000
0001
0000
0000
,  // measure 6
0000
0000
0000
0000
,  // measure 7
0000
0100
0000
0000
,  // measure 8
0000
0000
0000
0000
,  // measure 9
0000
0100
0000
0000
,  // measure 10
0000
0000
0000
0000
,  // measure 11
0000
0001
0000
0000
,  // measure 12
0000
1000
0000
0000
,  // measure 13
0000
0001
0000
0000
,  // measure 14
0000
0000
0000
0000
,  // measure 15
0000
0001
0000
0000
,  // measure 16
0000
0000
0000
0000
,  // measure 17
0000
1000
0000
0000
,  // measure 18
0000
1001
0000
0000
,  // measure 19
0000
1001
0000
0000
,  // measure 20
0000
0001
0000
0000
,  // measure 21
0000
0000
0000
0000
,  // measure 22
0000
0000
0000
0000
,  // measure 23
0000
0000
0000
0000
,  // measure 24
0000
0001
0000
0000
,  // measure 25
0000
0000
0000
0000
,  // measure 26
0000
1000
0000
0000
,  // measure 27
0000
0000
0000
0000
,  // measure 28
0000
0010
0000
0000
,  // measure 29
0000
0010
0000
0000
,  // measure 30
0000
0100
0000
0000
,  // measure 31
0000
0100
0000
0000
,  // measure 32
0000
0001
0000
0000
,  // measure 33
0000
1000
0000
0000
,  // measure 34
0000
1001
0000
0000
,  // measure 35
0000
0001
0000
0010
,  // measure 36
0000
0100
0000
1000
,  // measure 37
0000
1000
0000
0100
,  // measure 38
0000
0010
0000
0001
,  // measure 39
0000
0000
0000
0000
,  // measure 40
1001
0000
0000
0000
,  // measure 41
0000
0000
0000
0000
,  // measure 42
1000
0000
0000
0000
,  // measure 43
0010
0000
0000
0000
,  // measure 44
0100
0000
0000
0000
,  // measure 45
0001
0000
0000
0000
,  // measure 46
0010
0000
0000
0000
,  // measure 47
0100
0000
0000
0000
,  // measure 48
1000
0000
0000
0000
,  // measure 49
0001
0000
0000
0000
,  // measure 50
1000
0000
0000
0000
,  // measure 51
0001
0000
0001
0000
;

//---------------dance-single - ----------------
#NOTES:
     dance-single:
     :
     Medium:
     4:
     0.343,0.352,0.326,0.223,0.000: // measure 1
0000
0000
0000
0000
,  // measure 2
0000
0000
0000
0000
,  // measure 3
0000
1001
0010
0100
,  // measure 4
1000
0000
0110
0000
0110
0000
0100
0001
,  // measure 5
0000
0110
0001
0010
,  // measure 6
0100
2000
0001
3001
,  // measure 7
0100
0002
0010
0010
,  // measure 8
0013
0100
1000
0001
,  // measure 9
1000
0200
1000
1000
,  // measure 10
1300
0000
0000
0000
,  // measure 11
1001
0000
0101
0000
0100
0010
0100
0000
,  // measure 12
1001
0000
1010
0000
0010
0100
0010
0000
,  // measure 13
1001
0000
0200
0000
0001
0000
0301
0010
,  // measure 14
0100
0000
1000
0100
0010
0000
0001
0000
,  // measure 15
1001
0000
0010
0000
1000
0100
0010
0000
,  // measure 16
0001
0010
0100
0000
1000
0000
0001
0000
,  // measure 17
1001
0020
0032
0023
,  // measure 18
0130
1001
0100
0010
,  // measure 19
0001
1001
0010
0100
,  // measure 20
1000
0000
0020
0000
0000
0000
0000
2030
,  // measure 21
0000
0000
0000
3002
0000
0000
0000
0203
,  // measure 22
0000
0000
0000
0320
0000
0000
0000
0230
,  // measure 23
0000
0000
0000
0000
0000
0000
0302
0000
0000
0000
0000
0000
0000
0003
0000
0000
,  // measure 24
0000
1000
1100
0001
,  // measure 25
0011
0000
0110
0000
0110
0000
0100
1000
,  // measure 26
0000
0110
1000
0100
,  // measure 27
0010
0000
0110
0000
0110
0000
0010
0001
,  // measure 28
1000
1001
0110
1010
,  // measure 29
0100
0001
0010
0000
0001
0010
1000
0000
,  // measure 30
1001
0000
0110
0000
0101
0000
0010
1000
,  // measure 31
0100
0000
1001
0000
1000
0010
0001
0000
,  // measure 32
0010
0001
0100
0000
0010
1000
0100
0000
,  // measure 33
0010
0001
0220
0000
0000
0000
0330
0001
,  // measure 34
0001
1000
2002
0000
0000
0000
0000
3003
,  // measure 35
0000
0100
1000
0100
0010
0001
0200
0000
,  // measure 36
0000
0301
2000
0000
0000
3010
0200
0000
,  // measure 37
0000
0000
0301
0010
0100
1000
0002
0000
,  // measure 38
0000
0103
0020
0000
0000
0130
2002
0000
,  // measure 39
0000
3000
2000
0000
3003
0000
0000
0000
,  // measure 40
1001
0000
0100
0000
0100
1000
0100
0000
,  // measure 41
0010
0000
0001
0000
0010
0001
0010
0000
,  // measure 42
1001
0000
0001
0010
0100
0000
1000
0001
,  // measure 43
1000
0000
0100
0010
0001
0000
0010
0001
,  // measure 44
0010
0000
0001
0010
0100
0000
1000
0100
,  // measure 45
1000
0000
0100
0010
0001
1000
0001
0000
,  // measure 46
1000
1001
1000
1001
,  // measure 47
0001
1001
0001
1001
,  // measure 48
0010
0001
0010
0001
0010
0001
0010
0000
,  // measure 49
0100
1000
0100
1000
0100
1000
0010
0000
,  // measure 50
1001
0000
0010
0100
0010
0000
1000
0001
,  // measure 51
1000
0000
0010
0100
0010
1000
0001
0000
,  // measure 52
0000
0110
0000
0000
;
