#TITLE:Chain of pain;
#SUBTITLE:;
#ARTIST:kors k VS 猫叉Master+;
#TITLETRANSLIT:;
#SUBTITLETRANSLIT:;
#ARTISTTRANSLIT:kors k VS Nekomata Master+;
#CREDIT:DMAxel;
#BANNER:Chain of pain.png;
#BACKGROUND:Chain of pain-bg.png;
#LYRICSPATH:;
#CDTITLE:beatmaniaIIDX.png;
#MUSIC:Chain of pain.mp3;
#OFFSET:1.380;
#SAMPLESTART:89.536;
#SAMPLELENGTH:12.000;
#SELECTABLE:YES;
#BPMS:0.000=153.000;
#STOPS:160.000=1.180
;
#BGCHANGES:0.000=Chain of pain.AVI=1.000=1=1=0,
99999=-nosongbg-=1.000=0=0=0 // don't automatically add -songbackground-
;

//---------------dance-single - ----------------
#NOTES:
     dance-single:
     :
     Easy:
     2:
     0.150,0.241,0.115,0.123,0.000:
0000
0000
0000
0000
,
0000
0000
0000
0000
,
0000
0000
0000
0000
,
0000
0000
0000
0000
,
0000
0000
0000
0000
,
0000
0000
0000
0000
,
0000
0000
0000
0000
,
0000
0000
0000
0000
,
0000
0000
0000
0000
,
0002
0000
0000
0000
,
2003
0000
0000
0000
,
3002
0000
0000
0000
,
0203
0000
0000
0000
,
0320
0000
0000
0000
,
0230
0000
0000
0000
,
0320
0000
0000
0030
,
2002
0000
0000
3003
,
0010
0000
0001
0000
,
0010
0000
0001
0000
,
1000
0000
0001
0000
,
1000
0000
0001
0000
,
1000
0000
0100
0000
,
1000
0000
0100
0000
,
1000
0000
0001
0000
,
1001
0000
0000
0000
,
0010
0000
1000
0000
,
0010
0000
1000
0000
,
0001
0000
1000
0000
,
0001
0000
1000
0000
,
0001
0000
0100
0000
,
0001
0000
0100
0000
,
0010
0000
0100
0000
,
0010
0000
0100
0000
,
0001
0000
0010
0000
,
0100
0000
1000
0000
,
0100
0000
0010
0000
,
0001
0000
1000
0000
,
0100
0000
0010
0000
,
0001
0000
1000
0000
,
0001
1000
0001
1000
,
0000
2002
0000
0000
,
0000
0000
0000
0000
,
0000
0000
0000
3003
,
0000
0000
0000
0000
,
0000
0022
0000
0000
,
0000
0000
0000
0000
,
0000
0000
0000
0033
,
0000
0000
0000
0000
,
0000
2200
0000
0000
,
0000
0000
0000
0000
,
0000
0000
0000
3300
,
0000
0000
0000
0000
,
0000
1000
0000
0100
,
0000
0010
0000
0001
,
0000
0001
0000
0010
,
0000
0100
0000
1000
,
0000
1001
0000
0000
,
0000
0010
0000
0010
,
0000
0001
0000
0001
,
0000
1000
0000
1000
,
0000
0100
0000
0100
,
0000
1000
0000
0001
,
0000
1000
0000
0010
,
0000
0100
0000
0010
,
0000
1000
0000
0000
,
0000
0000
1001
0000
,
0001
0000
0011
0000
,
1001
0000
1001
0000
,
1000
0000
1100
0000
,
0000
1001
0000
0001
,
0000
1001
0000
1000
,
0000
0010
0100
0010
,
0100
0010
0000
0000
,
0000
1001
0000
0000
;

//---------------dance-single - ----------------
#NOTES:
     dance-single:
     :
     Medium:
     5:
     0.313,0.452,0.214,0.099,0.000:
0000
0000
0000
0000
,
0000
0000
0000
0000
,
0000
0000
0000
0000
,
0000
0000
0000
0000
,
0000
0000
0000
0000
,
0000
0000
0000
0000
,
0000
0000
0000
0000
,
0000
0000
0000
0000
,
0000
0000
0000
0000
,
0001
0000
0000
0000
,
1000
0000
0000
0000
,
0001
0000
0000
0000
,
1000
0000
1000
0000
,
0001
0000
0001
0000
,
0100
0000
0100
0000
,
0010
0000
0010
0000
,
1001
0000
0000
0000
,
0011
0000
0100
0000
,
1100
0000
1000
0000
0010
0000
0100
0001
,
0010
0000
0010
0000
,
0011
0000
0001
0000
0100
0000
0010
1000
,
0100
0000
1000
0000
,
1010
0000
1000
0000
0100
0000
0010
0001
,
0100
0000
0001
0000
,
2002
0000
3003
0000
,
1100
0010
0001
1000
,
0001
1000
0011
0100
,
1000
0001
1000
0100
,
1000
0100
0010
0001
,
1001
0010
0001
0100
,
0010
0100
0001
1000
,
0100
1000
0010
1000
,
0100
0000
1000
0000
0001
1000
0001
0000
,
1001
0010
0100
1000
,
0100
0010
0001
0010
,
0100
1000
0100
0010
,
0001
0000
1000
0000
0001
1000
0001
0000
,
0010
0001
0010
0000
0100
1000
0100
0000
,
0010
0001
0010
0000
0001
1000
0001
0000
,
0100
0010
0100
0010
0100
0010
0100
0010
,
0100
0002
0000
0000
,
0000
0020
0000
0000
0000
0033
0000
0000
,
0001
2000
0000
0000
0000
0000
3000
0000
,
0100
1000
0000
0000
1000
0001
0000
0001
,
0000
2000
0000
0000
,
0000
0200
0000
0000
0000
3300
0000
0000
,
1000
0002
0000
0000
0000
0000
0000
0003
,
0010
0001
0000
0000
0001
1000
0000
1000
,
0000
1001
0000
0200
,
0000
0010
0300
0000
0000
0000
0020
0000
,
0000
0100
0030
0000
0000
0000
0000
0000
,
1000
0001
0000
0000
0100
0001
0000
1000
,
0010
1001
0010
0001
,
0010
0100
1000
0100
,
1000
0100
0010
0001
,
0010
0100
1000
0001
,
1000
2002
0000
0000
,
3003
1001
1100
1000
,
0100
0010
0001
1000
,
0001
1000
0001
0000
0011
0000
0001
0000
,
0010
0000
0100
0000
1000
0000
0001
1000
,
0001
1100
1000
0100
,
0010
0000
0001
0000
0100
0001
0100
0000
,
0010
1000
0010
0000
1000
0000
0001
0000
,
1000
0000
0010
0100
0010
0000
1000
0001
,
1000
0010
0000
0000
1001
0000
0010
0000
,
1001
0010
1001
0010
,
1001
0000
1001
0100
,
1001
0100
1001
0100
,
1001
0000
0010
0001
0010
0000
0001
0010
,
0001
0000
1000
0010
1000
0000
0010
1000
,
0010
0000
1000
0001
1000
0001
0100
0010
,
0100
0010
0100
0000
0000
0000
0000
0000
,
0000
1001
0000
0000
;

//---------------dance-single - ----------------
#NOTES:
     dance-single:
     :
     Challenge:
     8:
     0.491,0.572,0.148,0.140,0.197:
0000
0000
0000
0000
,
0000
0000
0000
0000
,
0000
0000
0000
0000
,
0000
0000
0000
0000
,
0000
0000
0000
0000
,
0000
0000
0000
0000
,
0000
0000
0000
0000
,
0000
0000
0000
0000
,
0000
0000
0000
0000
,
1000
0010
1000
0010
1000
0010
0100
0001
,
0100
0000
0001
0100
0001
0100
0001
1000
,
0001
1000
0010
1000
0010
0000
1000
0100
,
1000
0100
1000
0001
0010
0001
0010
0001
,
0010
0000
0001
0010
0001
0010
0001
1000
,
0100
1000
0100
0000
1000
0001
1000
0100
,
1000
0100
0010
0001
1000
0010
0100
0010
,
2002
0000
0000
3003
,
0010
0000
1000
0000
0000
1000
0000
0000
1000
0000
0001
0000
0000
0001
0000
0000
,
0001
0000
0100
0000
0000
0100
0000
0000
0100
0000
0010
0000
0100
0000
0010
0000
,
1000
0000
0001
0000
0000
0001
0000
0000
0001
0000
1000
0000
0000
1000
0000
0000
,
1000
0000
0010
0000
0000
0010
0000
0000
0010
0000
0100
0000
0010
0000
0100
0000
,
0001
0000
1000
0000
0000
0100
0000
0000
1000
0000
0001
0000
0000
0010
0000
0000
,
0001
0000
1000
0000
0000
0100
0000
0000
1000
0000
0001
0000
0010
0000
0001
0000
,
0010
0000
0001
0000
0000
1000
0000
0000
0010
0000
0100
0000
0010
0000
0000
0000
,
1001
0000
1000
0100
0001
0000
0000
0100
,
1000
0000
0010
0100
0001
0000
0010
0001
,
0010
0000
0001
0010
1000
0000
0010
0100
,
0001
0000
0100
0010
0100
0000
0001
0010
,
0001
0100
1000
0010
0100
0010
0100
0100
,
1001
0000
1000
0010
0001
0000
0100
0001
,
0010
0000
0001
0010
1000
0000
0010
1000
,
0100
0000
1000
0001
1000
0000
0010
1000
,
0100
1000
0100
0001
0010
0100
1000
0000
,
0010
1000
0100
1000
0100
0001
0010
0001
,
0010
1000
0100
1000
0100
0010
0001
0000
,
0100
0001
0010
0001
0010
1000
0100
1000
,
0100
0001
0010
0001
0010
0100
1000
0000
,
1001
0100
0010
0001
0010
0100
1000
0000
,
1001
0010
0100
1000
0100
0010
0001
0000
,
1001
0010
0001
0010
0001
0100
1000
0100
,
0010
0000
0022
0000
0000
0000
0000
0033
,
0000
0202
0000
0000
0000
0000
0303
0000
,
0020
2000
0000
0000
0000
0000
3030
0000
,
0100
0001
0000
0100
0001
0010
0000
0001
,
0010
0000
2200
0000
0000
0000
0000
3300
,
0000
2020
0000
0000
0000
0000
3030
0000
,
0200
0002
0000
0000
0000
0000
0303
0000
,
0010
1000
0000
0010
1000
0100
0000
1000
,
0100
1001
0000
1100
,
0000
1010
0000
0000
0000
0000
0101
0000
,
0000
0011
0000
0000
0100
0000
1000
0000
,
0010
0100
0010
0000
0100
0001
0100
0010
,
1000
0000
0000
0000
1001
0000
0000
0000
1000
0000
0000
1000
0000
0000
1000
0000
,
0001
0000
0000
0001
0000
0000
0001
0000
1000
0000
0000
1000
0000
0000
1000
0000
,
0010
0000
0000
0010
0000
0000
0010
0000
0100
0000
0000
0010
0000
0000
0100
0000
,
0001
0000
0000
1000
0000
0000
0001
0000
0100
0000
0000
0010
0000
0000
0100
0000
,
0001
0000
0000
2000
0002
0000
0000
0000
0000
0000
0000
0000
0000
0000
0000
0000
,
3003
0000
0000
0000
0100
0000
0001
0000
0010
0000
0000
0010
0000
0000
0001
0000
,
1000
0000
0000
0100
0000
0000
1000
0000
0010
0000
1000
0000
0010
0000
0001
0000
,
0100
0000
0001
0000
0100
0000
0001
0000
0010
0000
0000
0010
0000
0000
0001
0000
,
1000
0000
0000
0100
0000
1000
0000
0000
0010
0000
0000
0100
0000
0001
0000
0010
,
0001
0000
0000
0000
1000
0000
0010
0000
0100
0000
0000
0100
0000
0000
0001
0000
,
0100
0001
0100
1000
0010
1000
0000
0100
,
0010
0000
0001
0000
0100
0000
0001
0000
0010
0000
0000
0010
0000
0000
0001
0000
,
1000
0000
0000
0100
0000
1000
0000
0000
0010
0000
0000
0100
0000
0000
0010
0000
,
0100
0010
0100
0000
0000
0000
0000
0001
1000
0000
0000
1000
0001
0000
0000
0001
,
0100
0000
0000
0100
0001
0000
0000
1000
0010
0000
0000
0010
1000
0000
0000
1000
,
0001
0000
0010
0000
0001
0000
0000
1000
0001
0000
0000
0001
1000
0000
0000
1000
,
0100
0000
0000
0100
1000
0000
0000
0001
0010
0000
0000
0010
0001
0000
0000
0001
,
1000
1000
1001
0100
0010
0001
0010
1000
,
0010
0001
0010
1000
0100
0001
0100
1000
,
0100
0000
0010
0000
0001
0000
0100
0001
0100
0000
0010
0000
0100
0000
0010
1000
,
0010
0100
0002
0000
0000
0000
0000
0000
,
0003
1001
0000
0000
;

//---------------dance-single - ----------------
#NOTES:
     dance-single:
     :
     Hard:
     7:
     0.429,0.512,0.132,0.140,0.070:
0000
0000
0000
0000
,
0000
0000
0000
0000
,
0000
0000
0000
0000
,
0000
0000
0000
0000
,
0000
0000
0000
0000
,
0000
0000
0000
0000
,
0000
0000
0000
0000
,
0000
0000
0000
0000
,
0000
0000
0000
0000
,
0000
0001
0000
0001
0000
0001
0000
0100
,
0000
0100
0000
0100
0000
0010
0000
0010
,
0000
0010
0000
1000
0000
1000
0000
1000
,
0000
0100
0000
0100
0000
0100
0000
0010
,
0000
0010
0000
0010
0000
0001
0000
0010
,
0000
0001
0000
1000
0000
0010
0000
1000
,
0000
0010
0000
0100
0000
0001
0000
2000
,
0002
0000
0000
3003
,
0100
0001
0000
0100
0001
0010
0000
0001
,
1000
0000
0000
0010
1000
0100
1000
0100
,
1000
0001
0000
0100
0001
0000
0000
0100
,
0001
0010
0000
0001
1000
0100
1000
0100
,
1000
0000
0000
0100
1000
0000
0000
0010
,
1000
0100
0000
1000
0001
0010
0001
0010
,
0001
1000
0000
0010
1000
0100
0000
1000
,
0001
0000
0001
0000
0001
0000
0100
0001
,
0100
0000
0100
0001
0100
0000
0001
0000
,
1000
0000
0001
1000
0010
0000
0010
1000
,
0010
0000
0010
1000
0010
0000
1000
0000
,
0001
0000
1000
0000
0010
0100
0010
0100
,
0010
0000
0010
1000
0010
0000
1000
0000
,
0001
0000
1000
0001
0100
0000
0100
0001
,
0100
0000
0100
0001
0100
0000
0001
0000
,
1000
0000
0010
0100
0010
0100
0010
0000
,
1000
0010
0100
0000
0001
0010
0100
0000
,
1000
0100
0010
0000
0001
0100
0010
0000
,
1000
0100
0010
0000
0001
0010
0100
0000
,
1000
0010
0100
0000
0001
0100
0010
0000
,
1000
0010
0100
0010
0100
0010
0100
0001
,
1000
0001
1000
0001
1000
0001
1000
0001
,
0010
0001
0010
0001
1000
0100
1000
0100
,
0010
0000
0022
0000
0000
0000
0000
0033
,
0000
2002
0000
0000
0000
3003
0000
0000
,
0200
2000
0000
0000
0000
3300
0000
0000
,
1000
0001
0000
1000
0001
0010
0000
0001
,
0010
0000
2002
0000
0000
0000
0000
3003
,
0000
2020
0000
0000
0000
3030
0000
0000
,
0200
0002
0000
0000
0000
0000
0303
0000
,
0001
1000
0000
0001
1000
0100
0000
1000
,
0100
1001
0000
0101
,
0000
0101
0000
0000
0000
0000
1010
0000
,
0000
1010
0000
0000
0000
0000
0000
0000
,
1000
0010
0000
0000
1000
0010
0000
1000
,
0001
1001
0010
0100
,
1000
0010
1000
0000
0100
0000
0010
0000
,
0001
0000
0100
0000
0001
0000
1000
0000
0001
0000
0000
0100
0000
0000
0001
0000
,
1000
0000
0000
0010
0000
0000
1000
0000
0001
0000
0000
0100
0000
0000
0001
0000
,
1000
2002
0000
0000
,
3003
0000
1100
0000
1001
0000
0100
0001
,
0010
0000
0001
1000
0100
1000
0100
1000
,
0010
0100
0001
0000
1000
0001
1000
0100
,
1000
0100
0100
1000
0001
0010
0010
0001
,
1000
0000
0011
0000
1001
0000
0010
1000
,
0100
1000
0100
0000
1000
0001
0010
0001
,
0010
0001
0100
0000
0001
1000
0001
0010
,
0001
0010
0010
0001
1000
0100
0100
1000
,
0001
0000
0000
0000
0000
0000
0000
1000
0010
0000
0000
0010
1000
0000
0000
1000
,
0001
0000
0000
0001
0100
0000
0000
0100
0001
0000
0000
0001
1000
0000
0000
1000
,
0001
0000
0000
0000
0000
0000
0000
0001
0010
0000
0000
0010
0001
0000
0000
0001
,
1000
0000
0000
1000
0100
0000
0000
0100
1000
0000
0000
1000
0001
0000
0000
0001
,
1000
0000
0100
1000
0100
1000
0100
1000
,
0100
1000
0100
0001
0100
0001
0100
0001
,
0100
0001
0010
1000
0010
1000
0010
0001
,
0010
0001
2000
0000
0000
0000
0000
0000
,
3000
1001
0000
0000
;

//---------------dance-single - ----------------
#NOTES:
     dance-single:
     :
     Beginner:
     1:
     0.089,0.151,0.058,0.000,0.000:
0000
0000
0000
0000
,
0000
0000
0000
0000
,
0000
0000
0000
0000
,
0000
0000
0000
0000
,
0000
0000
0000
0000
,
0000
0000
0000
0000
,
0000
0000
0000
0000
,
0000
0000
0000
0000
,
0000
0000
0000
0000
,
0000
0000
0000
0000
,
0000
0000
0000
0000
,
0000
0000
0000
0000
,
0000
0000
0000
0000
,
0000
0000
0000
0000
,
0000
0000
0000
0000
,
0000
0000
0000
0000
,
0001
0000
0000
0000
,
1001
0000
0000
0000
,
0001
0000
0000
0000
,
1000
0000
0000
0000
,
0001
0000
0000
0000
,
0100
0000
0000
0000
,
0010
0000
0000
0000
,
0100
0000
0000
0000
,
1001
0000
0000
0000
,
1000
0000
1000
0000
,
0000
0000
0001
0000
,
0001
0000
0001
0000
,
0000
0000
0000
0000
,
0100
0000
0100
0000
,
0000
0000
0010
0000
,
0010
0000
0010
0000
,
1000
0000
0000
0000
,
0001
0000
1000
0000
,
0001
0000
1000
0000
,
0010
0000
0100
0000
,
0010
0000
0100
0000
,
0001
0000
0000
0000
,
0001
0000
0000
0000
,
1001
0000
1000
0000
,
1000
0000
0000
0000
,
0000
0000
0000
0000
,
0000
0000
0000
0000
,
0000
0000
0000
0000
,
0000
0001
0000
0000
,
0000
0000
0000
0000
,
0000
0000
0000
0000
,
0000
0000
0000
0000
,
0000
1001
0000
0000
,
0000
0000
0000
0000
,
0000
0000
0000
0000
,
0000
1000
0000
0000
,
0000
0001
0000
0000
,
0000
1000
0000
0000
,
0000
0001
0000
0000
,
0000
1000
0000
0000
,
0000
0001
0000
0000
,
0000
1001
0000
1000
,
0000
1000
0000
1000
,
0000
0010
0000
0010
,
0000
0010
0000
0010
,
0000
1000
0000
1000
,
0000
1000
0000
1000
,
0000
0001
0000
0001
,
0000
0001
0000
0000
,
0000
0000
1001
0000
,
1000
0000
0001
0000
,
1000
0000
0010
0000
,
0100
0000
0010
0000
,
0000
1000
0000
0000
,
0000
1000
0000
0000
,
0000
0001
0000
0001
,
0000
0001
0000
0000
,
0000
1001
0000
0000
;

//---------------dance-double - ----------------
#NOTES:
     dance-double:
     :
     Easy:
     3:
     0.188,0.271,0.074,0.082,0.000: // measure 1
00000000
00000000
00000000
00000000
,  // measure 2
00000000
00000000
00000000
00000000
,  // measure 3
00000000
00000000
00000000
00000000
,  // measure 4
00000000
00000000
00000000
00000000
,  // measure 5
00000000
00000000
00000000
00000000
,  // measure 6
00000000
00000000
00000000
00000000
,  // measure 7
00000000
00000000
00000000
00000000
,  // measure 8
00000000
00000000
00000000
00000000
,  // measure 9
00000000
00000000
00000000
00000000
,  // measure 10
10000000
00000000
00000000
00000000
,  // measure 11
01000000
00000000
00000000
00000000
,  // measure 12
00100000
00000000
00000000
00000000
,  // measure 13
00010000
00000000
00000000
00000000
,  // measure 14
00001000
00000000
00000000
00000000
,  // measure 15
00010000
00000000
00000000
00000000
,  // measure 16
00001000
00000000
00000000
00000000
,  // measure 17
00022000
00000000
00000000
00033000
,  // measure 18
00000010
00001000
00000010
00001000
,  // measure 19
00000010
00000100
00000010
00000000
,  // measure 20
00000100
00000001
00000100
00000001
,  // measure 21
00000100
00000010
00000100
00000000
,  // measure 22
00000001
00001000
00000001
00001000
,  // measure 23
00000010
00001000
00000100
00000000
,  // measure 24
00010000
00001000
00010000
00001000
,  // measure 25
00220000
00000000
00000000
00330000
,  // measure 26
01000000
00000000
10000000
00000000
,  // measure 27
01000000
00000000
10000000
00000000
,  // measure 28
00010000
00000000
10000000
00000000
,  // measure 29
00010000
00000000
00100000
00000000
,  // measure 30
00001000
00000000
00010000
00000000
,  // measure 31
00001000
00000000
00010000
00000000
,  // measure 32
00000100
00000000
00001000
00000000
,  // measure 33
00000100
00000000
00000010
00000000
,  // measure 34
00001001
00000000
00000010
00000000
,  // measure 35
00000001
00000000
00000010
00000000
,  // measure 36
00000100
00000000
00001000
00000000
,  // measure 37
00010000
00000000
00100000
00000000
,  // measure 38
01000000
01000000
01000000
01000000
,  // measure 39
10000000
10000000
10000000
10000000
,  // measure 40
00010000
00010000
00010000
00010000
,  // measure 41
00010000
20020000
00000000
00000000
,  // measure 42
00000000
00000000
00000000
00000000
,  // measure 43
00000000
00000000
00000000
30030000
,  // measure 44
00000000
00000000
00000000
00000000
,  // measure 45
00000000
00220000
00000000
00000000
,  // measure 46
00000000
00000000
00000000
00000000
,  // measure 47
00000000
00000000
00000000
00330000
,  // measure 48
00000000
00000000
00000000
00000000
,  // measure 49
00000000
22000000
00000000
00000000
,  // measure 50
00000000
00000000
00000000
00000000
,  // measure 51
00000000
00000000
00000000
00000000
,  // measure 52
33000000
00000000
00000000
00000000
,  // measure 53
00000000
00010000
00000000
00001000
,  // measure 54
00000000
00010000
00000000
00001000
,  // measure 55
00000000
00010000
00000000
00001000
,  // measure 56
00000000
00000100
00000000
00000010
,  // measure 57
00000000
00001001
00000000
00000000
,  // measure 58
00000000
00000010
00000001
00000010
,  // measure 59
00000001
00000010
00000001
00001000
,  // measure 60
00000001
00001000
00000100
00001000
,  // measure 61
00000100
00001000
00000010
00001000
,  // measure 62
00000010
00010000
00001000
00010000
,  // measure 63
00001000
00010000
00100000
01000000
,  // measure 64
00100000
01000000
10000000
00010000
,  // measure 65
10000000
00010000
00000000
00000000
,  // measure 66
00000000
00000000
10010000
00100000
,  // measure 67
10000000
00100000
10000000
00010000
,  // measure 68
01000000
00010000
01000000
00001000
,  // measure 69
00010000
00001000
00010000
00001000
,  // measure 70
00010000
00000010
00010000
00000010
,  // measure 71
00010000
00000010
00000100
00000010
,  // measure 72
00000100
00000001
00000010
00000100
,  // measure 73
00001000
00010000
00000000
00000000
,  // measure 74
00000000
10010000
00000000
00000000
;
