#TITLE:Cause You're Different;
#SUBTITLE:;
#ARTIST:Yuzo Koshiro featuring Paula Terry;
#TITLETRANSLIT:;
#SUBTITLETRANSLIT:;
#ARTISTTRANSLIT:;
#CREDIT:DMAxel;
#BANNER:Cause You're Different.png;
#BACKGROUND:Cause You're Different-bg.png;
#LYRICSPATH:Cause You're Different.lrc;
#CDTITLE:DMAxel original simfile.png;
#MUSIC:Cause You're Different.mp3;
#OFFSET:-17.260;
#SAMPLESTART:71.237;
#SAMPLELENGTH:12.000;
#SELECTABLE:YES;
#BPMS:0.000=140.000;
#STOPS:;
#BGCHANGES:;

//---------------dance-single - ----------------
#NOTES:
     dance-single:
     :
     Easy:
     3:
     0.203,0.214,0.015,0.114,0.000: // measure 1
0010
0100
0010
0000
,  // measure 2
1000
0001
1000
0000
,  // measure 3
0001
0100
0001
0000
,  // measure 4
1000
0010
1000
0000
,  // measure 5
0001
1000
0001
0000
,  // measure 6
0100
0010
0100
0000
,  // measure 7
0010
1000
0001
0000
,  // measure 8
0010
0001
1000
0000
,  // measure 9
0001
1000
0001
1000
,  // measure 10
0001
0000
0100
0010
,  // measure 11
1000
0001
1000
0001
,  // measure 12
1000
0000
0010
0100
,  // measure 13
0001
1000
0001
1000
,  // measure 14
0001
0000
1000
0001
,  // measure 15
0100
0010
0100
0010
,  // measure 16
0200
0000
0000
0000
,  // measure 17
0320
0000
0000
0000
,  // measure 18
0230
0000
0000
0000
,  // measure 19
0320
0000
0000
0000
,  // measure 20
2030
0000
0000
0000
,  // measure 21
3002
0000
0000
0000
,  // measure 22
2003
0000
0000
0000
,  // measure 23
3002
0000
0000
0000
,  // measure 24
0203
0000
0000
0000
,  // measure 25
0301
0100
0001
0100
,  // measure 26
0001
1000
0100
1000
,  // measure 27
0100
1000
0010
0100
,  // measure 28
0010
0100
0010
1000
,  // measure 29
0001
1000
0001
1000
,  // measure 30
0001
0010
0001
0010
,  // measure 31
0001
1000
0010
1000
,  // measure 32
0010
1000
0010
0100
,  // measure 33
0001
0010
0100
1000
,  // measure 34
0100
0010
0001
1000
,  // measure 35
0010
0100
0001
0100
,  // measure 36
0010
1000
0001
0010
,  // measure 37
0001
1000
0100
0010
,  // measure 38
0001
1000
0010
1000
,  // measure 39
0001
0010
0100
1000
,  // measure 40
0001
0010
0001
0010
,  // measure 41
0001
0100
0010
1000
,  // measure 42
0010
0100
0001
1000
,  // measure 43
0010
1000
0010
1000
,  // measure 44
0100
0010
0001
1000
,  // measure 45
0010
0100
0010
0100
,  // measure 46
0001
0010
0001
0010
,  // measure 47
0001
1000
0001
1000
,  // measure 48
0100
1000
0100
0010
,  // measure 49
1002
0000
0000
0000
,  // measure 50
2003
0000
0000
0000
,  // measure 51
3002
0000
0000
0000
,  // measure 52
0203
0000
0000
0000
,  // measure 53
0320
0000
0000
0000
,  // measure 54
0130
0100
0100
0100
,  // measure 55
0010
0010
0010
0010
,  // measure 56
0020
0000
0000
0030
,  // measure 57
1001
0000
0000
0000
;

//---------------dance-single - ----------------
#NOTES:
     dance-single:
     :
     Hard:
     8:
     0.387,0.363,0.031,0.061,0.202:
0001
0100
0001
0000
0001
0100
0001
0000
,
1000
0100
1000
0000
1000
0100
1000
0001
,
0100
0010
0100
0000
0100
0010
0100
0000
,
0001
0010
0001
0000
0001
0010
0001
1000
,
0100
0010
0100
0000
0100
0010
0100
0000
,
1000
0010
1000
0000
0001
0010
0001
1000
,
0010
0100
0010
0000
0100
0001
0010
0000
,
0100
1000
0001
0100
0001
1000
0100
0000
,
1000
0000
0100
0000
1000
0001
0000
0000
1000
0000
0100
0000
1000
0001
0000
0000
,
0100
0000
0001
0000
0100
0010
0000
0000
0100
0000
0001
0000
1000
0000
0000
0000
,
0001
0000
0010
0000
0001
1000
0000
0000
0001
0000
0010
0000
0001
1000
0000
0000
,
0010
0000
1000
0000
0010
0100
0000
0000
0010
0000
1000
0000
0001
0000
0000
0000
,
0100
0000
0001
0000
1000
0001
0000
0000
0100
0000
0001
0000
1000
0001
0000
0000
,
0100
0000
0001
0000
1000
0001
0000
0000
0100
0000
0001
0000
1000
0000
0100
0000
,
0010
0010
0001
0000
1000
1000
0100
0000
,
1000
1000
0001
0010
0100
1000
0001
0100
,
0001
0000
0000
0001
0000
0000
0001
0000
1000
0000
0000
1000
0000
0000
1000
0000
,
0010
0000
0000
0010
0000
0000
0010
0000
0100
0000
0000
0100
0000
0000
0100
0000
,
0001
0000
0000
0001
0000
0000
0001
0000
1000
0000
0000
1000
0000
0000
1000
0000
,
0100
0000
0000
0100
0000
0000
0100
0000
0010
0000
0000
0010
0000
0000
0010
0000
,
0001
0000
0000
1000
0000
0000
1000
0000
0100
0000
0000
0010
0000
0000
0010
0000
,
0001
0000
0000
0100
0000
0000
0100
0000
0010
0000
0000
1000
0000
0000
1000
0000
,
0001
0000
0000
0010
0000
0000
0010
0000
0100
0000
0000
1000
0000
0000
1000
0000
,
0010
0000
0000
0100
0000
0000
0100
0000
0001
0000
0000
1000
0000
0000
1000
0000
,
0001
0010
0100
1000
0001
0000
0100
0001
,
1000
0000
0001
0000
1001
0000
0001
0100
,
0001
0000
0000
0100
0000
0000
0001
0000
1000
0000
0000
0100
0000
0000
1000
0000
,
0001
0000
0000
0100
0000
0000
0001
0000
1000
0000
0000
0100
0000
0000
1000
0000
,
0001
0101
1000
1100
,
0001
0100
0010
0000
1000
0100
0010
0001
,
1000
0000
0000
0100
0000
0000
1000
0000
0001
0000
0000
0100
0000
0000
0001
0000
,
1000
0000
0000
0100
0000
0000
1000
0000
0001
0000
0010
0000
0100
0000
0000
0000
,
1000
0010
0100
0000
0001
0010
0100
0000
,
1000
0010
0100
0000
0001
0100
0001
1000
,
0100
0000
0000
1000
0000
0000
0001
0000
0100
0000
0000
0001
0000
0000
1000
0000
,
0100
0000
0000
1000
0000
0000
0001
0000
0100
0000
0010
0000
1000
0000
0000
0000
,
1000
0001
0100
0000
0001
0010
0100
0000
,
1000
0001
0100
0000
0001
0100
0001
1000
,
0010
0000
0000
1000
0000
0000
0001
0000
0010
0000
0000
0001
0000
0000
1000
0000
,
0010
0000
0000
1000
0000
0000
0001
0000
0010
0000
0100
0000
1000
0000
0000
0000
,
0100
1000
0001
0000
0010
0100
1000
0000
,
0100
1000
0001
0000
0010
0100
1000
0001
,
0100
0001
0000
0100
0000
0000
0001
0000
1000
0100
0000
1000
0000
0000
0100
0000
,
1000
0001
0000
1000
0000
0000
0001
0000
0100
0001
0000
0100
0000
0000
0001
0000
,
2000
0000
0000
0100
0000
0000
3100
0000
0020
0000
0000
0001
0000
0000
0031
0000
,
0200
0000
0000
0010
0000
0000
0310
0000
2000
0000
0000
0001
0000
0000
3001
0000
,
0020
0000
0000
0001
0000
0000
0031
0000
0200
0000
0000
1000
0000
0000
1300
0000
,
0020
0000
0000
0100
0000
0000
0130
0000
0001
0000
0010
0000
0100
0000
1000
0000
,
0001
0001
0001
0001
,
1000
0000
1000
0000
1000
0000
1000
0100
,
0010
0001
0000
0100
0000
1000
0000
0100
,
0000
0001
0000
0100
0000
0010
0000
1000
,
0000
0001
0000
0100
0000
1000
0000
0100
,
0000
0001
0000
0010
0000
0100
0000
1000
,
0000
0100
0000
0010
0000
0001
0000
1000
,
0200
0000
0000
0300
,
1001
0000
0000
0000
;

//---------------dance-single - ----------------
#NOTES:
     dance-single:
     :
     Medium:
     6:
     0.319,0.299,0.107,0.168,0.042:
1010
0001
0110
1000
,
0100
0010
0100
0000
1000
0001
1000
0000
,
0101
1000
0110
0001
,
0010
0100
0010
0000
0001
1000
0001
0000
,
0100
0001
0100
0000
0001
0100
0001
0000
,
1000
0100
1000
0000
0100
1000
0100
0000
,
1000
0001
1000
0000
0001
1000
0001
0000
,
0100
0010
0100
0000
0010
0100
0010
0000
,
0100
0001
0100
0000
0010
0100
0010
0000
,
0100
0001
0100
0000
0010
0100
0010
0000
,
1000
0001
0000
0100
0000
0001
0000
1000
,
0000
0100
0000
1000
0000
0010
0100
0000
,
0010
0100
0010
0000
0100
0001
0100
0000
,
0010
1000
0010
0000
1000
0100
1000
0000
,
0001
0001
0100
0100
,
1000
1000
0010
0010
,
1001
0001
0001
0001
,
1000
1000
1000
1000
,
0001
0001
0001
0001
,
1000
1000
1000
1000
,
0010
0100
0010
0100
,
0001
1000
0001
1000
,
0010
0100
0010
0100
,
0001
1000
0001
1000
,
0001
0010
0001
0000
1000
0010
1000
0000
,
1000
0010
0100
0001
,
1000
1100
0001
0101
,
1000
1010
0001
0011
,
1000
0010
1000
0000
0001
0010
0001
0000
,
0001
0100
0010
1000
,
0001
0011
1000
1010
,
0001
0101
1000
1100
,
0001
0100
0001
0000
2000
0000
3010
0000
,
1000
0010
1000
0000
0001
0010
0001
0000
,
0200
0001
0302
1000
,
2003
0100
3200
0010
,
0310
0001
0010
0000
0100
1000
0100
0000
,
1000
0001
1000
0000
0001
1000
0001
0000
,
0200
0001
0302
1000
,
2003
0100
3200
0010
,
0310
0001
0010
0000
0100
1000
0100
0000
,
1000
0001
1000
0000
0001
1000
0001
0000
,
0200
0000
0000
0001
0000
0000
0000
0000
0302
0000
0000
1000
0000
0000
0000
0000
,
2003
0000
0000
0010
0000
0000
0000
0000
3020
0000
0000
0100
0000
0000
0000
0000
,
2030
0000
0000
0001
0000
0000
0000
0000
3002
0000
0000
0100
0000
0000
0000
0000
,
0203
0000
0000
0010
0000
0000
0000
0000
0320
0000
0000
1000
0000
0000
0000
0000
,
2030
0000
0000
0001
0000
0000
0000
0000
3020
0000
0000
0100
0000
0000
0000
0000
,
0230
0000
0000
0010
0000
0000
0000
0000
0302
0000
0000
0000
0000
0000
0000
0000
,
1003
1000
1000
1000
,
0001
0001
0001
0001
,
1000
0010
0100
0001
,
1000
0010
0100
0001
,
0010
0100
1000
0001
,
0010
0100
1000
0010
,
0100
0001
0100
1000
,
0200
0000
0000
0300
,
1001
0000
0000
0000
;

//---------------dance-single - ----------------
#NOTES:
     dance-single:
     :
     Beginner:
     1:
     0.072,0.107,0.031,0.000,0.000:
1000
0000
0001
0000
,
1000
0000
0000
0000
,
0001
0000
1000
0000
,
0001
0000
0000
0000
,
1000
0000
0001
0000
,
1000
0000
0000
0000
,
0001
0000
1000
0000
,
0001
0000
0000
0000
,
0100
0000
0100
0000
,
0100
0000
0000
0000
,
0100
0000
0100
0000
,
0100
0000
0000
0000
,
0010
0000
0010
0000
,
0010
0000
0000
0000
,
0010
0000
0000
0000
,
0010
0000
0000
0000
,
0110
0000
0000
0000
,
0000
0000
0000
0000
,
1000
0000
0000
0000
,
0000
0000
0000
0000
,
0001
0000
0000
0000
,
0000
0000
0000
0000
,
1000
0000
0000
0000
,
1000
0000
0000
0000
,
1001
0000
0000
0000
,
0001
0000
0000
0000
,
1000
0000
0000
0000
,
0010
0000
0000
0000
,
0100
0000
0000
0000
,
0001
0000
0000
0000
,
0010
0000
0000
0000
,
0100
0000
0000
0000
,
1000
0000
0000
0000
,
0001
0000
0000
0000
,
1000
0000
0000
0000
,
0100
0000
0000
0000
,
0010
0000
0000
0000
,
0001
0000
0000
0000
,
0100
0000
0000
0000
,
0010
0000
0000
0000
,
1000
0000
0001
0000
,
1000
0000
0000
0000
,
0001
0000
1000
0000
,
0001
0000
0000
0000
,
0100
0000
0010
0000
,
0100
0000
0000
0000
,
0010
0000
0100
0000
,
0010
0000
0000
0000
,
1001
0000
0000
0000
,
0000
0000
0000
0000
,
1000
0000
0000
0000
,
0000
0000
0000
0000
,
0001
0000
0000
0000
,
0000
0000
0000
0000
,
1000
0000
0000
0000
,
1000
0000
0000
0000
,
1001
0000
0000
0000
;
