#TITLE:Carezza;
#SUBTITLE:;
#ARTIST:Osamu Kubota;
#TITLETRANSLIT:;
#SUBTITLETRANSLIT:;
#ARTISTTRANSLIT:;
#CREDIT:DMAxel;
#BANNER:Carezza.png;
#BACKGROUND:Carezza-bg.png;
#LYRICSPATH:;
#CDTITLE:KEYBOARDMANIA.png;
#MUSIC:Carezza.mp3;
#OFFSET:3.220;
#SAMPLESTART:65.142;
#SAMPLELENGTH:11.980;
#SELECTABLE:YES;
#BPMS:0.000=128.000;
#STOPS:;
#BGCHANGES:2.720=Carezza.AVI=1.000=1=1=0,
99999=-nosongbg-=1.000=0=0=0 // don't automatically add -songbackground-
;

//---------------dance-single - ----------------
#NOTES:
     dance-single:
     :
     Hard:
     8:
     0.491,0.483,0.094,0.019,0.426:
0000
0000
0000
0000
,
0000
0000
0000
0000
,
0000
0000
0000
0000
,
0000
0000
0000
0000
,
0000
0000
0000
0000
,
0000
0000
0000
0000
,
0001
0000
0010
0000
0001
0000
0000
0010
0001
0000
0000
0010
0001
0000
0000
0000
,
1000
0000
0100
0000
1000
0000
0000
0100
1000
0000
0000
0100
1000
0000
0000
0000
,
0001
0100
0001
0000
1000
0100
0001
0000
,
1000
0010
1000
0000
0001
0010
1000
0000
,
0010
0100
0010
0100
0010
1000
0100
0010
,
0001
0000
0100
0000
0001
0000
0000
0010
0001
0000
0010
0000
0100
0000
1000
0000
,
0010
0000
0100
0000
0010
0000
0000
1000
0100
0000
1000
0000
0100
0000
0010
0000
,
0001
0000
0010
0000
0001
0000
0000
0010
0001
0000
0010
0000
0100
0000
1000
0000
,
0100
0010
0001
0010
1000
0010
0001
0100
,
1000
0100
0001
0010
1000
0100
0001
0010
,
1001
0000
0000
1000
0010
1000
0000
0001
0000
0100
0000
0001
0000
0100
0000
0010
,
0000
0100
0000
0001
0000
1000
0000
1000
0000
0001
0000
0010
0000
0100
1000
0000
,
0000
0000
0000
0001
0100
0001
0000
0100
0000
0010
0000
0100
0000
0010
0000
1000
,
0000
0100
0000
1000
0000
0100
0000
0010
0000
0001
0000
1000
0000
0100
1000
0000
,
0000
0000
0000
0010
0100
0010
0000
0100
0000
0010
0000
0100
0000
0001
0000
0100
,
0000
0010
0000
1000
0000
0001
0000
0010
0000
0001
0000
0100
0000
0010
0100
0000
,
2002
0000
0000
3003
,
0001
0001
0010
0010
0100
1000
0010
0100
,
0000
0100
0010
0000
1000
1000
0100
0010
,
0001
0001
1000
1000
0100
0100
0010
0001
,
0100
0010
0000
0010
0100
0001
1000
1000
,
0100
0000
0010
0000
0001
0000
0001
0000
0100
0000
0001
0100
0000
0000
0010
0100
,
0000
0000
0010
1000
0000
0000
0000
0000
0000
0000
0000
0000
0000
0000
0000
0000
,
0010
0000
1000
0010
0000
0000
0100
0010
0000
0000
0100
0001
0000
0000
0000
0000
,
0000
0000
0000
0000
0000
0000
0000
0000
0100
0000
0001
0100
0000
0000
0010
0100
,
0000
0000
0010
1000
0000
0000
0000
0000
0000
0000
0000
0000
0000
0000
0000
0000
,
1001
0000
0000
0100
0010
0000
0000
0100
0001
0000
0000
0000
1001
0000
0000
0010
,
0100
0000
0000
0010
1000
0000
0000
0000
1001
0000
0000
0100
0001
0000
0000
0100
,
0010
0000
0000
0000
1001
0000
0000
0010
1000
0000
0000
0010
0100
0000
0000
0000
,
1001
0000
0000
0000
0100
0000
0000
0001
0000
0000
0010
0000
0000
0001
0000
0000
,
1000
0000
0000
0100
0000
0000
1000
0000
0001
0000
0100
0000
0001
0000
0000
0000
,
0010
0100
1000
0000
0010
1000
0010
0000
,
1000
0100
0010
0000
0001
0100
0001
0100
,
0010
1000
0010
0100
0001
0010
0001
0010
,
0100
1000
0100
0000
1000
0010
0100
0001
,
0010
0100
1000
0001
1000
0100
0010
0001
,
1000
0100
0010
0001
1000
0100
1000
0000
,
0001
0100
0001
0000
1000
0100
1000
0000
,
0001
0100
0001
0000
1000
1000
0100
0100
,
0010
0001
0100
0010
1000
1000
0100
0100
,
0010
0001
0100
0010
0100
0000
1001
0000
,
0010
0010
1001
0000
0100
0100
1001
0000
,
1000
1000
0100
0010
0001
1000
0001
0000
,
0010
0001
0001
0010
0100
1000
0100
1000
,
0100
0000
0010
0000
0001
0000
0010
0000
0001
0000
0000
0100
0000
0000
0010
0000
,
1000
0000
0000
0010
0000
0000
0100
0000
0001
0000
0010
0000
0100
0000
1000
0000
,
0100
0000
0000
1000
0000
0000
0010
0000
0100
0000
0000
0001
0000
0000
0010
0000
,
0001
0000
0000
0010
0000
0001
0000
0010
0000
0010
0000
0100
0000
1000
0000
0100
,
0000
1000
0000
0001
0000
1000
0000
0000
0010
0000
0100
0010
0000
0000
1000
0000
,
0001
1000
0000
0000
0010
0000
0100
0010
0000
0000
1000
0000
0001
1000
0000
0000
,
0100
0000
1000
0010
0000
0000
0100
0000
0001
0010
0000
0000
0100
0000
1000
0010
,
0000
0000
0100
0000
0001
0010
0000
0000
0000
0000
0000
0000
0000
0000
0000
0000
;

//---------------dance-single - ----------------
#NOTES:
     dance-single:
     :
     Medium:
     6:
     0.392,0.456,0.056,0.075,0.154:
0000
0000
0000
0000
,
0000
0000
0000
0000
,
0000
0000
0000
0000
,
0000
0000
0000
0000
,
0000
0000
0000
0000
,
0000
0000
0000
0000
,
0010
0100
0001
0000
0010
0000
0100
0000
,
1000
0010
0100
0000
0001
0000
0010
0000
,
0100
1000
0100
0000
1000
0100
0001
0000
,
0010
0001
0010
0000
0001
0010
1000
0000
,
0001
0010
0100
1000
0100
0010
0001
0000
,
1001
0000
0010
0001
0100
0001
0100
0000
,
0010
1000
0010
1000
0100
0010
0001
0000
,
0100
0001
0100
0001
0010
0100
1000
0000
,
0010
1000
0010
1000
0001
1000
0001
1000
,
0001
1000
0010
0100
0010
0100
0010
0100
,
0010
0000
0000
0100
0001
0000
0000
0000
0010
0000
0000
0000
0100
0000
0000
0000
,
1000
0100
0010
0001
,
1000
0000
0000
0010
1000
0000
0000
0000
0100
0000
0000
0000
0010
0000
0000
0000
,
0001
0010
0100
1000
,
0001
0000
0000
0010
0001
0000
0000
0000
0100
0000
0000
0000
0010
0000
0000
0000
,
1000
0010
0100
0001
,
2002
0000
0000
3003
,
0001
0000
0010
0000
0100
0000
1000
0001
,
0000
0001
1000
0000
0010
0100
0010
0100
,
0010
0100
0001
0000
0010
0000
0100
0000
,
1000
0001
0000
0001
1000
0000
0010
0100
,
0010
0000
0100
0000
0010
0000
0100
0000
0010
0000
1000
0010
0000
0000
0100
0010
,
0000
0000
0100
0001
0000
0000
0000
0000
0000
0000
0000
0000
0000
0000
0000
0000
,
1000
0000
0001
0100
0000
0000
0010
0100
0000
0000
0010
1000
0000
0000
0000
0000
,
0000
0000
0000
0000
0000
0000
0000
0000
0010
0000
1000
0010
0000
0000
0100
0010
,
0000
0000
0100
0001
0000
0000
0000
0000
0000
0000
0000
0000
0000
0000
0000
0000
,
2001
0001
0001
3020
,
0100
0100
0230
0001
,
0001
0302
1000
1000
,
2000
0000
0000
0000
,
0000
3003
0110
0001
,
0100
0001
0010
0001
0100
0000
0010
0000
,
1000
0010
0100
0010
1000
0010
0001
0000
,
0010
0001
0010
0000
0001
0100
1000
0000
,
0100
1000
0100
1000
0010
0000
0100
0000
,
0010
1000
0100
0010
,
0001
0000
0010
0000
0100
1000
0010
0000
,
0100
0001
0010
0000
0001
1000
0100
0000
,
1000
0001
0010
0000
0001
0010
0100
1000
,
0100
0010
0001
0000
1000
0100
0010
0001
,
0020
0000
0000
0000
0000
0000
0000
0000
0031
0000
0000
0100
0001
0000
0000
0100
,
0000
0000
0000
0010
1000
0000
0000
0010
0000
0000
0000
1000
0001
0000
0000
1000
,
0000
0000
0000
0001
1000
0000
0100
0000
0010
0000
0001
0000
1000
0000
0000
0000
,
0000
0001
0010
0000
0001
0000
1000
0000
0000
0100
1000
0000
0001
0000
0010
0000
,
0100
0000
1000
0000
0100
0000
0010
0000
0001
0000
0000
0010
0000
0000
0001
0000
,
1000
0000
0000
0010
0000
0000
1000
0000
0100
0000
0010
0000
0001
0000
0010
0000
,
0100
0000
0000
1000
0000
0000
0010
0000
0100
0000
0000
0001
0000
0000
0100
0000
,
0001
0101
1000
1010
,
0100
0000
0000
0010
0000
0100
0000
0000
0001
0000
0000
0100
0000
0000
0001
0000
,
0010
0000
0100
0000
1000
0000
0000
0010
0000
0000
1000
0000
0100
0000
0010
0000
,
0001
0000
0000
0010
0000
0000
0001
0000
0000
1000
0000
0000
0100
0000
0000
1000
,
0000
0000
0010
0000
0000
0100
0000
0000
0000
0000
0000
0000
0000
0000
0000
0000
;

//---------------dance-single - ----------------
#NOTES:
     dance-single:
     :
     Easy:
     3:
     0.246,0.321,0.103,0.066,0.000: // measure 1
0000
0000
0000
0000
,  // measure 2
0000
0000
0000
0000
,  // measure 3
0000
0000
0000
0000
,  // measure 4
0000
0000
0000
0000
,  // measure 5
0000
0000
0000
0000
,  // measure 6
0000
0000
0000
0000
,  // measure 7
1000
0001
1000
0001
,  // measure 8
1000
0001
1000
0001
,  // measure 9
0100
0010
0100
0010
,  // measure 10
0100
0010
0100
0010
,  // measure 11
1000
0010
1000
0010
,  // measure 12
0100
0001
0100
0001
,  // measure 13
0100
0010
0100
0010
,  // measure 14
1000
0001
1000
0001
,  // measure 15
0010
0100
1000
0100
,  // measure 16
0010
0001
0010
0100
,  // measure 17
1001
0010
0010
0001
,  // measure 18
0100
0001
0100
0001
,  // measure 19
0000
0100
0100
0010
,  // measure 20
1000
0010
1000
0010
,  // measure 21
0000
0110
0100
0001
,  // measure 22
0100
0001
0100
0010
,  // measure 23
2002
0000
0000
3003
,  // measure 24
0010
0000
0000
0000
,  // measure 25
0000
0000
0100
0000
,  // measure 26
0000
0010
0000
0000
,  // measure 27
0000
0000
0000
1000
,  // measure 28
0000
0000
0001
0010
,  // measure 29
0100
1000
0000
0000
,  // measure 30
1000
0100
0010
0001
,  // measure 31
0000
0000
0001
0010
,  // measure 32
0100
1000
0000
0000
,  // measure 33
1000
0100
0010
0001
,  // measure 34
0010
0100
1000
0100
,  // measure 35
0010
0001
0010
0100
,  // measure 36
1000
0000
0000
0000
,  // measure 37
0000
0000
1001
0010
,  // measure 38
0001
0010
0001
1000
,  // measure 39
0001
1000
0100
1000
,  // measure 40
0100
1000
0010
0100
,  // measure 41
0010
0100
0001
0100
,  // measure 42
0001
0100
0010
1000
,  // measure 43
0010
1000
0100
0010
,  // measure 44
0001
0010
0100
1000
,  // measure 45
0100
0010
0001
1000
,  // measure 46
0001
1000
0010
0100
,  // measure 47
0020
0000
0130
1001
,  // measure 48
0010
1001
0100
1001
,  // measure 49
0010
0100
0001
0010
,  // measure 50
0000
0001
1000
0100
,  // measure 51
1000
0010
0100
0000
,  // measure 52
0010
1000
0100
0010
,  // measure 53
0001
0000
0010
0001
,  // measure 54
0100
0010
1000
0010
,  // measure 55
1000
0010
0202
0000
,  // measure 56
0303
2020
0000
3030
,  // measure 57
1001
0000
0000
0010
0000
0000
1001
0000
,  // measure 58
0000
0100
0000
0000
0000
0000
0000
0000
;

//---------------dance-single - ----------------
#NOTES:
     dance-single:
     :
     Challenge:
     9:
     0.590,0.563,0.122,0.019,0.688:
0000
0000
0000
0000
,
0000
0000
0000
0000
,
0000
0000
0000
0000
,
0000
0000
0000
0000
,
0000
0000
0000
0000
,
0000
0000
0000
0000
,
0001
0000
0100
0000
0001
0010
0000
0000
0001
0010
0000
0000
0001
1000
0000
0000
,
1000
0010
0000
0000
1000
0010
0000
0000
0010
0100
0000
0000
0100
0001
0000
0000
,
0100
0001
0010
0100
1000
0100
1000
0010
,
0001
0000
0100
0000
0001
0000
0010
0000
1000
0010
0000
0100
0010
0000
0100
0000
,
0001
0100
0000
0000
0010
0100
0000
0000
0001
0000
0010
0000
0100
1000
0100
0000
,
1001
0010
0100
0001
0100
1000
0100
0001
,
0010
0001
0100
1000
0010
0001
0100
0001
,
0100
0001
1000
0100
0001
0010
1000
0100
,
0010
0000
0001
0000
1000
0000
0001
0000
0100
0010
0100
0000
0000
0001
0100
0000
,
0000
0001
0100
0000
0000
0010
1000
0000
0000
0010
1000
0000
0000
0010
0100
0000
,
1001
0000
0000
1000
0010
1000
0000
0001
0000
0100
0000
0001
0000
0100
0000
0010
,
0000
1000
0000
0010
0000
0100
0000
0100
0000
0001
0000
0010
0000
0100
1000
0000
,
0000
0000
0000
0001
0100
0001
0000
0100
0000
0010
0000
0100
0000
0010
0000
1000
,
0000
1000
0000
0010
0000
0100
0000
0010
0000
1000
0000
0100
0000
0010
0001
0000
,
0000
0000
0000
1000
0100
1000
0000
0010
0000
0100
0000
0010
0000
0100
0000
0001
,
0000
0001
0000
1000
0000
0001
0000
0010
0000
0001
0000
0100
0000
0010
0100
0000
,
2002
0000
0000
3003
,
0001
0000
0000
0010
0001
0000
0000
0010
0001
0000
0100
0010
0100
0010
0100
0000
,
0000
0010
1000
0000
0100
0000
0010
0000
0001
0000
0001
0000
0010
0000
0100
0000
,
1000
0000
1000
0000
0010
0000
0000
1000
0100
0000
0000
1000
0100
0000
1000
0001
,
1000
0001
1000
0000
0000
0010
0100
0000
0001
0000
0010
0000
1000
0000
1000
0000
,
0100
0000
0010
0000
0001
0000
0001
0000
0010
0000
0001
0100
0000
0000
0100
0010
,
0000
0000
1000
0001
1000
0000
0100
0000
0010
0000
0001
0000
0010
0000
0100
0000
,
1000
0000
0010
1000
0000
0000
1000
0100
0000
0000
1000
0001
1000
0000
0100
0000
,
0010
0000
0001
0000
0010
0000
0100
0000
1000
0000
0001
0100
0000
0000
0001
0100
,
0000
0000
0001
1000
0001
0000
0010
0000
0100
0000
1000
0000
0100
0000
0010
0000
,
1001
0000
0000
0100
0010
0000
0000
0100
0001
0000
0010
0000
1001
0000
0000
0010
,
0100
0000
0000
0010
1000
0000
0100
0000
1001
0000
0000
0010
0001
0000
0000
0100
,
0001
0000
0100
0000
1001
0000
0000
0010
1000
0000
0000
0100
1000
0000
0010
0000
,
1001
0000
0000
0000
0100
0000
0000
0001
0000
0000
0010
0000
0000
0100
0000
0000
,
1000
0000
0000
0010
0000
0000
0100
0000
1001
0000
0010
0000
1000
0000
0001
0000
,
0010
0100
1000
0000
0001
0100
0001
1000
,
0100
0000
0010
0000
0001
0000
0010
0001
0010
0000
0001
0000
1000
0000
0100
1000
,
0100
0000
1000
0000
0001
0000
0100
0001
0100
0000
0001
0000
1000
0000
0010
1000
,
0010
0000
1000
0000
0100
0000
0010
0000
0001
0000
0000
0010
0001
0000
0000
0001
,
0100
0000
0000
0100
0001
0000
0000
0001
0010
0000
0000
0001
1000
0000
0000
1000
,
0010
0000
0000
0010
0100
0000
0000
0100
0001
0000
0010
0000
0100
0000
1000
0100
,
1000
0000
0100
0000
0010
0000
0001
0010
0001
0000
0010
0000
0100
0000
1000
0010
,
1000
0000
0100
0000
0010
0000
0001
0000
0010
0001
0000
0000
0001
0100
0000
0000
,
0100
0000
0001
0000
0010
0000
0100
0000
1000
0010
0000
0000
0010
0100
0000
0000
,
0100
0000
0001
0000
0010
0000
0100
0000
1001
0000
0100
1000
0100
0000
1000
0010
,
0000
0100
0000
0010
1000
0000
0001
0100
0000
0010
0000
0100
0001
0000
1000
0010
,
0000
0100
0000
0010
1000
0000
0100
0000
0010
0000
0001
1000
0001
0000
0000
0000
,
0000
0100
0010
0000
0100
0000
0001
0100
0000
0010
0100
0000
0010
0000
1000
0000
,
0100
0000
0001
0000
0100
0000
0010
0000
1001
0000
0000
1100
0000
0000
0011
0000
,
0100
0000
1000
0010
0000
0100
0010
0000
1000
0000
0100
0000
0010
0000
0001
0000
,
0100
0000
0001
0100
0000
0010
0100
0000
0001
0000
0100
0010
0000
0000
1000
0001
,
1000
0001
0000
0100
0000
0010
0000
0100
0000
0001
0000
0010
0000
0001
0000
1000
,
0000
0100
0000
1000
0000
0010
0100
0000
0001
0000
0100
0010
0000
0000
1000
0000
,
0100
0000
0010
0000
0001
0000
0100
0010
0000
0000
1000
0000
0100
0000
0010
0000
,
0001
0000
0100
0010
0000
0000
0100
0000
0010
1000
0000
0000
0010
0000
0100
0001
,
0000
0000
0010
0000
0100
1000
0000
0000
0000
0000
0000
0000
0000
0000
0000
0000
;

//---------------dance-single - ----------------
#NOTES:
     dance-single:
     :
     Beginner:
     2:
     0.098,0.133,0.047,0.000,0.000:
0000
0000
0000
0000
,
0000
0000
0000
0000
,
0000
0000
0000
0000
,
0000
0000
0000
0000
,
0000
0000
0000
0000
,
0000
0000
0000
0000
,
1000
0000
0000
0000
,
0001
0000
0000
0000
,
1000
0000
0000
0000
,
0010
0000
0000
0000
,
0100
0000
0000
0000
,
0110
0000
0000
0000
,
0001
0000
0000
0000
,
0010
0000
0000
0000
,
0100
0000
0000
0000
,
0000
0000
0000
0000
,
1001
0000
0000
0010
,
0000
0010
0000
0010
,
0000
0100
0000
0100
,
0000
0100
0000
0100
,
0000
1001
0000
0010
,
0000
0010
0000
0010
,
0000
0000
0000
0000
,
1000
0000
0000
0000
,
0000
0000
0100
0000
,
0000
0010
0000
0000
,
0000
0000
0000
0001
,
0000
0000
1000
0000
,
0000
0000
0000
0000
,
0001
0000
0000
0000
,
0000
0000
0100
0000
,
0000
0000
0000
0000
,
0010
0000
0000
0100
,
0000
0000
0010
0000
,
0000
1000
0000
0000
,
0001
0000
0000
0000
,
0000
0000
1001
0000
,
0000
0000
0010
0000
,
0000
0000
0100
0000
,
0000
0000
0010
0000
,
0000
0000
1000
0000
,
1000
0000
0001
0000
,
0001
0000
1000
0000
,
1000
0000
0001
0000
,
0001
0000
0100
0000
,
0100
0000
0100
0000
,
0010
0000
0110
0000
,
0000
0001
0000
1000
,
0000
0001
0000
1000
,
0000
0010
0000
0100
,
0000
0010
0000
1000
,
0000
0001
0000
1000
,
0000
0001
0000
0100
,
0000
0010
0000
0100
,
0000
0001
0000
0000
,
0000
1000
0000
0000
,
0001
0000
0000
1000
;
