#TITLE:Cappuccino bossa;
#SUBTITLE:;
#ARTIST:HASHED BOX;
#TITLETRANSLIT:;
#SUBTITLETRANSLIT:;
#ARTISTTRANSLIT:;
#CREDIT:DMAxel;
#BANNER:Cappuccino bossa.png;
#BACKGROUND:Cappuccino bossa-bg.png;
#LYRICSPATH:;
#CDTITLE:beatmania.png;
#MUSIC:Cappuccino bossa.mp3;
#OFFSET:-0.500;
#SAMPLESTART:22.523;
#SAMPLELENGTH:12.000;
#SELECTABLE:YES;
#BPMS:0.000=174.000;
#STOPS:;
#BGCHANGES:;

//---------------dance-single - ----------------
#NOTES:
     dance-single:
     :
     Hard:
     7:
     0.504,0.524,0.382,0.102,0.019: // measure 1
0000
0000
0000
0000
,  // measure 2
0000
0000
0000
0000
,  // measure 3
0000
0000
0000
0000
,  // measure 4
0000
0000
0000
0000
,  // measure 5
0000
0000
0000
0000
,  // measure 6
0000
0000
0000
0000
,  // measure 7
0000
0000
0000
0000
,  // measure 8
0000
0000
0000
0000
,  // measure 9
1001
0000
1100
0000
0001
0010
1000
0010
,  // measure 10
0001
1100
0010
1001
,  // measure 11
0100
0000
0110
0000
1000
0100
0001
0100
,  // measure 12
1000
0000
0010
1000
0100
0000
0110
0000
,  // measure 13
1001
0000
1100
0000
0001
0010
1000
0010
,  // measure 14
0001
0000
0110
0000
1000
0010
0100
0000
,  // measure 15
0010
0010
1000
1000
,  // measure 16
2002
0000
0000
3003
,  // measure 17
0001
0010
2000
0000
0100
0000
3100
0000
,  // measure 18
0010
0001
0010
0000
0110
0000
1001
0000
,  // measure 19
1000
0100
0002
0000
0010
0000
0013
0000
,  // measure 20
0100
1000
0100
0000
0110
0000
1001
0000
,  // measure 21
0010
0100
1000
0100
0010
0000
1001
0000
,  // measure 22
0100
0001
0000
0001
0010
0100
1000
0000
,  // measure 23
1001
0000
0100
0010
0001
0010
0100
1000
,  // measure 24
0000
0100
0000
0100
0000
0100
0010
0001
,  // measure 25
1000
0000
1001
0000
0010
1000
0100
0010
,  // measure 26
0000
0001
0100
0000
0001
0000
0100
0000
,  // measure 27
1000
0000
1001
0000
0100
0001
0010
0100
,  // measure 28
0000
1000
0010
0000
0100
0001
0100
0000
,  // measure 29
0010
0000
0110
0000
0010
1000
0100
0010
,  // measure 30
0000
0001
0010
0000
0001
0010
0100
1000
,  // measure 31
0001
0000
0110
0000
0100
0001
0010
0100
,  // measure 32
0000
0000
1000
0000
0010
0000
1000
0000
0100
0000
0000
0010
0000
0000
0001
0000
,  // measure 33
1000
0000
1100
0000
0001
1000
0100
0010
,  // measure 34
0000
0000
0001
0000
1000
0000
0000
0000
0001
0000
0000
0100
0000
0000
0010
0000
,  // measure 35
1000
0000
1001
0000
0100
0100
0001
0000
,  // measure 36
0010
0100
0000
1000
0010
0000
0100
0001
,  // measure 37
0100
0000
0110
0000
1000
0100
0001
0100
,  // measure 38
1000
0000
0010
0000
0100
0000
0000
0000
0001
0000
0000
0100
0000
0000
0001
0000
,  // measure 39
1000
0000
0110
0000
0001
1000
0100
0000
,  // measure 40
0010
0001
0000
0010
0000
0001
0010
0100
,  // measure 41
1000
0100
1000
0010
,  // measure 42
1000
0100
0010
0001
,  // measure 43
0100
0001
0010
0100
,  // measure 44
1000
0100
0001
0100
,  // measure 45
1001
0000
0010
1000
0010
0000
0100
0001
,  // measure 46
0100
0000
0001
0010
0001
0000
1000
0100
,  // measure 47
1000
0100
0001
0010
,  // measure 48
1001
0000
0000
0000
,  // measure 49
0001
1000
0200
0000
0000
1300
0100
0010
,  // measure 50
0000
0001
0000
1000
0001
0000
1001
0000
,  // measure 51
1000
0001
0020
0000
0000
0031
0010
0100
,  // measure 52
0000
1000
0000
0001
1000
0000
1001
0000
,  // measure 53
0001
1000
0020
0000
0000
1030
0100
0010
,  // measure 54
0000
0001
0000
1000
0001
0000
1001
0000
,  // measure 55
1000
0001
0200
0000
0000
0301
0000
1001
;

//---------------dance-single - ----------------
#NOTES:
     dance-single:
     :
     Medium:
     5:
     0.384,0.454,0.318,0.051,0.000: // measure 1
0000
0000
0000
0000
,  // measure 2
0000
0000
0000
0000
,  // measure 3
0000
0000
0000
0000
,  // measure 4
0000
0000
0000
0000
,  // measure 5
0000
0000
0000
0000
,  // measure 6
0000
0000
0000
0000
,  // measure 7
0000
0000
0000
0000
,  // measure 8
0000
0000
0000
0000
,  // measure 9
1000
0100
0010
0001
,  // measure 10
0010
0100
1000
0001
,  // measure 11
0000
0001
0010
0100
,  // measure 12
1000
0100
0010
0000
,  // measure 13
0001
0010
0100
1000
,  // measure 14
0100
0010
0001
0000
,  // measure 15
0110
0000
1001
0000
,  // measure 16
2002
0000
0000
3003
,  // measure 17
0010
0000
0001
0000
0010
0100
0000
0100
,  // measure 18
0000
0010
1000
1001
,  // measure 19
0100
0000
1000
0000
0100
0010
0000
0010
,  // measure 20
0000
0100
0001
1001
,  // measure 21
0100
0000
0001
0000
0100
0010
0000
0010
,  // measure 22
0000
0100
0001
1001
,  // measure 23
0010
1000
0010
1000
,  // measure 24
0100
0010
0000
0010
0000
0010
0000
0010
,  // measure 25
0001
0000
1001
0000
0010
1000
0000
1000
,  // measure 26
0000
1000
0100
0000
1000
0000
0001
0000
,  // measure 27
1001
0000
0110
0000
0100
0001
0000
0001
,  // measure 28
0000
0001
0010
0000
0001
0000
1000
0000
,  // measure 29
1001
0000
0110
0000
0010
1000
0000
1000
,  // measure 30
0000
1000
0100
0000
1000
0000
0100
0000
,  // measure 31
0110
0000
1001
0000
0100
0001
0000
0001
,  // measure 32
0000
0001
0010
0000
0100
0000
1000
0000
,  // measure 33
0110
0110
1000
0100
,  // measure 34
0010
0001
0100
1000
,  // measure 35
0010
0001
0010
1100
,  // measure 36
1000
0000
0000
0100
0000
0000
0010
0000
,  // measure 37
0011
1001
0100
1000
,  // measure 38
0100
0010
0001
0010
,  // measure 39
1001
0000
0100
0000
0010
0010
0000
0001
,  // measure 40
0010
0100
0000
1000
0000
1000
0000
1000
,  // measure 41
0010
0100
0000
0100
,  // measure 42
0000
0010
0000
0010
,  // measure 43
0010
1000
0000
1000
,  // measure 44
0000
0001
0000
0001
,  // measure 45
0001
0100
0000
0100
,  // measure 46
0000
0010
0000
0010
,  // measure 47
1000
0100
0010
0001
,  // measure 48
0220
0000
0000
0330
,  // measure 49
1001
0000
0100
0000
1000
0000
0100
0010
,  // measure 50
0100
0000
1000
0010
1000
0000
1001
0000
,  // measure 51
0001
0000
0010
0000
0001
0000
0010
0100
,  // measure 52
0010
0000
0001
1000
0001
0000
1001
0000
,  // measure 53
1000
0000
0010
0000
1000
0000
0010
0100
,  // measure 54
0010
0000
1000
0100
0010
0000
1001
0000
,  // measure 55
0010
0000
0001
0010
0100
1000
0000
1001
;

//---------------dance-single - ----------------
#NOTES:
     dance-single:
     :
     Easy:
     2:
     0.153,0.174,0.051,0.013,0.000: // measure 1
0000
0000
0000
0000
,  // measure 2
0000
0000
0000
0000
,  // measure 3
0000
0000
0000
0000
,  // measure 4
0000
0000
0000
0000
,  // measure 5
0000
0000
0000
0000
,  // measure 6
0000
0000
0000
0000
,  // measure 7
0000
0000
0000
0000
,  // measure 8
0000
0000
0000
0000
,  // measure 9
0000
0010
0000
0010
,  // measure 10
0000
0100
0000
0100
,  // measure 11
0000
0001
0000
0001
,  // measure 12
0000
0000
0000
0000
,  // measure 13
0000
0100
0000
0100
,  // measure 14
0000
0010
0000
0010
,  // measure 15
0000
0100
0000
0010
,  // measure 16
2000
0000
0000
3000
,  // measure 17
0000
0001
0000
1000
,  // measure 18
0000
0010
0000
0100
,  // measure 19
0000
0010
0000
0100
,  // measure 20
0000
0000
0000
0000
,  // measure 21
0000
0001
0000
0010
,  // measure 22
0000
0100
0000
1000
,  // measure 23
0000
0010
0000
0110
,  // measure 24
0000
0000
0000
0000
,  // measure 25
0000
1000
0000
0100
,  // measure 26
0000
0010
0000
0001
,  // measure 27
0000
0100
0000
0010
,  // measure 28
0000
0100
0000
0001
,  // measure 29
0000
0010
0000
0100
,  // measure 30
0000
1000
0000
0000
,  // measure 31
0000
0010
0000
1000
,  // measure 32
0000
0000
0000
0010
,  // measure 33
0000
0100
0000
0001
,  // measure 34
0000
0100
0000
0010
,  // measure 35
0000
0100
0000
0001
,  // measure 36
0000
0010
0000
0100
,  // measure 37
0000
1000
0000
0010
,  // measure 38
0000
0100
0000
0010
,  // measure 39
0000
0100
0000
0001
,  // measure 40
0000
0000
0000
0000
,  // measure 41
0000
0010
0000
1000
,  // measure 42
0000
0010
0000
0001
,  // measure 43
0000
0000
0000
0000
,  // measure 44
0000
0010
0000
0001
,  // measure 45
0000
0010
0000
1000
,  // measure 46
0000
0010
0000
0100
,  // measure 47
0000
0010
0000
1001
,  // measure 48
0000
0000
0000
0000
,  // measure 49
0000
0100
0000
0010
,  // measure 50
0000
0001
0000
0010
,  // measure 51
0000
0100
0000
1000
,  // measure 52
0000
0100
0000
0010
,  // measure 53
0000
0100
0000
1000
,  // measure 54
0000
0010
0000
1001
,  // measure 55
0000
0010
0000
0110
;

//---------------dance-single - ----------------
#NOTES:
     dance-single:
     :
     Challenge:
     8:
     0.560,0.559,0.318,0.000,0.096: // measure 1
0000
0000
0000
0000
,  // measure 2
0000
0000
0000
0000
,  // measure 3
0000
0000
0000
0000
,  // measure 4
0000
0000
0000
0000
,  // measure 5
0000
0000
0000
0000
,  // measure 6
0000
0000
0000
0000
,  // measure 7
0000
0000
0000
0000
,  // measure 8
0000
0000
0000
0000
0001
0000
0000
0001
0000
0000
0000
0000
0000
0000
0000
0000
,  // measure 9
1001
0000
0010
0001
0010
0100
1000
0010
,  // measure 10
0000
0010
0000
0100
0001
0000
1001
0000
,  // measure 11
0100
1000
0100
0010
0001
0100
0001
0100
,  // measure 12
0000
0100
0000
0010
1000
0000
1001
0000
,  // measure 13
0100
0001
0010
0100
1000
0010
1000
0010
,  // measure 14
0000
0010
0000
0100
0001
0000
1001
0000
,  // measure 15
0010
0000
0000
1000
0000
0000
0100
0000
1000
0000
0000
0010
0000
0000
1000
0000
,  // measure 16
0001
0000
0000
0001
0000
0000
0001
0000
1000
0000
0000
1000
0000
0000
1000
0000
,  // measure 17
0010
0100
0010
1000
0100
0010
0000
0001
,  // measure 18
0000
0001
1000
0001
0010
0000
1001
0000
,  // measure 19
0100
0010
0100
0001
0010
0100
0000
1000
,  // measure 20
0000
1000
0001
1000
0010
0000
1001
0000
,  // measure 21
0010
0100
0010
1000
0100
0010
0000
0001
,  // measure 22
0000
0001
1000
0001
0010
0000
1001
0000
,  // measure 23
0100
0010
0100
0001
0010
0100
0000
1001
,  // measure 24
0000
0010
0001
0010
0001
0010
0001
0000
,  // measure 25
1010
0000
1001
0000
0010
0001
0010
0100
,  // measure 26
0000
0000
1000
0000
0010
0000
0000
0000
1000
0000
0000
0001
0000
0000
0100
0000
,  // measure 27
0010
0000
0101
0000
0010
1000
0100
0010
,  // measure 28
0000
0000
0001
0000
0000
0000
0001
0000
1000
0000
0000
0010
0000
0000
0100
0000
,  // measure 29
0010
0000
1001
0000
0010
0001
0010
0100
,  // measure 30
0000
0000
1000
0000
0010
0000
0000
0000
0100
0000
0000
0001
0000
0000
0100
0000
,  // measure 31
0010
0000
1001
0000
0010
1000
0100
0010
,  // measure 32
0000
0000
0001
0000
0100
0000
0001
0000
0010
0000
0000
0100
0000
0000
1000
0000
,  // measure 33
0001
0000
0011
0000
0100
1000
0010
1000
,  // measure 34
0000
0000
1000
0000
0010
0000
0000
0000
0100
0000
0000
0001
0000
0000
0001
0000
,  // measure 35
1000
0000
1100
0000
0010
0001
0100
0001
,  // measure 36
0100
0000
0010
1000
0000
1000
0001
1000
,  // measure 37
0001
0000
0011
0000
0001
0010
1000
0010
,  // measure 38
0001
0000
0100
0000
0010
0000
0000
0000
1000
0000
0000
0010
0000
0000
1000
0000
,  // measure 39
0001
0000
0110
0000
1000
0100
0001
0100
,  // measure 40
1000
0010
0100
0010
0100
0010
0100
0010
,  // measure 41
1000
0000
1001
0000
0100
0001
0000
0010
,  // measure 42
0000
0000
0010
0000
0000
0000
0100
0000
1000
0000
0000
0010
0000
0000
0100
0000
,  // measure 43
0010
0000
1001
0000
0010
1000
0000
0100
,  // measure 44
0000
0000
0100
0000
0000
0000
0010
0000
0001
0000
0000
0100
0000
0000
0010
0000
,  // measure 45
0100
0000
1001
0000
0010
1000
0100
1000
,  // measure 46
0000
0010
0000
0100
0001
0000
1001
0000
,  // measure 47
0100
0001
0010
0001
0010
1000
0100
0001
,  // measure 48
1000
0000
0000
1000
0000
0000
1000
0000
0001
0000
0000
0001
0000
0000
0001
0000
,  // measure 49
0100
0001
0010
1000
0010
0001
0100
0001
,  // measure 50
0000
0010
0100
1000
0010
0000
1001
0000
,  // measure 51
0010
1000
0100
0001
0100
1000
0010
1000
,  // measure 52
0000
0100
0010
0001
0100
0000
1001
0000
,  // measure 53
0010
0001
0100
1000
0100
0001
0010
0001
,  // measure 54
0000
0100
0010
1000
0100
0000
1001
0000
,  // measure 55
0100
1000
0010
0001
0010
1000
0100
0110
;

//---------------dance-single - ----------------
#NOTES:
     dance-single:
     :
     Beginner:
     1:
     0.049,0.103,0.038,0.000,0.000: // measure 1
0000
0000
0000
0000
,  // measure 2
0000
0000
0000
0000
,  // measure 3
0000
0000
0000
0000
,  // measure 4
0000
0000
0000
0000
,  // measure 5
0000
0000
0000
0000
,  // measure 6
0000
0000
0000
0000
,  // measure 7
0000
0000
0000
0000
,  // measure 8
0000
0000
0000
0000
,  // measure 9
1000
0000
0000
0000
,  // measure 10
0000
0000
0000
0000
,  // measure 11
0001
0000
0000
0000
,  // measure 12
0000
0000
0000
0000
,  // measure 13
1000
0000
0000
0000
,  // measure 14
0000
0000
0000
0000
,  // measure 15
0001
0000
0000
0000
,  // measure 16
0000
0000
0000
0000
,  // measure 17
1001
0000
0000
0000
,  // measure 18
0000
0000
0000
0000
,  // measure 19
0010
0000
0000
0000
,  // measure 20
0000
0000
0000
0000
,  // measure 21
0010
0000
0000
0000
,  // measure 22
0000
0000
0000
0000
,  // measure 23
0100
0000
0000
0000
,  // measure 24
0000
0000
0000
0000
,  // measure 25
0100
0000
0000
0000
,  // measure 26
0000
0000
0000
0000
,  // measure 27
0001
0000
0000
0000
,  // measure 28
0000
0000
0000
0000
,  // measure 29
0100
0000
0000
0000
,  // measure 30
0000
0000
0000
0000
,  // measure 31
0001
0000
0000
0000
,  // measure 32
0000
0000
0000
0000
,  // measure 33
1000
0000
0000
0000
,  // measure 34
0000
0000
0000
0000
,  // measure 35
0100
0000
0000
0000
,  // measure 36
0000
0000
0000
0000
,  // measure 37
1000
0000
0000
0000
,  // measure 38
0000
0000
0000
0000
,  // measure 39
0100
0000
0000
0000
,  // measure 40
0000
0000
0000
0000
,  // measure 41
1001
0000
0000
0000
,  // measure 42
0000
0000
0000
0000
,  // measure 43
0001
0000
0000
0000
,  // measure 44
0000
0000
0000
0000
,  // measure 45
1000
0000
0000
0000
,  // measure 46
0000
0000
0000
0000
,  // measure 47
0001
0000
0000
0000
,  // measure 48
0000
0000
0000
0000
,  // measure 49
1001
0000
0000
0000
,  // measure 50
0000
0000
0000
0000
,  // measure 51
0010
0000
0000
0000
,  // measure 52
0000
0000
0000
0000
,  // measure 53
0100
0000
0000
0000
,  // measure 54
0000
0000
0000
0000
,  // measure 55
0010
0000
0000
0000
;
