#TITLE:CURUS-M;
#SUBTITLE:(ditty);
#ARTIST:Des-crew;
#TITLETRANSLIT:;
#SUBTITLETRANSLIT:;
#ARTISTTRANSLIT:;
#CREDIT:DMAxel;
#BANNER:CURUS-M (ditty).png;
#BACKGROUND:CURUS-M (ditty)-bg.png;
#LYRICSPATH:CURUS-M (ditty).lrc;
#CDTITLE:Konami original REMIX.png;
#MUSIC:CURUS-M (ditty).mp3;
#OFFSET:-0.500;
#SAMPLESTART:42.009;
#SAMPLELENGTH:12.000;
#SELECTABLE:YES;
#BPMS:0.000=92.500,60.000=185.000;
#STOPS:;
#BGCHANGES:;

//---------------dance-single - ----------------
#NOTES:
     dance-single:
     :
     Easy:
     2:
     0.168,0.219,0.116,0.054,0.000: // measure 1
0000
0000
0000
0000
,  // measure 2
0000
0000
0000
0000
,  // measure 3
0000
0000
0000
0000
,  // measure 4
0000
0000
0000
0000
,  // measure 5
1001
0000
1000
0000
,  // measure 6
1000
0000
0001
0000
,  // measure 7
1001
0000
0010
0000
,  // measure 8
0010
0000
0100
0100
,  // measure 9
0200
0000
0300
0000
,  // measure 10
0002
0000
0000
0000
,  // measure 11
2003
0000
0000
0000
,  // measure 12
3020
0000
0000
0000
,  // measure 13
2030
0000
3000
0000
,  // measure 14
0002
0000
1003
1000
,  // measure 15
0002
0000
0003
0000
,  // measure 16
0100
0000
0010
0000
,  // measure 17
0100
0000
0000
0000
,  // measure 18
1001
0000
0001
0000
,  // measure 19
1000
0000
0001
0000
,  // measure 20
1000
0000
0010
0000
,  // measure 21
0010
0000
1000
0000
,  // measure 22
0001
0000
0100
0000
,  // measure 23
0100
0000
0001
0000
,  // measure 24
0010
0000
0001
0000
,  // measure 25
0010
0000
0001
0000
,  // measure 26
1000
0000
0001
0000
,  // measure 27
1000
0000
0100
0000
,  // measure 28
1000
0000
0001
0000
,  // measure 29
1000
0000
0100
0000
,  // measure 30
1000
0000
0001
0000
,  // measure 31
0010
0000
0100
0000
,  // measure 32
1000
0000
0100
0000
,  // measure 33
0010
0000
0001
0000
,  // measure 34
1001
0000
0000
0000
,  // measure 35
0000
0000
0000
0000
,  // measure 36
0000
0000
0000
0000
,  // measure 37
0000
0000
0000
0000
,  // measure 38
1000
0000
0000
0000
,  // measure 39
1000
0000
0000
0000
,  // measure 40
1000
0000
0000
0000
,  // measure 41
1000
0000
0000
0000
,  // measure 42
1001
0000
0001
0000
,  // measure 43
1000
0000
0100
0000
,  // measure 44
1000
0000
0100
0000
,  // measure 45
0010
0000
0001
0000
,  // measure 46
0100
0000
0001
0000
,  // measure 47
0010
0000
0001
0000
,  // measure 48
0100
0000
0010
0000
,  // measure 49
0100
0000
0100
0000
,  // measure 50
0110
0000
0001
0000
,  // measure 51
1000
0000
0100
0000
,  // measure 52
1000
0000
0001
0000
,  // measure 53
0010
0000
0001
0000
,  // measure 54
0010
0000
1001
0000
,  // measure 55
0100
0000
1000
0000
,  // measure 56
0100
0000
0010
0000
,  // measure 57
1001
0000
0000
0000
,  // measure 58
1000
0000
1000
0000
,  // measure 59
0001
0000
1000
0000
,  // measure 60
0001
0000
0010
0000
,  // measure 61
0001
0000
0100
0000
,  // measure 62
0100
0000
0010
0000
,  // measure 63
0100
0000
0001
0000
,  // measure 64
1000
0000
1000
0000
,  // measure 65
1001
0000
0000
0000
,  // measure 66
0001
0000
0001
0000
,  // measure 67
0010
0000
0001
0000
,  // measure 68
0100
0000
0100
0000
,  // measure 69
0010
0000
0100
0000
,  // measure 70
1001
0000
1000
0000
,  // measure 71
1000
0000
0100
0000
,  // measure 72
1000
0000
0010
0000
,  // measure 73
0010
0000
0000
0000
,  // measure 74
0110
0000
0000
0000
,  // measure 75
1000
0000
0000
0000
,  // measure 76
0001
0000
0000
0000
,  // measure 77
1000
0000
0000
0000
,  // measure 78
1001
0000
0000
0000
,  // measure 79
0001
1000
0001
0000
,  // measure 80
1001
0000
0000
0000
,  // measure 81
0110
0000
0000
1001
;

//---------------dance-single - ----------------
#NOTES:
     dance-single:
     :
     Medium:
     5:
     0.309,0.470,0.178,0.109,0.000:
0000
0000
0000
0000
,
0000
0000
0000
0000
,
0000
0000
0000
0000
,
0000
0000
0000
0000
,
0020
0000
0032
0000
0000
0103
0010
1000
,
0100
1000
0100
0010
,
1001
0000
0020
0000
0000
0031
0010
0100
,
1000
0000
0001
0000
1000
0100
0010
0001
,
1001
0010
0100
1000
,
1001
0100
0010
0001
,
1001
0010
0100
1000
,
0001
1000
0100
0010
,
0001
1000
0001
0000
1000
0001
1000
0000
,
0010
0100
0010
0000
0100
0010
0100
0000
,
0001
1000
0001
0000
1000
0001
1000
0000
,
0001
0001
1000
1000
,
0110
0000
0000
0000
,
1001
0010
0001
0000
,
0010
0001
0010
0100
,
1000
0000
0010
1000
,
0010
1000
0100
0010
,
0001
0000
1000
0100
,
1000
0001
0010
0001
,
0100
0000
0010
0000
,
0100
0000
0010
0000
,
1001
0000
0001
0000
,
0010
0001
0010
0100
,
1000
0000
0001
1000
,
0001
1000
0100
0010
,
0001
0000
0100
0010
,
0100
0001
0010
0100
,
1000
0001
1000
0001
,
0100
0010
0100
0010
,
2002
0000
0000
0000
,
0000
0000
0000
0000
,
0000
0000
0000
0000
,
3003
0000
0000
0000
,
0001
0000
0001
0000
,
0001
0000
0001
0000
,
1000
0000
1000
0000
,
1000
0000
1000
0000
,
1001
0000
1000
0000
,
0100
1000
0100
0010
,
0002
0000
0103
0000
,
0001
0010
0100
1000
,
0020
0000
0230
0000
,
0000
0301
1000
0100
,
2000
0000
3020
0000
,
0130
0010
0100
0010
,
1001
0000
0020
0000
,
0000
0031
0010
0100
,
2000
0000
3020
0000
,
1030
0100
0010
0001
,
1000
0000
0002
0000
,
0000
1003
0100
1000
,
0010
1000
0010
1000
,
0100
0100
0100
0100
,
1001
0000
0110
0000
,
0001
1000
0001
0010
,
0100
0000
1000
0000
,
0100
0000
1000
0100
,
0010
0000
0001
1000
,
0001
1000
0010
0100
,
0010
0000
0010
0000
,
0100
0000
0100
0000
,
1001
0000
0011
0000
,
0100
1000
0100
0010
,
0001
0000
1000
0001
,
1000
0001
0010
0100
,
1000
0000
1001
0000
,
1100
0000
0010
0001
,
0010
0000
1001
0000
,
0110
0000
1001
0000
,
0001
0010
0001
0010
,
0001
0010
1000
0010
,
1000
0100
1000
0100
,
0001
0100
0001
0010
,
0001
0010
0001
0010
,
1000
0010
1000
0100
,
1001
0000
0000
1000
0000
0000
0001
0000
,
0110
0000
0000
0110
0000
0000
1001
0000
;

//---------------dance-single - ----------------
#NOTES:
     dance-single:
     :
     Hard:
     7:
     0.526,0.564,0.396,0.295,0.000:
0000
0000
0000
0000
,
0000
0000
0000
0000
,
0000
0000
0000
0000
,
0000
0000
0000
0000
,
0102
0000
2000
0000
3003
0010
1000
0100
,
0020
0000
0032
0000
1003
0010
1000
0001
,
2100
0000
0002
0000
3003
0010
1000
0010
,
0200
0000
0302
0000
0103
0010
0100
0001
,
1000
0100
1000
0100
0010
0001
1000
0000
,
0001
0010
0001
0010
0100
1000
0001
1000
,
0100
0100
1000
0100
0010
0001
1000
0000
,
0001
0001
0010
0001
0010
0100
1000
0000
,
0100
0100
1000
0100
0010
0001
1000
0000
,
0010
0010
1000
0100
0010
0001
0100
0010
,
0100
0001
1000
0010
1000
0000
1000
0000
,
1100
1000
0011
0001
,
1001
1001
1001
0000
,
0001
0000
0010
0100
1000
0010
0100
0000
,
0001
0000
0100
0010
1000
0100
0010
0000
,
0001
0000
1000
0010
0100
0000
0001
0000
,
1001
0000
1000
0100
0010
0001
0100
0000
,
1001
0000
1000
0000
0001
0010
0001
0000
,
0001
0100
0001
0000
1000
0000
1001
0000
,
0100
0010
0001
0100
0010
0000
1000
0000
,
0001
0010
0100
0000
0110
0000
1001
0000
,
1000
0000
0100
0010
0001
0100
0010
0000
,
1000
0000
0001
0000
0010
0100
1000
0010
,
0100
0000
0001
0100
0001
0000
1000
0010
,
1000
0000
0001
0000
0010
0100
1000
0000
,
1001
0000
1000
0100
1000
0000
1000
0010
,
1000
0000
0100
0010
0001
1000
0010
0000
,
0100
0000
0001
1000
0100
0001
0100
0000
,
1100
1001
0101
0101
,
2002
0000
0000
0000
,
0000
0000
0000
0000
,
0000
0000
0000
0000
,
3003
0000
0000
0000
,
0001
0100
0001
0000
,
0001
0100
0001
0000
,
1000
0100
1000
0000
,
1000
0100
1000
0001
,
2200
3300
0202
0000
,
0303
1000
0100
0010
,
0202
0303
2200
0300
,
3001
0010
0100
1000
,
0202
0303
2200
0000
,
3300
0001
0010
0100
,
2020
3030
0022
0030
,
1003
1100
0101
0101
,
2002
3003
0202
0000
,
0303
0001
0010
0100
,
2020
3030
0022
0030
,
1003
0100
0010
0001
,
0220
0330
2020
0000
,
3030
0100
0001
1000
,
0011
1000
0011
1000
,
0001
0100
0010
1000
0001
0100
0010
1000
,
0001
0000
0010
0100
1000
0000
0001
0100
,
0010
1000
0010
0001
0010
1000
0100
0010
,
0001
0000
0100
0000
0001
0010
0100
0000
,
1000
0100
0010
0000
0001
0100
0010
1000
,
0100
0000
1000
0010
0100
0001
0010
1000
,
0010
0001
0010
0100
1000
0000
0001
0000
,
0010
0100
1000
0010
0100
0000
1001
0000
,
0100
0010
0001
0100
0010
0000
1001
0000
,
0010
0100
1000
0000
0011
0000
0100
1000
,
0010
1000
0100
0001
0100
1000
0100
0010
,
0001
0000
0100
0001
1000
0100
0010
0001
,
1000
0000
1001
0000
0100
0010
0001
0000
,
1100
0000
0010
0001
1000
0001
0100
1000
,
0100
0001
0010
0100
1000
0000
0101
0000
,
0110
0110
1001
1010
,
1010
0110
1001
0000
,
1000
0100
0010
0001
1000
0010
0100
0001
,
0100
1000
0100
0001
0010
0100
1000
0000
,
0001
0010
0100
1000
0001
0100
0010
1000
,
0010
0001
0010
1000
0100
0010
0001
0000
,
1000
0010
0100
0001
0100
1000
0100
0001
,
0010
0100
1000
0001
0100
0010
1000
0010
,
0001
0000
0100
0001
0000
0001
1000
0000
,
1000
0010
0100
0001
1000
0000
1001
0000
;

//---------------dance-single - ----------------
#NOTES:
     dance-single:
     :
     Beginner:
     1:
     0.041,0.063,0.008,0.000,0.000:
0000
0000
0000
0000
,
0000
0000
0000
0000
,
0000
0000
0000
0000
,
0000
0000
0000
0000
,
1000
0000
0000
0000
,
0000
0000
0000
0000
,
0001
0000
0000
0000
,
0000
0000
0000
0000
,
0001
0000
0000
0000
,
0000
0000
0000
0000
,
1000
0000
0000
0000
,
0000
0000
0000
0000
,
0001
0000
0000
0000
,
0000
0000
0000
0000
,
1000
0000
0000
0000
,
0010
0000
0000
0000
,
0000
0000
0000
0000
,
0010
0000
0000
0000
,
0000
0000
0000
0000
,
0000
0000
0000
0000
,
0000
0000
0000
0000
,
1000
0000
0000
0000
,
0000
0000
0000
0000
,
0000
0000
0000
0000
,
0000
0000
0000
0000
,
0001
0000
0000
0000
,
0000
0000
0000
0000
,
0100
0000
0000
0000
,
0000
0000
0000
0000
,
0100
0000
0000
0000
,
0000
0000
0000
0000
,
0001
0000
0000
0000
,
0000
0000
0000
0000
,
1000
0000
0000
0000
,
0000
0000
0000
0000
,
0000
0000
0000
0000
,
0000
0000
0000
0000
,
1000
0000
0000
0000
,
0000
0000
0000
0000
,
0000
0000
0000
0000
,
0000
0000
0000
0000
,
1000
0000
0000
0000
,
0000
0000
0000
0000
,
0001
0000
0000
0000
,
0000
0000
0000
0000
,
1000
0000
0000
0000
,
0000
0000
0000
0000
,
0001
0000
0000
0000
,
0000
0000
0000
0000
,
1000
0000
0000
0000
,
0000
0000
0000
0000
,
1000
0000
0000
0000
,
0000
0000
0000
0000
,
0001
0000
0000
0000
,
0000
0000
0000
0000
,
0001
0000
0000
0000
,
0000
0000
0000
0000
,
1000
0000
0000
0000
,
0000
0000
0000
0000
,
0100
0000
0000
0000
,
0000
0000
0000
0000
,
1000
0000
0000
0000
,
0000
0000
0000
0000
,
0001
0000
0000
0000
,
0000
0000
0000
0000
,
0010
0000
0000
0000
,
0000
0000
0000
0000
,
0001
0000
0000
0000
,
0000
0000
0000
0000
,
0001
0000
0000
0000
,
0000
0000
0000
0000
,
1000
0000
0000
0000
,
0000
0000
0000
0000
,
1000
0000
0000
0000
,
0000
0000
0000
0000
,
0001
0000
0000
0000
,
0000
0000
0000
0000
,
1000
0000
0000
0000
,
0000
0000
0000
0000
,
0001
0000
0000
0000
,
0000
0000
0000
1001
;

//---------------dance-single - ----------------
#NOTES:
     dance-single:
     :
     Challenge:
     9:
     0.636,0.908,0.675,0.047,0.186:
0000
0000
0000
0000
,
0000
0000
0000
0000
,
0000
0000
0000
0000
,
0000
0000
0000
0000
,
1010
0000
1000
0001
0010
0000
0001
1000
0000
1000
0010
0100
0010
1000
0001
0000
,
0101
0000
0001
1000
0100
0000
1000
0010
0100
0010
0100
0010
1000
0001
0010
0000
,
1100
0000
1000
0001
0100
0000
0001
1000
0000
1000
0010
0100
0010
1000
0001
0000
,
0011
0000
0001
1000
0010
0000
1000
0010
0100
0001
0100
0010
0100
0010
0100
0001
,
1000
0100
0001
0100
1000
0010
0110
0000
,
0001
0010
1000
0010
0001
0100
0110
0010
,
1000
0100
0001
0100
1000
0010
0110
0000
,
0001
0010
1000
0010
0001
0100
0110
0010
,
1000
0100
1000
0000
0010
0000
1000
0000
0001
0010
0001
0000
1001
0000
0000
0000
,
0001
0010
0001
0000
0100
0000
0001
0000
1000
0100
1000
0000
1001
0000
0000
0000
,
0001
0100
0001
0000
0010
0000
0001
0000
1000
0100
1000
0000
1001
0000
1000
0000
,
1010
1010
0011
0011
,
1001
1001
1001
1100
,
0010
0001
0010
0001
1000
0100
0010
0001
,
0100
1000
0100
0000
1010
0000
0011
0000
,
1001
0000
0010
1000
0010
1000
0100
0001
,
0100
0010
0100
0000
0101
0000
1100
0000
,
1001
0000
0100
0001
0100
0001
0010
1000
,
0010
0100
0010
0000
0011
0000
1010
0000
,
1001
0000
0100
0001
0010
0001
0010
0001
,
1000
0010
0100
0001
0100
0010
1000
0000
,
0100
1000
0100
1000
0001
0010
0100
1000
,
0010
0001
0010
0000
0101
0000
1100
0000
,
1001
0000
0100
0001
0100
0001
0010
1000
,
0010
0100
0010
0000
1010
0000
0011
0000
,
1001
0000
0010
1000
0010
1000
0100
0001
,
0100
0010
0100
0000
0101
0000
1100
0000
,
1001
0000
0010
1000
0100
1000
0100
0001
,
0010
0000
0001
0000
0100
0000
0010
1000
0010
0000
0100
0001
0100
0000
0010
0000
,
2001
0000
0001
0000
,
0001
0000
0001
0000
,
3002
0000
1000
0000
,
1000
0000
1000
0000
,
1003
0010
0100
0001
,
0001
0100
0010
1000
,
1000
0100
0010
0001
,
0001
0000
0100
0001
0100
0001
1000
0000
,
1100
0000
1000
0001
0100
0000
0001
1000
,
0000
1000
0010
0100
0010
0100
0001
0000
,
0011
0000
0001
1000
0010
0000
1000
0001
,
0000
0001
0100
0010
0100
0010
1000
0000
,
1010
0000
1000
0001
0010
0000
0001
1000
,
0000
1000
0010
0100
0010
0100
0001
0000
,
0101
0000
0001
1000
0200
0000
0000
0000
,
1300
0000
1000
0010
0000
0100
0001
0000
1000
0010
0000
0100
,
0002
0000
0000
0000
0103
0000
0010
1000
,
0000
1000
0001
0100
0010
0100
0001
0000
,
2010
0000
0000
0000
3010
0000
0100
0001
,
0000
0001
1000
0010
0100
0010
1000
0000
,
0102
0000
0000
0000
0103
0000
0010
1000
,
0000
1000
0001
0100
0010
0100
0001
0000
,
0110
1001
0110
1001
,
0001
0000
0100
0000
0010
0000
1000
0000
0001
0000
0100
0010
0100
0000
0000
0000
,
1001
0000
0100
0010
0001
0100
0010
0100
,
0001
0010
0100
1000
0100
0001
0100
0000
,
1001
0000
1000
0010
0100
0000
0001
0100
,
0010
1010
0011
1010
,
1001
0000
0010
0100
1000
0010
0100
0010
,
1000
0100
0010
0001
0010
1000
0010
0000
,
1001
0000
0001
0100
0010
0000
1000
0010
,
0100
0101
1100
0101
,
1001
0000
0010
0100
1000
0100
0001
0100
,
0010
1000
0100
0001
0100
1000
0100
0010
,
0001
0000
1000
0010
0100
0000
0001
0100
,
0010
1010
0011
1010
,
1001
0000
0100
0010
0001
0010
1000
0010
,
0100
0001
0010
0100
1000
0000
1010
0000
,
1001
1010
1001
0101
,
1001
0101
1001
0000
,
0001
0100
0000
0000
0101
0000
0000
0000
1000
0010
0000
0000
1010
0000
0000
0000
,
0001
0100
0000
0000
0101
0000
0000
0000
1000
0010
0000
0000
1010
0000
0000
0000
,
0001
0010
0000
0000
0011
0000
0000
0000
1000
0100
0000
0000
1100
0000
0000
0000
,
0001
0010
0000
0000
0011
0000
0000
0000
1000
0100
0000
0000
1100
0000
0000
0000
,
0001
0100
0000
0000
0101
0000
0000
0000
1000
0010
0000
0000
1010
0000
0000
0000
,
0001
0100
0000
0000
0101
0000
0000
0000
1000
0010
0000
0000
1010
0000
0000
0000
,
1001
0000
0010
1010
0000
0100
0101
0000
,
0010
0100
0010
0000
0100
0000
0001
1000
0001
0000
1000
0000
0110
0000
0000
0000
;
