#TITLE:CLOUD;
#SUBTITLE:;
#ARTIST:WORLD SEQUENCE;
#TITLETRANSLIT:;
#SUBTITLETRANSLIT:;
#ARTISTTRANSLIT:;
#CREDIT:DMAxel;
#BANNER:CLOUD.png;
#BACKGROUND:CLOUD-bg.png;
#LYRICSPATH:;
#CDTITLE:ee'mall.png;
#MUSIC:CLOUD.mp3;
#OFFSET:-0.240;
#SAMPLESTART:40.213;
#SAMPLELENGTH:12.000;
#SELECTABLE:YES;
#BPMS:0.000=180.000;
#STOPS:;
#BGCHANGES:;

//---------------dance-single - ----------------
#NOTES:
     dance-single:
     :
     Easy:
     3:
     0.216,0.286,0.128,0.000,0.000: // measure 1
0000
0000
0000
0000
,  // measure 2
0000
0000
0000
0000
,  // measure 3
0000
0000
0000
0000
,  // measure 4
0000
0000
0000
0000
,  // measure 5
0000
0000
0000
0000
,  // measure 6
0000
0000
0000
0000
,  // measure 7
1000
0000
0000
0001
,  // measure 8
0000
0000
1000
0000
,  // measure 9
0000
0010
0000
0000
,  // measure 10
0100
0000
0000
0001
,  // measure 11
0000
0000
1000
0000
,  // measure 12
0000
0001
0000
0000
,  // measure 13
1001
0000
0000
1000
,  // measure 14
0000
0000
0100
0000
,  // measure 15
0000
1000
0000
0000
,  // measure 16
0001
0000
0000
0010
,  // measure 17
0000
0000
0010
0000
,  // measure 18
0000
0000
0000
0000
,  // measure 19
1001
0000
0000
1000
,  // measure 20
0000
0000
1100
0000
,  // measure 21
0000
1000
0000
0000
,  // measure 22
1001
0000
0000
0001
,  // measure 23
0000
0000
0011
0000
,  // measure 24
0000
0001
0000
0000
,  // measure 25
1001
0000
0000
1000
,  // measure 26
0000
0000
1010
0000
,  // measure 27
0000
1000
0000
0000
,  // measure 28
1001
0000
0000
0001
,  // measure 29
0000
0000
0101
0000
,  // measure 30
0000
0000
0000
0000
,  // measure 31
1001
0000
0000
0001
,  // measure 32
0010
0001
1000
0000
,  // measure 33
0000
0001
1000
0100
,  // measure 34
1000
0000
0000
0001
,  // measure 35
0010
0001
1000
0000
,  // measure 36
0000
0001
1000
0100
,  // measure 37
1000
0000
0000
1000
,  // measure 38
0100
0010
0001
0000
,  // measure 39
0000
0001
0010
0100
,  // measure 40
1000
0000
0000
1000
,  // measure 41
0001
0100
0010
0000
,  // measure 42
0010
0100
0010
0000
,  // measure 43
1001
0000
1000
0100
,  // measure 44
0010
0001
0010
0000
,  // measure 45
0001
0010
0100
1000
,  // measure 46
0010
0000
1000
0100
,  // measure 47
0010
0001
0100
0000
,  // measure 48
0000
0100
0010
0100
,  // measure 49
1001
0000
0000
1000
,  // measure 50
0000
0000
0100
0000
,  // measure 51
0000
0010
0000
0000
,  // measure 52
0001
0000
0000
0010
,  // measure 53
0000
0000
1001
0000
,  // measure 54
0000
0000
0000
0000
,  // measure 55
0001
0010
0001
0100
,  // measure 56
0000
0000
0010
1000
,  // measure 57
0100
1000
0000
0000
,  // measure 58
1000
0000
0000
0001
,  // measure 59
0000
0000
1000
0000
,  // measure 60
0000
0010
0100
0010
,  // measure 61
0100
0000
0000
0001
,  // measure 62
0000
0000
0010
0000
,  // measure 63
0000
0100
0000
0000
,  // measure 64
1001
0000
0000
1000
,  // measure 65
0000
0000
0100
0000
,  // measure 66
0000
0010
0000
0000
,  // measure 67
1001
0000
0001
1000
,  // measure 68
0000
1000
0010
0000
,  // measure 69
0010
0100
0000
0100
,  // measure 70
0001
0000
0001
0010
,  // measure 71
0000
0010
0100
0000
,  // measure 72
0100
1000
0001
1000
,  // measure 73
0100
0000
0100
0010
,  // measure 74
0000
0010
0001
0000
,  // measure 75
0001
0100
0000
0100
,  // measure 76
0010
0000
0010
1000
,  // measure 77
0000
0000
1000
0001
,  // measure 78
1000
0100
0000
0000
,  // measure 79
1000
0001
1000
0001
,  // measure 80
0010
0000
0000
0001
,  // measure 81
1000
0001
1000
0100
,  // measure 82
0000
1000
0001
1000
,  // measure 83
0001
0100
0000
0001
,  // measure 84
1000
0001
1000
0010
;

//---------------dance-single - ----------------
#NOTES:
     dance-single:
     :
     Medium:
     6:
     0.407,0.430,0.273,0.077,0.000: // measure 1
0000
0000
0000
0000
,  // measure 2
0000
0000
0000
0000
,  // measure 3
0000
0000
0000
0000
,  // measure 4
0000
0000
0000
0000
,  // measure 5
0000
0000
0000
0000
,  // measure 6
0000
0000
0000
0000
,  // measure 7
1001
0000
1000
0010
,  // measure 8
1000
1000
0001
0000
,  // measure 9
0001
0100
0001
0001
,  // measure 10
1000
0000
0000
1000
0000
0000
0010
0000
,  // measure 11
0010
1000
0001
0000
,  // measure 12
0001
0010
0100
0100
,  // measure 13
1001
0000
1000
0010
,  // measure 14
0010
0100
0001
0000
,  // measure 15
0001
0100
0100
0010
,  // measure 16
1000
0000
0000
0001
0000
0000
0100
0000
,  // measure 17
0010
0000
0100
0000
0001
0000
0000
1000
,  // measure 18
0000
0010
0100
0010
,  // measure 19
1001
0000
0000
0001
0100
0000
0010
0000
,  // measure 20
0100
0000
0010
0000
1001
0000
0000
1000
,  // measure 21
0010
0100
0010
0100
,  // measure 22
1001
0000
0000
0001
0100
0000
0010
0000
,  // measure 23
0100
0000
0010
0000
1001
0000
0000
1000
,  // measure 24
0000
0001
0010
0100
,  // measure 25
1001
0000
0000
0001
0010
0000
0100
0000
,  // measure 26
0010
0000
0100
0000
1001
0000
0000
1000
,  // measure 27
0000
0001
0010
0100
,  // measure 28
1001
0000
0000
0001
0000
0000
1000
0000
,  // measure 29
0100
0010
0001
1000
,  // measure 30
0110
0110
0000
0000
,  // measure 31
1001
0000
0000
1000
0010
0000
1000
0000
,  // measure 32
0100
0000
1000
0000
0011
0000
0000
0001
,  // measure 33
0100
0001
0010
0001
,  // measure 34
1100
0000
0000
1000
0100
0000
1000
0000
,  // measure 35
0010
0000
1000
0000
0101
0000
0000
0001
,  // measure 36
0010
0001
0100
0001
,  // measure 37
1010
0000
0000
1000
0001
0000
0100
0000
,  // measure 38
0010
0000
1000
0000
1001
0000
0000
0001
,  // measure 39
1000
0010
0100
0001
,  // measure 40
1001
0000
0000
1000
0001
0000
0010
0000
,  // measure 41
1000
0000
0001
0000
1001
0000
0000
0001
,  // measure 42
0000
0100
0110
0000
,  // measure 43
1001
0000
0000
0001
1000
0000
1100
0000
,  // measure 44
0000
1000
0001
0000
0011
0000
0000
0001
,  // measure 45
1000
1010
0100
0001
,  // measure 46
0101
0000
0000
0001
1000
0000
0011
0000
,  // measure 47
0100
0000
1000
0000
0110
0000
0000
1000
,  // measure 48
0000
0010
0100
0001
,  // measure 49
1001
0000
0000
1000
0001
0000
0011
0000
,  // measure 50
0000
0001
1000
0000
1100
0000
0010
0000
,  // measure 51
0001
0000
1000
0001
1000
0000
0001
0000
,  // measure 52
0100
0000
0000
0010
0000
0000
1000
0000
,  // measure 53
0100
0000
0010
0000
0001
1000
0001
0000
,  // measure 54
0100
0110
0000
0000
,  // measure 55
1000
0000
0010
0100
0010
0000
2000
0000
,  // measure 56
0000
0000
3000
0000
0001
0000
0100
0010
,  // measure 57
0100
0002
0000
0003
,  // measure 58
2000
0000
0000
0000
3010
0100
0010
0000
,  // measure 59
1000
0010
0002
0000
,  // measure 60
0103
0010
0100
0000
0001
0000
0100
0000
,  // measure 61
2000
0000
3010
0200
,  // measure 62
0000
0000
0301
0000
0020
0000
0000
0001
,  // measure 63
0000
0031
1000
0000
,  // measure 64
0010
0000
0010
0000
1000
0001
1000
0000
,  // measure 65
0100
0000
0010
0000
0001
0000
0000
1000
,  // measure 66
0000
0001
0010
0100
,  // measure 67
1001
0000
0000
0010
1000
0000
1000
0000
,  // measure 68
0000
0100
0001
0000
0001
0000
0000
0100
,  // measure 69
1000
0000
1000
0000
0000
0010
0001
0000
,  // measure 70
0001
0000
0000
0010
1000
0000
1000
0000
,  // measure 71
0000
0010
0001
0000
0001
0000
0000
0010
,  // measure 72
1000
1000
0100
0010
,  // measure 73
0001
0000
0000
0010
1000
0000
1000
0000
,  // measure 74
0000
0010
0001
0000
0001
0000
0000
0100
,  // measure 75
1000
0000
1000
0001
1000
0000
0010
0000
,  // measure 76
0200
0000
0301
1000
,  // measure 77
0100
0001
0100
1000
,  // measure 78
0010
0200
0000
0000
,  // measure 79
0301
0000
1000
0001
0000
1000
0001
0000
,  // measure 80
0010
0000
0100
0000
1000
0000
0001
1000
,  // measure 81
0000
0001
1000
0000
0100
0000
0010
0000
,  // measure 82
0001
0000
1000
0001
0000
1000
0001
0000
,  // measure 83
0010
0000
0100
0000
1000
0000
0010
0100
,  // measure 84
0000
0010
0100
0000
0001
0000
0100
0001
;

//---------------dance-single - ----------------
#NOTES:
     dance-single:
     :
     Hard:
     7:
     0.559,0.609,0.650,0.034,0.000: // measure 1
0000
0000
0000
0000
,  // measure 2
0000
0000
0000
0000
,  // measure 3
0000
0000
0000
0000
,  // measure 4
0000
0000
0000
0000
,  // measure 5
0000
0000
0000
0000
,  // measure 6
0000
0000
0000
0000
,  // measure 7
1001
0000
0000
1000
0010
1000
0100
0000
,  // measure 8
1001
0000
0100
0000
1001
0000
0000
0001
,  // measure 9
0100
0001
0010
0000
1001
0000
0010
0000
,  // measure 10
1001
0000
0000
0001
0000
0001
0100
0000
,  // measure 11
1001
0000
0100
0000
1001
0000
0000
1000
,  // measure 12
0100
1000
0010
0000
1001
0000
0010
0000
,  // measure 13
1001
0000
0000
0010
0100
0010
1000
0000
,  // measure 14
0110
0000
0001
0000
0110
0000
0000
0100
,  // measure 15
0010
0100
0001
0000
0110
0000
1000
0000
,  // measure 16
0110
0000
0000
0001
0000
1000
0010
0000
,  // measure 17
1001
0000
0010
0000
1001
0000
0000
1000
,  // measure 18
0000
0001
0100
0000
0110
0000
0000
0000
,  // measure 19
1001
0000
0010
1000
0010
1000
0100
0000
,  // measure 20
0011
0000
0100
0000
0011
0000
0000
0100
,  // measure 21
0001
0100
0010
0000
1100
0000
0010
0000
,  // measure 22
1100
0000
0000
0010
1000
0010
0100
0000
,  // measure 23
0011
0000
0100
0000
0011
0000
0000
0001
,  // measure 24
0000
1000
0100
0000
1010
0000
0011
0000
,  // measure 25
1001
0000
0100
0001
0100
0001
0010
0000
,  // measure 26
1100
0000
0010
0000
1100
0000
0000
0001
,  // measure 27
0000
0001
0100
0010
0100
0000
1010
0000
,  // measure 28
1001
0000
0000
1000
0000
0001
0100
0000
,  // measure 29
1010
0000
0011
0000
0001
1000
0001
1000
,  // measure 30
0100
0010
0001
0100
0100
0000
0000
0000
,  // measure 31
1001
0000
0001
0100
0001
1000
0010
0000
,  // measure 32
0110
0000
1001
0000
0110
0000
1000
0010
,  // measure 33
1000
0001
0100
0000
0110
0000
1001
0000
,  // measure 34
0110
0000
0001
1000
0001
0010
0100
0000
,  // measure 35
1010
0000
0101
0000
0110
0000
1000
0001
,  // measure 36
1000
0100
0010
0000
0101
0000
1010
0000
,  // measure 37
0110
0000
0001
0010
0001
1000
0100
0000
,  // measure 38
0011
0000
1100
0000
1001
0000
1000
0100
,  // measure 39
1000
0001
0010
0000
1100
0000
0011
0000
,  // measure 40
1001
0000
0001
0100
0001
1000
0010
0000
,  // measure 41
0101
0000
1010
0000
1001
0000
1000
0001
,  // measure 42
0000
0001
0100
0010
0100
0010
0100
0000
,  // measure 43
1001
0000
0000
1000
0010
0100
0001
0000
,  // measure 44
0000
0001
1000
0000
1100
0000
0000
0001
,  // measure 45
0100
0010
1000
0000
0000
1000
0001
0000
,  // measure 46
0011
0000
0000
1000
0010
0100
0001
0000
,  // measure 47
0000
0001
1000
0000
1010
0000
0000
0001
,  // measure 48
0100
0010
1000
0000
1010
0000
1010
0000
,  // measure 49
1001
0000
0000
0001
0010
0100
1000
0000
,  // measure 50
1000
0010
0100
0000
0101
0000
1000
0100
,  // measure 51
0000
0010
0001
0010
0001
0100
0010
0000
,  // measure 52
1010
0000
0000
0001
0010
0100
1000
0000
,  // measure 53
1000
0010
0100
0000
0001
1000
0001
0000
,  // measure 54
0101
1001
0000
0000
,  // measure 55
0001
0010
0100
1000
0010
0000
0020
0000
,  // measure 56
0000
0000
0130
0000
1000
0100
0010
0001
,  // measure 57
0100
0100
0001
0000
,  // measure 58
1002
0000
0000
0000
0013
0100
1000
0000
,  // measure 59
0001
0001
2000
0000
,  // measure 60
3100
0010
0001
0000
1000
0000
1000
0000
,  // measure 61
1001
0100
1000
0100
,  // measure 62
0001
0010
1000
0100
,  // measure 63
0001
0000
1000
0001
1000
0000
0000
0000
,  // measure 64
0010
0000
0110
0000
1000
0100
0010
0001
,  // measure 65
0100
0001
0100
0000
0002
0000
0000
1000
,  // measure 66
0000
1003
0100
0010
,  // measure 67
1001
0000
0000
0001
0100
0010
1000
0000
,  // measure 68
0000
1000
0010
0100
0001
0000
0000
0001
,  // measure 69
0010
0100
1000
0000
0000
1000
0100
0010
,  // measure 70
0001
0000
0000
0001
0100
0010
1000
0000
,  // measure 71
0000
1000
0100
0010
0001
0000
0000
0001
,  // measure 72
0010
0100
1000
0000
1100
0000
0011
0000
,  // measure 73
1001
0000
0000
1000
0010
0100
0001
0000
,  // measure 74
0000
0001
0010
0100
1000
0000
0000
1000
,  // measure 75
0010
0100
0001
1000
0001
0000
0011
0000
,  // measure 76
1001
0000
0000
1000
0010
0100
0001
0000
,  // measure 77
0001
0000
0010
0100
1000
0001
1000
0000
,  // measure 78
1100
1001
0000
0000
,  // measure 79
1000
0000
1000
0010
0000
0010
0100
0001
,  // measure 80
0100
0000
0100
0000
0001
0000
0001
0100
,  // measure 81
0000
0100
0010
1000
0010
0000
0010
0000
,  // measure 82
1000
0000
1000
0010
0000
0010
1000
0010
,  // measure 83
0100
0000
0100
0000
0001
0000
0001
0100
,  // measure 84
0000
0100
0010
1000
0010
0000
0010
0100
;

//---------------dance-single - ----------------
#NOTES:
     dance-single:
     :
     Beginner:
     1:
     0.073,0.143,0.043,0.000,0.000: // measure 1
0000
0000
0000
0000
,  // measure 2
0000
0000
0000
0000
,  // measure 3
0000
0000
0000
0000
,  // measure 4
0000
0000
0000
0000
,  // measure 5
0000
0000
0000
0000
,  // measure 6
0000
0000
0000
0000
,  // measure 7
0001
0000
0000
1000
,  // measure 8
0000
0000
0000
0000
,  // measure 9
0000
1000
0000
0000
,  // measure 10
0000
0000
0000
0001
,  // measure 11
0000
0000
0000
0000
,  // measure 12
0000
1000
0000
0000
,  // measure 13
0010
0000
0000
0100
,  // measure 14
0000
0000
0000
0000
,  // measure 15
0000
0100
0000
0000
,  // measure 16
0000
0000
0000
0010
,  // measure 17
0000
0000
0000
1000
,  // measure 18
0000
0000
0000
0000
,  // measure 19
1001
0000
0000
0000
,  // measure 20
0000
0000
1000
0000
,  // measure 21
0000
0000
0000
0000
,  // measure 22
0001
0000
0000
0000
,  // measure 23
0000
0000
1000
0000
,  // measure 24
0000
0000
0000
0000
,  // measure 25
0100
0000
0000
0000
,  // measure 26
0000
0000
0010
0000
,  // measure 27
0000
0000
0000
0000
,  // measure 28
0100
0000
0000
0000
,  // measure 29
0000
0000
0010
0000
,  // measure 30
0000
0000
0000
0000
,  // measure 31
1001
0000
0000
0001
,  // measure 32
0000
0000
0000
1000
,  // measure 33
0000
0000
0000
0000
,  // measure 34
0000
0001
0000
0000
,  // measure 35
0000
0000
1000
0000
,  // measure 36
0000
0000
0000
0000
,  // measure 37
0010
0000
0000
0000
,  // measure 38
0000
0000
0100
0000
,  // measure 39
0000
0000
0000
0000
,  // measure 40
0010
0000
0000
0000
,  // measure 41
0000
0000
0100
0000
,  // measure 42
0000
0000
0000
0000
,  // measure 43
1001
0000
0000
1000
,  // measure 44
0000
0000
0000
0000
,  // measure 45
0000
0001
0000
0000
,  // measure 46
0000
0000
0000
1000
,  // measure 47
0000
0000
0000
0000
,  // measure 48
0000
0001
0000
0000
,  // measure 49
0100
0000
0000
0000
,  // measure 50
0000
0000
0010
0000
,  // measure 51
0000
0000
0000
0000
,  // measure 52
0100
0000
0000
0000
,  // measure 53
0000
0000
0010
0000
,  // measure 54
0000
0000
0000
0000
,  // measure 55
1001
0000
0000
0000
,  // measure 56
0000
0000
0000
0000
,  // measure 57
0000
0000
0000
0000
,  // measure 58
1000
0000
0000
0000
,  // measure 59
0000
0000
0000
0000
,  // measure 60
0000
0000
0000
0000
,  // measure 61
1001
0000
0000
0000
,  // measure 62
0000
0000
1000
0000
,  // measure 63
0000
0000
0000
0000
,  // measure 64
0001
0000
0000
0000
,  // measure 65
0000
0000
1000
0000
,  // measure 66
0000
0000
0000
0000
,  // measure 67
0010
0000
0000
0000
,  // measure 68
0000
0000
0010
0000
,  // measure 69
0000
0000
0000
0000
,  // measure 70
0010
0000
0000
0000
,  // measure 71
0000
0000
0010
0000
,  // measure 72
0000
0000
0000
0000
,  // measure 73
0100
0000
0000
0000
,  // measure 74
0000
0000
0100
0000
,  // measure 75
0000
0000
0000
0000
,  // measure 76
0100
0000
0000
0000
,  // measure 77
0000
0000
0001
0000
,  // measure 78
0000
0000
0000
0000
,  // measure 79
1000
0000
0000
0000
,  // measure 80
0000
0000
0001
0000
,  // measure 81
0000
0000
0000
0000
,  // measure 82
1000
0000
0000
0000
,  // measure 83
0000
0000
0001
0000
,  // measure 84
0000
0000
0000
0100
;

//---------------dance-single - ----------------
#NOTES:
     dance-single:
     :
     Challenge:
     8:
     0.641,0.609,0.043,0.316,0.000: // measure 1
0000
0000
0000
0000
,  // measure 2
0000
0000
0000
0000
,  // measure 3
0000
0000
0000
0000
,  // measure 4
0000
0000
0000
0000
,  // measure 5
0000
0000
0000
0000
,  // measure 6
0000
0000
0000
0000
,  // measure 7
2000
0000
0000
3001
0010
0100
1000
0000
,  // measure 8
2010
0000
0001
0000
3001
0000
0000
1000
,  // measure 9
0100
0010
0001
0000
0102
0000
1000
0000
,  // measure 10
1003
0000
0000
0010
0000
1000
0001
0010
,  // measure 11
0100
1000
0010
0000
0010
0000
0000
1000
,  // measure 12
0100
0010
0001
1000
0001
1000
0100
0010
,  // measure 13
0002
0000
0000
1003
0100
0010
0001
1000
,  // measure 14
0002
0000
0100
0000
0103
0000
0000
0001
,  // measure 15
0010
0100
1000
0001
1000
0001
0100
0000
,  // measure 16
0100
0000
0000
0010
0000
0010
1000
0100
,  // measure 17
0010
0001
0100
0000
0100
0000
0001
1000
,  // measure 18
0000
1000
0010
0100
0010
1000
0100
0010
,  // measure 19
0001
0000
0100
0001
0100
0001
0020
0000
,  // measure 20
1000
0000
1030
0010
0001
0000
0010
1000
,  // measure 21
0010
1000
0200
0000
0001
0000
0301
0100
,  // measure 22
1000
0000
0010
0001
0010
0001
0200
0000
,  // measure 23
1000
0000
1300
0100
0001
0000
0100
0010
,  // measure 24
0000
0010
1000
0000
0100
1000
0100
0010
,  // measure 25
0001
1000
0010
1000
0010
1000
0200
0000
,  // measure 26
0001
0000
0301
0010
1000
0000
0010
0100
,  // measure 27
0000
0100
0001
0010
0001
1000
0001
0000
,  // measure 28
0002
0000
0000
1000
0000
1003
0010
0000
,  // measure 29
0100
0010
0100
0001
1000
0001
1000
0001
,  // measure 30
0010
0100
1000
0010
0010
1000
0100
0010
,  // measure 31
0002
0000
1003
0010
1000
0001
0100
0010
,  // measure 32
0100
0010
0100
0010
2000
0000
3001
1000
,  // measure 33
0001
0010
0200
0000
1000
0000
1300
0001
,  // measure 34
1000
0000
1000
0001
1000
0100
0020
0000
,  // measure 35
0001
0000
0031
1000
0001
0000
0001
1000
,  // measure 36
0001
0010
0100
1000
0100
1000
0100
0010
,  // measure 37
0002
0000
1003
0100
0010
0001
0100
0010
,  // measure 38
0100
0010
2000
0000
0001
0000
3001
0010
,  // measure 39
0100
1000
0010
0100
0010
0100
0002
0000
,  // measure 40
1000
0000
1003
0010
0100
0001
0100
0010
,  // measure 41
0100
0010
2000
0000
0001
0000
3001
0100
,  // measure 42
0000
0100
0001
0100
0010
1000
0100
0010
,  // measure 43
0002
0000
0000
1003
0010
0100
0001
0000
,  // measure 44
0010
0100
2000
0000
0010
0000
0000
3001
,  // measure 45
0100
0010
1000
0000
0100
0010
0002
0000
,  // measure 46
0100
0000
0000
1003
0100
0010
0001
0000
,  // measure 47
0100
0010
2000
0000
0100
0000
3100
0010
,  // measure 48
0000
0001
1000
0010
1000
0010
1000
0100
,  // measure 49
0020
0000
0000
0031
0100
0010
1000
0000
,  // measure 50
0100
0010
0001
0000
0001
0010
0100
1000
,  // measure 51
0000
1000
0001
0100
0001
1000
0100
0010
,  // measure 52
0002
0000
0000
1003
0010
0100
0001
0000
,  // measure 53
0010
0100
1000
0001
1000
0001
1000
0100
,  // measure 54
0010
0001
0100
0100
0001
0010
0100
0000
,  // measure 55
1000
0100
0010
0001
0100
0010
0200
0000
,  // measure 56
0001
0000
0301
0000
0001
0010
0100
1000
,  // measure 57
0010
0100
0010
1000
0020
0000
0000
0000
,  // measure 58
2030
0000
0000
0000
3100
0010
0001
1000
,  // measure 59
0020
0000
1000
0000
2030
0000
0000
3001
,  // measure 60
0010
0100
1000
0010
1000
0001
0010
0100
,  // measure 61
2000
0000
0001
0000
3001
0100
0020
0000
,  // measure 62
0100
0000
0130
0001
2000
0000
0001
0000
,  // measure 63
3001
0100
0010
0100
0002
0000
0000
0000
,  // measure 64
1003
0010
1000
0000
0001
0100
0001
1000
,  // measure 65
0100
0010
0001
1000
0010
0000
0010
0100
,  // measure 66
0000
0100
0001
1000
0001
1000
0100
0010
,  // measure 67
0001
0000
1000
0100
0010
0100
1000
0001
,  // measure 68
1000
0001
0010
0100
0010
0000
0001
0010
,  // measure 69
0100
0010
0001
1000
0001
1000
0100
0010
,  // measure 70
0100
0000
1000
0010
0100
0010
1000
0100
,  // measure 71
0010
0001
0010
0100
0010
0000
0001
0100
,  // measure 72
0010
0100
0001
0000
0101
0000
0101
0000
,  // measure 73
1001
0000
0100
0010
0001
0010
1000
0010
,  // measure 74
0001
0010
0100
1000
0001
0000
0010
0100
,  // measure 75
1000
0100
0001
0100
1000
0100
0010
0001
,  // measure 76
1000
0000
1000
0001
0100
0010
1000
0010
,  // measure 77
0001
0010
1000
0010
0001
0010
0200
0000
,  // measure 78
1000
1300
0000
0000
,  // measure 79
0001
0100
0010
0100
0000
0100
0001
0010
,  // measure 80
0200
0000
1000
0000
1300
0010
0100
0010
,  // measure 81
0000
0010
1000
0100
0020
0000
0001
0000
,  // measure 82
0031
0100
0010
0100
0000
0100
0001
0010
,  // measure 83
0200
0000
1000
0000
1300
0010
0100
0010
,  // measure 84
0000
0010
1000
0100
0010
0001
0010
1000
;
