#TITLE:CHICKEN CHASER;
#SUBTITLE:;
#ARTIST:V.C.O.;
#TITLETRANSLIT:;
#SUBTITLETRANSLIT:;
#ARTISTTRANSLIT:;
#CREDIT:DMAxel;
#BANNER:CHICKEN CHASER.png;
#BACKGROUND:CHICKEN CHASER-bg.png;
#LYRICSPATH:;
#CDTITLE:pop'n music.png;
#MUSIC:CHICKEN CHASER.mp3;
#OFFSET:-0.040;
#SAMPLESTART:30.734;
#SAMPLELENGTH:12.000;
#SELECTABLE:YES;
#BPMS:0.000=170.000;
#STOPS:;
#BGCHANGES:;

//---------------dance-single - ----------------
#NOTES:
     dance-single:
     :
     Easy:
     2:
     0.140,0.241,0.009,0.128,0.000:
0000
0000
0000
0000
,
0000
0000
0000
0000
,
0000
0000
0000
0000
,
0000
0000
0000
0000
,
0000
0000
0000
0000
,
0000
0000
0000
0001
,
0000
1000
0000
0001
,
0000
1000
0000
0000
,
0000
0000
0000
0000
,
0000
0000
0000
0010
,
0000
0100
0000
0010
,
0000
0100
0000
0000
,
0000
0000
0000
0000
,
0000
0000
0000
0001
,
0000
0000
0000
0000
,
0000
0000
0000
1000
,
0000
0000
0000
0000
,
0000
0001
0000
0001
,
0000
1000
0000
0001
,
0000
0000
0000
1000
,
0000
0001
0000
1000
,
0000
0000
0000
0010
,
0000
0100
0000
0010
,
0000
0100
0000
0001
,
0000
0000
0000
0000
,
0000
0000
0000
1000
,
0000
0001
0000
1000
,
0000
0001
0000
0100
,
0000
0000
0000
0000
,
0000
0000
0000
0001
,
0000
0000
0000
0000
,
0000
0000
0000
0100
,
0000
0000
0000
0000
,
0000
0010
0000
1000
,
0000
0000
0000
0000
,
0000
0000
0000
0100
,
0000
0000
0010
0000
,
0000
0000
0000
0002
,
0000
0000
0000
2003
,
0000
0000
0000
3020
,
0000
0000
0000
0230
,
0000
0000
0000
0302
,
0000
0000
0000
0023
,
0000
0000
0000
0230
,
0000
0000
0000
2300
,
0000
0000
0000
3001
,
0000
1000
0000
0001
,
0000
1000
0000
0010
,
0000
0100
0000
0010
,
0000
0100
0000
0001
,
0000
0100
0000
0001
,
0000
0100
0000
0010
,
0000
1000
0000
0010
,
0000
0000
0000
1000
,
0000
0100
0000
0010
,
0000
0001
0000
0001
,
0000
1000
0000
0002
,
0000
0000
0003
0001
,
0000
0010
0000
0100
,
0000
1000
0000
0010
,
0000
1000
0000
0100
,
0000
1000
0000
2000
,
0000
0000
0000
0000
,
0000
0000
0000
3200
,
0000
0000
0000
0000
,
0000
0000
0000
0320
,
0000
0000
0000
0000
,
0000
0000
0000
0032
,
0000
0000
0000
2003
,
0000
0000
0000
3001
,
0000
0100
0000
0001
,
0000
1000
0100
0000
,
1000
0000
0100
0000
,
0010
0001
0000
0010
,
0001
0000
0010
0100
,
1000
0010
0110
0000
;

//---------------dance-single - ----------------
#NOTES:
     dance-single:
     :
     Hard:
     7:
     0.491,0.484,0.110,0.091,0.000:
0000
0000
0000
0000
,
0000
0000
0000
0000
,
0000
0000
0000
0000
,
0000
0000
0000
0000
,
0000
0000
0000
0000
,
0000
0000
0000
0000
0000
0000
0001
0010
,
0000
0000
1000
0100
0000
0000
0001
0010
,
0000
0000
1000
0100
0000
0000
0001
0000
,
0100
0001
0100
0000
0010
1000
0100
1000
,
0100
0000
1001
0000
0000
0000
1000
0010
,
0000
0000
0001
0100
0000
0000
1000
0010
,
0000
0000
0001
0100
0000
0000
1000
0000
,
0010
1000
0010
0000
0100
0001
0010
0001
,
0010
1001
0000
0001
,
0010
0100
0000
1000
0010
1000
0000
0010
,
0100
0010
0000
0100
0001
0100
1000
0000
,
0100
0010
0000
0001
0100
0001
0000
0100
,
0010
0100
0000
0001
0100
1000
0010
1000
,
0010
1000
0000
0100
0010
0001
0000
0100
,
0001
0100
0000
0001
0010
0100
1000
0000
,
0100
0010
0000
0001
0100
0000
1000
0100
,
0000
0001
0010
0100
1000
0010
1000
0100
,
0000
0000
0001
0010
0000
0000
1000
0100
,
0000
0000
0001
0010
0000
0000
1001
0000
,
0010
1000
0100
0000
1000
0001
0010
0001
,
0010
0000
1001
0000
0000
0000
0001
0100
,
0000
0000
1000
0010
0000
0000
0001
0100
,
0000
0000
1000
0010
0000
0000
1001
0000
,
0100
0001
0010
0000
0001
1000
0100
1000
,
0100
1001
0000
0001
,
0010
0100
0000
1000
0010
1000
0000
0010
,
0100
0010
0000
1000
0100
0010
0001
0000
,
0010
0100
0000
1000
0010
1000
0000
0010
,
0100
0010
0000
1000
0100
0010
0001
0000
,
0100
0010
0000
1000
0100
1000
0000
0010
,
0100
0010
0000
1000
0010
0100
0001
0000
,
0010
0100
0000
1000
0010
0000
0001
0010
,
0000
1000
0100
0010
0001
0000
0200
0000
,
0000
0000
0301
0020
,
0000
1000
0000
0100
0130
0000
0020
0000
,
0000
0000
0031
0200
,
0000
1000
0000
0010
0310
0000
0200
0000
,
0000
0000
0301
0020
,
0000
1000
0000
0100
0130
0000
0020
0000
,
0000
0000
0031
0200
,
0000
1000
0000
0010
0310
0000
0001
0010
,
0001
0000
0010
0100
0010
0000
0001
0010
,
0001
0000
0010
0100
1000
0000
1000
0100
,
1000
0000
0100
0010
0100
0000
1000
0100
,
1000
0000
0100
0010
0001
0000
0001
0100
,
0001
0000
0010
0100
1000
0000
0010
0000
,
1000
0100
0000
0001
0001
0000
1000
0010
,
1000
0000
0100
0010
0001
0000
2002
0000
,
0000
0000
0000
0000
3003
0000
1000
0100
,
0000
0000
0001
0100
0000
0000
1000
0010
,
0000
0000
0001
0010
0000
0000
1001
0000
,
0100
1000
0010
0000
0100
0001
0010
0001
,
0010
0000
1001
0000
0000
0000
0001
0010
,
0000
0000
1000
0010
0000
0000
0001
0100
,
0000
0000
1000
0100
0000
0000
1001
0000
,
0010
0001
0100
0000
0010
1000
0100
1000
,
0100
1001
0000
1000
,
0100
0010
0000
0001
0100
0001
0000
0100
,
0010
0100
0000
0001
1000
0000
0001
0000
,
0010
0100
0000
1000
0010
1000
0000
0010
,
0100
0010
0000
1000
0001
0000
0010
0001
,
0010
0100
0000
1000
0010
1000
0000
0010
,
0100
0001
0000
0010
0100
1000
0001
0000
,
0100
0001
0000
0010
0100
0000
1000
0100
,
1000
0100
1000
0100
0010
0000
0001
0010
,
0100
0010
0000
0001
0010
0100
0000
1000
,
0010
0100
0000
0001
0100
1000
0100
0010
,
0000
0001
0100
0001
0000
1000
0001
1000
,
0000
0100
0001
0000
0010
0100
0000
1000
,
0010
0000
0001
0010
0000
1000
0100
0000
,
0001
0100
0010
0100
0001
1001
0000
0000
;

//---------------dance-single - ----------------
#NOTES:
     dance-single:
     :
     Challenge:
     8:
     0.659,0.587,0.192,0.000,0.000:
0000
0000
0000
0000
,
0000
0000
0000
0000
,
0000
0000
0000
0000
,
0000
0000
0000
0000
,
0000
0000
0000
0000
,
0000
0000
0000
0000
0000
0000
0001
0001
,
0010
0100
1000
1000
0100
0010
0001
0001
,
0010
0100
1000
1000
0010
0100
0010
0000
,
1000
0100
0010
0001
0010
1000
0100
1000
,
0100
0000
1001
0000
0100
0010
1000
1000
,
0100
0010
0001
0001
0010
0100
1000
1000
,
0100
0010
0001
0001
0100
0010
0100
0000
,
0001
0010
0100
1000
0100
0001
0010
0001
,
0010
0000
1001
0000
0010
0100
0001
0010
,
0100
1000
0000
1000
0010
1000
0000
0010
,
0100
0010
0000
0100
0001
0010
0100
1000
,
0100
0010
0000
0001
0100
0001
0000
0100
,
0010
0100
0000
0001
0100
1000
0010
1000
,
0010
1000
0000
0100
0010
0001
0000
0100
,
0001
0100
0000
0001
0010
0100
1000
0100
,
0001
0100
1000
0010
0001
0010
1000
0010
,
0001
0010
0100
1000
0010
1000
0001
0001
,
0010
0100
1000
1000
0100
0010
0001
0001
,
0010
0100
1000
1000
0010
0000
1001
0000
,
0010
1000
0100
1000
0100
0001
0010
0001
,
0010
0000
1001
0000
0010
0100
0001
0001
,
0010
0100
1000
1000
0100
0010
0001
0001
,
0010
0100
1000
1000
0010
0000
1001
0000
,
0100
0001
0010
0001
0010
1000
0100
1000
,
0100
0000
1001
0000
0100
0010
1000
0100
,
0010
0001
0000
1000
0010
1000
0000
0010
,
0100
0010
0000
1000
0100
0010
0001
0010
,
0100
1000
0000
0100
1000
0100
0000
1000
,
0001
1000
0000
0001
0010
0100
1000
0010
,
0100
0010
0000
1000
0100
1000
0000
0010
,
0100
0010
0000
1000
0010
0100
0001
0010
,
1000
0010
0001
0010
1000
0100
0001
0100
,
1000
0100
0010
0001
0010
0100
1000
0000
,
0010
1000
0100
0000
1001
0000
0010
0000
,
0001
0010
0000
0100
0100
0000
1000
0000
,
0001
0100
0010
0000
1001
0000
0100
0000
,
1000
0100
0001
0010
0001
0010
0100
0000
,
1000
0010
0100
0000
1001
0000
0010
0000
,
0001
0100
0000
0010
0010
0000
1000
0000
,
0001
0100
0010
0000
1001
0000
0010
0000
,
1000
0100
0001
0010
0001
0010
1000
0100
,
1000
0010
1000
0100
0010
0001
0010
0100
,
1000
0001
0010
0100
1000
0000
0001
0100
,
0001
0010
0001
0010
0100
1000
0100
0010
,
0001
1000
0100
0010
0001
0000
1000
0010
,
1000
0100
1000
0100
0010
0001
0010
0100
,
1000
0001
0010
0100
1000
0000
0001
0010
,
0001
0100
0001
0010
0100
0000
1001
0000
,
0000
0000
0100
0010
0100
0010
1000
1000
,
0100
0010
0001
0001
0010
0100
1000
1000
,
0100
0010
0001
0001
0010
0000
1001
0000
,
0100
1000
0010
1000
0100
0001
0010
0001
,
0010
0000
1001
0000
0010
0100
0001
0001
,
0010
0100
1000
1000
0100
0010
0001
0001
,
0010
0100
1000
1000
0100
0000
1001
0000
,
0010
0001
0100
0001
0010
1000
0100
1000
,
0100
0000
1001
0000
0100
0010
1000
0100
,
0010
0001
0100
0100
0001
0100
0010
0010
,
1000
0010
0100
0100
0001
0010
0100
0000
,
1000
0010
0100
0100
0001
0100
0010
0010
,
0100
0010
1000
0100
0010
0000
0001
0010
,
0100
1000
0100
0100
1000
0100
0010
0010
,
0001
0010
0000
0001
0010
0100
1000
0000
,
0010
1000
0010
0010
0100
0001
1000
0100
,
1000
0100
1000
0100
0010
0000
0001
0001
,
0100
0001
0010
0010
0001
0100
0010
0010
,
1000
0100
1000
0100
0011
0010
0100
1000
,
0000
0001
0100
0001
0000
1000
0001
1000
,
0001
0010
1100
1000
0100
0010
0000
0001
,
0011
0001
0010
0100
0000
1000
1100
1000
,
0100
0010
0001
0010
1001
1001
0000
0000
;

//---------------dance-single - ----------------
#NOTES:
     dance-single:
     :
     Beginner:
     1:
     0.059,0.103,0.000,0.000,0.000:
0000
0000
0000
0000
,
0000
0000
0000
0000
,
0000
0000
0000
0000
,
0000
0000
0000
0000
,
0000
0000
0000
0000
,
0000
0000
0000
0001
,
0000
0000
0000
0001
,
0000
0000
0000
1000
,
0000
0000
0000
0000
,
0000
0000
0000
1000
,
0000
0000
0000
1000
,
0000
0000
0000
0001
,
0000
0000
0000
0000
,
0000
0000
0000
0100
,
0000
0000
0000
0000
,
0000
0000
0000
0100
,
0000
0000
0000
0000
,
0000
0000
0000
0010
,
0000
0000
0000
0000
,
0000
0000
0000
0010
,
0000
0000
0000
0000
,
0000
0000
0000
1000
,
0000
0000
0000
1000
,
0000
0000
0000
0001
,
0000
0000
0000
0000
,
0000
0000
0000
0001
,
0000
0000
0000
0001
,
0000
0000
0000
1000
,
0000
0000
0000
0000
,
0000
0000
0000
0010
,
0000
0000
0000
0000
,
0000
0000
0000
0010
,
0000
0000
0000
0000
,
0000
0000
0000
0100
,
0000
0000
0000
0000
,
0000
0000
0000
0100
,
0000
0000
0000
0000
,
0000
0000
0000
0001
,
0000
0000
0000
0000
,
0000
0000
0000
1000
,
0000
0000
0000
0000
,
0000
0000
0000
0001
,
0000
0000
0000
0000
,
0000
0000
0000
1000
,
0000
0000
0000
0000
,
0000
0000
0000
0001
,
0000
0000
0000
0000
,
0000
0000
0000
0100
,
0000
0000
0000
0000
,
0000
0000
0000
0001
,
0000
0000
0000
0000
,
0000
0000
0000
0010
,
0000
0000
0000
0001
,
0000
0000
0000
1000
,
0000
0000
0000
1000
,
0000
0000
0000
0001
,
0000
0000
0000
0000
,
0000
0000
0000
0001
,
0000
0000
0000
0001
,
0000
0000
0000
1000
,
0000
0000
0000
0000
,
0000
0000
0000
0010
,
0000
0000
0000
0000
,
0000
0000
0000
0010
,
0000
0000
0000
0000
,
0000
0000
0000
0100
,
0000
0000
0000
0000
,
0000
0000
0000
0100
,
0000
0000
0000
0000
,
0000
0000
0000
0001
,
0000
0000
0000
0000
,
0000
0000
1000
0000
,
0000
0000
0000
0000
,
0000
0001
0000
0000
,
1000
0000
0000
0001
,
0000
0000
0100
0000
;

//---------------dance-single - ----------------
#NOTES:
     dance-single:
     :
     Medium:
     5:
     0.348,0.415,0.146,0.238,0.000: // measure 1
0000
0000
0000
0000
,  // measure 2
0000
0000
0000
0000
,  // measure 3
0000
0000
0000
0000
,  // measure 4
0000
0000
0000
0000
,  // measure 5
0000
0000
0000
0000
,  // measure 6
0000
0000
0000
0020
,  // measure 7
0000
1030
0000
0200
,  // measure 8
0000
0301
0000
1001
,  // measure 9
1000
1000
0010
1000
,  // measure 10
0100
0001
0000
0020
,  // measure 11
0000
0031
0000
0200
,  // measure 12
0000
1300
0000
1001
,  // measure 13
0001
0001
0100
0001
,  // measure 14
0010
1000
0000
0001
,  // measure 15
0010
0001
0010
0001
,  // measure 16
0010
0100
1000
0010
,  // measure 17
1000
0010
1000
0100
,  // measure 18
0010
0000
0001
1000
0001
1000
0001
0000
,  // measure 19
1000
0100
1000
0100
,  // measure 20
1000
0100
0010
0001
,  // measure 21
0100
0001
0000
0001
1000
0000
1000
0010
,  // measure 22
0000
0010
0100
0000
0000
0000
0020
0000
,  // measure 23
0000
1030
0000
0200
,  // measure 24
0000
0301
0000
1001
,  // measure 25
0001
0001
0010
0001
,  // measure 26
0100
1000
0000
0200
,  // measure 27
0000
1300
0000
0020
,  // measure 28
0000
0031
0000
1001
,  // measure 29
1000
1000
0100
1000
,  // measure 30
0010
0001
0000
1000
,  // measure 31
0010
1000
0010
1000
,  // measure 32
0100
0010
0001
0010
,  // measure 33
0001
0010
0001
0100
,  // measure 34
0001
0000
1000
0001
1000
0001
1000
0000
,  // measure 35
0001
0100
0001
0100
,  // measure 36
0001
0010
0100
1000
,  // measure 37
1000
0010
0000
0010
0100
0000
0100
0001
,  // measure 38
0000
0001
1000
0000
0000
0000
0002
0000
,  // measure 39
0000
0000
0013
0200
,  // measure 40
0000
0000
1300
2000
,  // measure 41
0000
0000
3010
0200
,  // measure 42
0000
0000
0301
2001
,  // measure 43
0000
0000
3100
0020
,  // measure 44
0000
0000
0031
0002
,  // measure 45
0000
0000
0103
0020
,  // measure 46
0000
0000
1030
0001
,  // measure 47
0010
1000
0010
0001
,  // measure 48
0010
1000
0010
0001
,  // measure 49
0100
1000
0100
0001
,  // measure 50
0100
1000
0100
1001
,  // measure 51
0010
0001
0010
1000
,  // measure 52
0010
0001
0010
1000
,  // measure 53
0100
0001
0100
2002
,  // measure 54
0000
0000
3003
0200
,  // measure 55
0000
1300
0000
0020
,  // measure 56
0000
0031
0000
1001
,  // measure 57
0010
0010
1000
0100
,  // measure 58
0001
0100
1000
0020
,  // measure 59
0000
1030
0000
0200
,  // measure 60
0000
0301
0000
1001
,  // measure 61
0100
0100
0001
0010
,  // measure 62
1000
0010
0001
2000
,  // measure 63
0000
0100
0000
0100
,  // measure 64
0000
3100
0000
0020
,  // measure 65
0000
0001
0000
0001
,  // measure 66
0000
0031
0000
1002
,  // measure 67
0000
0100
0000
0100
,  // measure 68
0000
0103
0000
0020
,  // measure 69
0000
1000
0000
1000
,  // measure 70
0000
1030
0000
1001
,  // measure 71
0100
1000
0100
1000
,  // measure 72
0100
0010
0011
0100
,  // measure 73
1000
0010
1000
0100
,  // measure 74
0010
0011
0010
0100
,  // measure 75
1100
0100
0010
0011
,  // measure 76
0100
1000
0100
0000
1000
1001
0000
0000
;
