#TITLE:カモミール・バスルーム;
#SUBTITLE:;
#ARTIST:常盤ゆう;
#TITLETRANSLIT:CHAMOMILE BATHROOM;
#SUBTITLETRANSLIT:;
#ARTISTTRANSLIT:YU TOKIWA;
#CREDIT:DMAxel;
#BANNER:CHAMOMILE BATHROOM.png;
#BACKGROUND:CHAMOMILE BATHROOM-bg.png;
#LYRICSPATH:CHAMOMILE BATHROOM.lrc;
#CDTITLE:pop'n music.png;
#MUSIC:CHAMOMILE BATHROOM.mp3;
#OFFSET:-1.120;
#SAMPLESTART:65.350;
#SAMPLELENGTH:12.000;
#SELECTABLE:YES;
#BPMS:0.000=168.020;
#STOPS:;
#BGCHANGES:;

//---------------dance-single - ----------------
#NOTES:
     dance-single:
     :
     Easy:
     4:
     0.267,0.326,0.127,0.110,0.000: // measure 1
0000
0000
0000
0000
,  // measure 2
0000
0000
0000
0000
,  // measure 3
0000
0001
0000
0001
,  // measure 4
0000
0001
0000
0001
,  // measure 5
0000
1000
0000
0001
,  // measure 6
0000
1000
0000
0001
,  // measure 7
0000
1000
0000
1000
,  // measure 8
0000
1000
0000
1000
,  // measure 9
0000
0010
0000
0100
,  // measure 10
0000
0010
0000
0100
,  // measure 11
0000
0002
0000
0000
,  // measure 12
0000
0023
0000
0000
,  // measure 13
0000
0032
0000
0000
,  // measure 14
0000
0003
0000
0000
,  // measure 15
0000
2000
0000
0000
,  // measure 16
0000
3200
0000
0000
,  // measure 17
0000
2300
0000
0000
,  // measure 18
3001
0000
0000
0000
,  // measure 19
0000
0000
1001
0000
,  // measure 20
0000
1000
0000
0010
,  // measure 21
0000
1000
0000
0010
,  // measure 22
0000
0100
0000
0010
,  // measure 23
0000
0100
0000
0010
,  // measure 24
0000
0100
0000
0001
,  // measure 25
0000
0100
0000
0001
,  // measure 26
0000
0100
0000
0010
,  // measure 27
0000
0100
0000
0001
,  // measure 28
1001
1000
1000
0000
,  // measure 29
0001
0010
0001
0010
,  // measure 30
0100
0000
1000
1000
,  // measure 31
1000
0010
0100
0010
,  // measure 32
0100
0000
0001
1000
,  // measure 33
0001
1000
0100
0010
,  // measure 34
0001
0100
0000
0001
,  // measure 35
0100
0000
0000
0100
0000
0000
0000
0110
,  // measure 36
0000
0000
0000
0100
,  // measure 37
0000
0010
0000
0100
,  // measure 38
0000
0001
0000
1000
,  // measure 39
0001
0010
0100
0000
,  // measure 40
1001
0000
0010
0000
,  // measure 41
1000
0010
0100
0010
,  // measure 42
0200
0000
0000
0001
,  // measure 43
0000
0301
0000
0000
,  // measure 44
1020
0000
0000
1000
,  // measure 45
0000
1030
0100
0100
,  // measure 46
1001
0010
0100
1000
,  // measure 47
0010
1000
0100
0010
,  // measure 48
0001
0000
0010
0000
,  // measure 49
0100
0000
1000
0000
,  // measure 50
0001
0010
0100
1000
,  // measure 51
0010
1000
0100
0010
,  // measure 52
0001
0000
0100
0000
,  // measure 53
0010
0000
1000
0000
,  // measure 54
0000
1001
0100
0010
,  // measure 55
0001
0100
0001
0010
,  // measure 56
0100
1000
0000
0100
,  // measure 57
0000
0010
0000
0001
,  // measure 58
1000
0100
0010
0001
,  // measure 59
0100
0001
0010
0100
,  // measure 60
1000
0010
0000
0100
,  // measure 61
0000
0001
0010
0100
,  // measure 62
1001
1000
1000
1000
,  // measure 63
1000
1000
0100
0010
,  // measure 64
1001
0001
0001
0001
,  // measure 65
0001
0001
0010
0100
,  // measure 66
1001
1000
1000
1000
,  // measure 67
1000
1000
0100
0010
,  // measure 68
1002
0000
0023
0000
,  // measure 69
0230
0000
0000
0300
,  // measure 70
1001
0010
1000
0100
,  // measure 71
0000
0010
0001
0100
,  // measure 72
0000
0010
1000
0100
,  // measure 73
0010
0001
0010
0100
,  // measure 74
1001
0010
1000
0100
,  // measure 75
0000
0010
0001
0100
,  // measure 76
0000
0010
1000
0100
,  // measure 77
0022
0000
0000
0000
0000
0033
0000
1001
;

//---------------dance-single - ----------------
#NOTES:
     dance-single:
     :
     Hard:
     7:
     0.492,0.587,0.391,0.170,0.000: // measure 1
0000
0000
0000
0000
,  // measure 2
0000
0000
0000
0000
,  // measure 3
1001
0000
0001
0010
0001
0100
0000
0010
,  // measure 4
0000
0100
0001
1000
0000
0000
0000
0000
,  // measure 5
0001
0000
1000
0100
1000
0010
0000
0100
,  // measure 6
0000
0001
0000
0010
0000
0100
0000
0000
,  // measure 7
1000
0000
0001
0010
0001
0100
0000
0010
,  // measure 8
0000
1000
0100
0002
0000
0000
1003
0000
,  // measure 9
0001
0000
1000
0100
1000
0010
0000
0100
,  // measure 10
0000
0001
0000
1000
0000
0001
0010
0000
,  // measure 11
1001
0000
0010
0000
0001
0010
0100
2000
,  // measure 12
0000
0000
3100
0000
1000
0100
0010
0002
,  // measure 13
0000
0000
0013
0000
0001
0010
0100
1000
,  // measure 14
0000
0010
0000
0010
0000
1000
0100
0010
,  // measure 15
0001
0000
0010
0000
0001
0010
0100
2000
,  // measure 16
0000
0000
3010
0000
1000
0100
0010
0002
,  // measure 17
0000
0000
0103
0000
0001
0010
0100
1000
,  // measure 18
0020
0000
0000
0000
0000
0100
0000
0100
,  // measure 19
0000
0000
0030
0000
1000
1001
0000
0000
,  // measure 20
1001
0010
0001
0010
,  // measure 21
0001
0010
0100
1000
,  // measure 22
0010
1000
0010
1000
,  // measure 23
0100
0010
0001
1000
,  // measure 24
0001
0010
0002
0000
,  // measure 25
0013
0100
1000
0010
,  // measure 26
1000
0100
1000
0010
,  // measure 27
0100
0100
0000
1001
0000
0000
0000
0000
,  // measure 28
1001
0010
1000
0010
,  // measure 29
1000
0100
0010
0001
,  // measure 30
0100
0001
0100
0001
,  // measure 31
0010
0001
0100
1000
,  // measure 32
0100
0001
1000
0010
,  // measure 33
0001
0010
1000
0010
,  // measure 34
0100
0000
0001
0000
1000
0001
0000
0000
,  // measure 35
1000
0010
0000
0100
0000
0100
0000
1001
,  // measure 36
0000
0000
0010
0001
0001
0010
0100
2000
,  // measure 37
0000
0000
0000
3100
0010
0001
0100
0010
,  // measure 38
0200
0000
0000
0000
0000
0301
0000
1000
,  // measure 39
0000
0010
0000
0100
0001
0001
0000
0000
,  // measure 40
1001
0000
1000
0000
0010
1000
0100
0010
,  // measure 41
0000
0001
0001
0001
,  // measure 42
1001
1000
1000
1000
,  // measure 43
0001
0001
0001
0001
,  // measure 44
1001
0100
0010
0100
,  // measure 45
0010
0100
1001
1001
,  // measure 46
0110
0000
1000
0000
0100
0010
0000
0001
,  // measure 47
0010
0001
0000
1000
0001
1000
0001
0000
,  // measure 48
0010
0010
0000
0001
0000
0010
0000
0100
,  // measure 49
0000
1000
0000
0010
0000
0100
0000
0000
,  // measure 50
0001
0000
0010
0100
1000
0100
1000
0000
,  // measure 51
0100
0000
0010
0000
0001
0100
0001
0000
,  // measure 52
1000
0010
1000
0010
0000
0100
0000
0001
,  // measure 53
0000
0010
0000
0100
0000
1000
0001
0000
,  // measure 54
0000
0000
1001
0000
0010
0100
0000
0010
,  // measure 55
0000
0100
0010
0100
0001
1000
0001
0000
,  // measure 56
0001
1000
0000
0010
0000
0010
0000
1000
,  // measure 57
0000
0100
0000
0010
0000
0001
0000
0000
,  // measure 58
1001
0000
0100
0010
0001
0100
0000
0001
,  // measure 59
0100
0010
0100
0010
0100
0001
1000
0000
,  // measure 60
0010
0100
0000
0010
0000
0010
0000
1000
,  // measure 61
0000
0001
0010
0100
1000
0001
0010
0100
,  // measure 62
1001
1001
1010
1010
,  // measure 63
0011
0011
1100
1100
,  // measure 64
1001
1001
0011
0011
,  // measure 65
1100
1100
0101
0101
,  // measure 66
1001
1001
1010
1010
,  // measure 67
0101
0000
0101
0000
0110
0000
0000
1001
,  // measure 68
0000
0000
0000
0000
,  // measure 69
0010
0010
0000
0110
0000
0110
0000
1000
,  // measure 70
0001
0000
0200
0000
0301
0010
0100
2000
,  // measure 71
0000
0000
3002
0000
1003
0100
0010
0002
,  // measure 72
0000
0000
2003
0000
3001
0010
0100
1000
,  // measure 73
0000
1001
0000
1001
0000
1000
0100
0010
,  // measure 74
0002
0000
0203
0000
0301
0001
0100
0020
,  // measure 75
0000
0000
2030
0000
3100
0100
0010
0002
,  // measure 76
0000
0000
0203
0000
0301
0001
0010
0100
,  // measure 77
1000
1000
0000
1010
0000
0110
0000
1001
;

//---------------dance-single - ----------------
#NOTES:
     dance-single:
     :
     Challenge:
     8:
     0.611,0.587,0.204,0.221,0.030: // measure 1
0000
0000
0000
0000
,  // measure 2
0000
0000
0000
0000
,  // measure 3
1001
0000
0001
0010
0100
1000
0000
1000
,  // measure 4
0000
0100
0010
0001
0000
0100
0001
0000
,  // measure 5
0010
0000
0001
0010
0100
1000
0000
1000
,  // measure 6
0000
0100
0000
0010
0000
0001
0100
0000
,  // measure 7
0010
0000
1000
0100
0010
0001
0000
0001
,  // measure 8
0000
0010
0100
1000
0000
1000
0010
0000
,  // measure 9
0100
0000
0001
0010
0100
1000
0000
1000
,  // measure 10
0000
0010
0000
0100
0000
0001
0100
0000
,  // measure 11
1001
0000
0020
0000
0031
0010
0100
2000
,  // measure 12
0000
0000
3020
0000
1030
0100
0010
0002
,  // measure 13
0000
0000
0203
0000
0301
0010
0100
2000
,  // measure 14
0000
0010
0000
0010
0000
3010
0100
0001
,  // measure 15
0020
0000
0230
0000
1300
0100
0010
0002
,  // measure 16
0000
0000
0023
0000
0031
0010
0100
2000
,  // measure 17
0000
0000
3200
0000
1300
0100
0010
0001
,  // measure 18
1001
0000
0010
0000
0001
0100
0000
0100
,  // measure 19
0010
0000
1000
0010
1000
0000
0000
0000
0110
0000
0110
0000
0000
0000
0000
0000
,  // measure 20
1001
0000
0010
0001
0010
0000
0001
1000
,  // measure 21
0001
0000
0010
0100
1000
0010
1000
0010
,  // measure 22
1000
0000
0100
0001
0000
0001
0010
0000
,  // measure 23
0001
0000
0010
1000
0000
1000
0100
0000
,  // measure 24
1000
0000
0100
1000
0100
0000
1000
0001
,  // measure 25
1000
0000
0100
0010
0001
0100
0001
0100
,  // measure 26
0001
0000
0010
1000
0000
1000
0100
0000
,  // measure 27
0010
0001
0000
0010
0000
0001
0100
0000
,  // measure 28
1001
0000
0010
0000
0100
1000
0000
1000
,  // measure 29
0010
0100
0010
0000
1000
0100
0000
0001
,  // measure 30
0100
0010
0100
0000
0001
0010
0000
1000
,  // measure 31
0010
0100
0010
0000
1000
0010
0000
0001
,  // measure 32
0100
0010
0100
0000
0001
0100
0000
1000
,  // measure 33
0010
0100
0010
0000
0100
0001
0000
0010
,  // measure 34
0100
0010
0100
0000
0010
1000
0000
0100
,  // measure 35
0010
0011
0000
1100
0000
1100
0000
1001
,  // measure 36
0000
0000
0010
0001
0010
0100
1000
0010
,  // measure 37
1000
0000
0100
1000
0100
0010
0001
0100
,  // measure 38
0001
0000
0100
0001
0010
0100
1000
0100
,  // measure 39
1000
0010
0000
0100
0001
0001
0000
0000
,  // measure 40
1001
0000
0100
0001
0010
0100
1000
0100
,  // measure 41
1000
0000
0010
1000
0100
0010
0001
0000
,  // measure 42
1002
0100
0100
0103
,  // measure 43
0020
1000
1000
1030
,  // measure 44
1001
0000
0000
0000
0010
0000
0001
0000
0010
0000
0100
0000
1000
0000
0010
1000
,  // measure 45
0010
0000
0100
0000
0010
0000
0100
0001
0100
0000
0000
0000
1001
0000
0000
0000
,  // measure 46
0010
1000
0100
1000
0100
0010
0001
0010
,  // measure 47
0100
1000
0001
0100
0001
0100
0010
0000
,  // measure 48
0100
0001
0010
0001
0000
0010
0100
1000
,  // measure 49
0010
1000
0100
1000
0100
0010
0001
0000
,  // measure 50
0100
0001
0010
0001
0010
0100
1000
0100
,  // measure 51
0010
0001
1000
0010
1000
0010
0100
0000
,  // measure 52
0010
1000
0100
1000
0000
0100
0010
0001
,  // measure 53
0100
0001
0010
0001
0010
0100
1000
0000
,  // measure 54
0000
0000
1001
0000
0010
1000
0100
1000
,  // measure 55
0100
0010
0001
0010
0100
1000
0010
0000
,  // measure 56
0100
0001
0010
0001
0000
0010
0100
1000
,  // measure 57
0010
1000
0100
1000
0100
0010
0001
0000
,  // measure 58
0100
0001
0010
0001
0010
0100
1000
0100
,  // measure 59
0010
0001
1000
0010
1000
0010
0100
0000
,  // measure 60
0010
1000
0100
1000
0000
0100
0010
0001
,  // measure 61
0100
0001
0010
0001
0010
0100
1000
0000
,  // measure 62
1001
0010
0100
1000
0000
1000
0100
0001
,  // measure 63
0000
0010
0100
1000
0100
0001
0010
0100
,  // measure 64
1000
0100
0010
0001
0000
0001
0010
1000
,  // measure 65
0000
0100
0010
0001
0010
1000
0100
0010
,  // measure 66
0001
0010
0100
1000
0000
1000
0100
0001
,  // measure 67
0000
0010
0100
1000
0010
0001
0100
0110
,  // measure 68
0000
0001
0100
0000
0100
0010
0000
0000
,  // measure 69
1000
0010
1000
0000
0001
0100
0001
0000
0100
0010
0100
0010
0000
0000
0000
0000
,  // measure 70
1001
0000
0200
0000
0301
0010
0100
2000
,  // measure 71
0000
0000
3200
0000
1300
0100
0010
0002
,  // measure 72
0000
0000
0023
0000
0031
0010
0100
2000
,  // measure 73
0000
0010
0000
0010
0000
3010
0100
0010
,  // measure 74
2001
0000
3200
0000
0310
0001
0010
0200
,  // measure 75
0000
0000
2300
0000
3001
0010
0100
2000
,  // measure 76
0000
0000
3200
0000
1300
0100
0010
0001
,  // measure 77
0010
0011
0000
1100
0000
1100
0000
1001
;

//---------------dance-single - ----------------
#NOTES:
     dance-single:
     :
     Medium:
     6:
     0.410,0.457,0.195,0.068,0.000: // measure 1
0000
0000
0000
0000
,  // measure 2
0000
0000
0000
0000
,  // measure 3
1000
0100
0100
1000
,  // measure 4
0001
0010
0010
0000
,  // measure 5
0001
0001
0010
0100
,  // measure 6
1000
0010
0010
0010
,  // measure 7
0000
1000
0100
0100
,  // measure 8
1000
0010
0010
1000
,  // measure 9
0000
0000
0001
0000
0001
0100
0000
0001
,  // measure 10
0000
0010
0000
0100
0000
1000
0000
0000
,  // measure 11
1001
0000
0010
0000
0010
0000
0001
0100
,  // measure 12
0000
0000
0100
0000
0100
0000
1000
0010
,  // measure 13
0000
0000
0010
0000
0010
0000
0001
0100
,  // measure 14
0000
0010
0000
0010
0000
0010
1000
0000
,  // measure 15
0100
0000
0010
0000
0010
0000
0001
0010
,  // measure 16
0000
0000
0100
0000
0100
0000
0100
1000
,  // measure 17
0000
0000
0100
0000
0010
0000
0001
1000
,  // measure 18
2002
0000
0000
0000
0000
0000
0000
3003
,  // measure 19
0000
0010
0110
0000
1000
1000
0000
0000
,  // measure 20
1001
0100
0020
0000
,  // measure 21
0031
0010
0100
1000
,  // measure 22
0020
0000
1000
1030
,  // measure 23
0100
0010
0001
0000
,  // measure 24
0100
0001
0020
0000
,  // measure 25
0130
1000
0100
0010
,  // measure 26
0002
0000
1000
1003
,  // measure 27
0010
0100
0000
0110
0000
0000
0000
0000
,  // measure 28
1001
0010
1000
1000
,  // measure 29
0100
0010
0001
0010
,  // measure 30
0100
0100
1000
0001
,  // measure 31
1000
0100
0100
0010
,  // measure 32
0001
0000
0010
0100
,  // measure 33
1000
0100
0100
0010
,  // measure 34
0001
0100
0100
0001
,  // measure 35
0100
0010
0000
1000
0000
1000
0000
1001
,  // measure 36
0000
0000
0100
0000
0001
0000
0010
0200
,  // measure 37
0000
0000
0000
0000
1300
0000
0100
0020
,  // measure 38
0000
0000
0000
0000
0000
0031
0000
1000
,  // measure 39
0000
0010
0000
0010
0100
0010
0000
0000
,  // measure 40
1001
0000
1000
0000
0100
0010
0000
0010
,  // measure 41
0000
0011
0100
1000
,  // measure 42
1001
0010
0100
0010
,  // measure 43
1000
0001
1000
0001
,  // measure 44
0110
1000
0100
0010
,  // measure 45
0001
0010
1100
0011
,  // measure 46
1001
0000
0010
1000
0100
0000
0010
0001
,  // measure 47
0010
0100
1000
0001
,  // measure 48
1000
0010
0000
0100
0000
0100
0000
0001
,  // measure 49
0000
0010
0000
0100
0000
1000
0000
0000
,  // measure 50
1001
0000
0100
0001
0010
0000
0100
1000
,  // measure 51
0100
1000
0100
0010
,  // measure 52
0001
0100
0000
0010
0000
0010
0000
1000
,  // measure 53
0000
0100
0000
0010
0000
0001
0000
0000
,  // measure 54
0000
0000
1001
0000
0010
1000
0100
1000
,  // measure 55
0100
0000
0010
0001
0010
0000
0001
0100
,  // measure 56
0001
0010
0000
0100
0000
1000
0000
1000
,  // measure 57
0000
0100
0000
0010
0000
0001
0000
0000
,  // measure 58
1001
0000
0100
0001
0010
0001
0010
0000
,  // measure 59
0100
1000
0100
0000
1000
0001
1000
0000
,  // measure 60
0010
0100
0000
0010
0000
0010
0000
1000
,  // measure 61
0000
0100
0010
0001
0010
0100
1000
0000
,  // measure 62
1001
0000
0010
0001
0010
0000
0010
0001
,  // measure 63
0010
0001
0010
0100
,  // measure 64
1001
0000
0100
1000
0100
0000
0100
1000
,  // measure 65
0100
1000
0100
0010
,  // measure 66
1001
0000
0100
0001
0100
0000
0010
1000
,  // measure 67
0010
0000
1000
0000
0001
0000
0100
0110
,  // measure 68
0000
0000
0000
0000
,  // measure 69
0001
0100
0000
0010
0000
0010
0000
1000
,  // measure 70
0001
0000
0100
0000
0001
0000
0010
0100
,  // measure 71
0000
0000
1000
0000
1000
0000
0100
0010
,  // measure 72
0000
0000
0001
0000
0001
0000
0010
0100
,  // measure 73
0000
1000
0000
0010
0000
1000
0100
0000
,  // measure 74
1001
0000
0100
0000
0010
0000
0001
0100
,  // measure 75
0000
0000
0001
0000
0100
0000
1000
0010
,  // measure 76
0000
0000
1000
0000
0100
0000
0001
0100
,  // measure 77
0010
0000
0000
0100
0000
0100
0000
0110
;

//---------------dance-single - ----------------
#NOTES:
     dance-single:
     :
     Beginner:
     1:
     0.055,0.097,0.068,0.000,0.000: // measure 1
0000
0000
0000
0000
,  // measure 2
0000
0000
0000
0000
,  // measure 3
0001
0000
0000
0000
,  // measure 4
0000
0000
0000
0000
,  // measure 5
0000
1000
0000
0000
,  // measure 6
0000
0000
0000
0000
,  // measure 7
0001
0000
0000
0000
,  // measure 8
0000
0000
0000
0000
,  // measure 9
1000
0000
0000
0000
,  // measure 10
0000
0000
0000
0000
,  // measure 11
1001
0000
0000
0000
,  // measure 12
0000
0000
0000
0000
,  // measure 13
0000
0000
0000
0000
,  // measure 14
0000
0000
0000
0000
,  // measure 15
0010
0000
0000
0000
,  // measure 16
0000
0000
0000
0000
,  // measure 17
0000
0000
0000
0000
,  // measure 18
0110
0000
0000
0000
,  // measure 19
0000
0000
0000
0000
,  // measure 20
1001
0000
0000
0000
,  // measure 21
0000
0000
0000
0000
,  // measure 22
0001
0000
0000
0000
,  // measure 23
0000
0000
0000
0000
,  // measure 24
1000
0000
0000
0000
,  // measure 25
0000
0000
0000
0000
,  // measure 26
0010
0000
0000
0000
,  // measure 27
0000
0000
0000
0000
,  // measure 28
0100
0000
0000
0000
,  // measure 29
0000
0000
0000
0000
,  // measure 30
0010
0000
0000
0000
,  // measure 31
0000
0000
0000
0000
,  // measure 32
1000
0000
0000
0000
,  // measure 33
0000
0000
0000
0000
,  // measure 34
0001
0000
0000
0000
,  // measure 35
1000
0000
0000
0000
,  // measure 36
0001
0000
0000
0000
,  // measure 37
0000
0000
0000
0000
,  // measure 38
0100
0000
0000
0000
,  // measure 39
0000
0000
0000
0000
,  // measure 40
0010
0000
0000
0000
,  // measure 41
0000
0000
0000
0000
,  // measure 42
0100
0000
0000
0000
,  // measure 43
0000
0000
0000
0000
,  // measure 44
0001
0000
0000
0000
,  // measure 45
0000
0000
0000
0000
,  // measure 46
1000
0000
0000
0000
,  // measure 47
0000
0000
0000
0000
,  // measure 48
0100
0000
0000
0000
,  // measure 49
0000
0000
0000
0000
,  // measure 50
1000
0000
0000
0000
,  // measure 51
0000
0000
0000
0000
,  // measure 52
0001
0000
0000
0000
,  // measure 53
0000
0000
0000
0000
,  // measure 54
0000
1001
0000
0000
,  // measure 55
0000
0000
0000
0000
,  // measure 56
0010
0000
0000
0000
,  // measure 57
0000
0000
0000
0000
,  // measure 58
1000
0000
0000
0000
,  // measure 59
0000
0000
0000
0000
,  // measure 60
0100
0000
0000
0000
,  // measure 61
0000
0000
0000
0000
,  // measure 62
1001
0000
0000
0000
,  // measure 63
0000
0000
0000
0000
,  // measure 64
0110
0000
0000
0000
,  // measure 65
0000
0000
0000
0000
,  // measure 66
1001
0000
0000
0000
,  // measure 67
0000
0000
0000
0000
,  // measure 68
0000
0000
0000
0000
,  // measure 69
0000
0000
0000
0000
,  // measure 70
1000
0000
0000
0000
,  // measure 71
0000
0000
0000
0000
,  // measure 72
0100
0000
0000
0000
,  // measure 73
0000
0000
0000
0000
,  // measure 74
0010
0000
0000
0000
,  // measure 75
0000
0000
0000
0000
,  // measure 76
0001
0000
0000
0000
,  // measure 77
1001
0000
0000
0000
;
