#TITLE:ウッーウッーウマウマ(゜∀゜);
#SUBTITLE:(DJ SHIMAMURA REMIX);
#ARTIST:caramell;
#TITLETRANSLIT:CARAMELLDANSEN;
#SUBTITLETRANSLIT:;
#ARTISTTRANSLIT:;
#CREDIT:DMAxel;
#BANNER:CARAMELLDANSEN (DJ SHIMAMURA REMIX).png;
#BACKGROUND:CARAMELLDANSEN (DJ SHIMAMURA REMIX)-bg.png;
#LYRICSPATH:CARAMELLDANSEN (DJ SHIMAMURA REMIX).lrc;
#CDTITLE:DMAxel Original Simfile.png;
#MUSIC:CARAMELLDANSEN (DJ SHIMAMURA REMIX).mp3;
#OFFSET:-0.060;
#SAMPLESTART:88.013;
#SAMPLELENGTH:12.000;
#SELECTABLE:YES;
#BPMS:0.000=180.000;
#STOPS:;
#BGCHANGES:;

//---------------dance-single - ----------------
#NOTES:
     dance-single:
     :
     Easy:
     4:
     0.250,0.296,0.045,0.054,0.000:
0000
0000
0000
0000
,
0000
0000
0000
0000
,
0000
0000
0000
0000
,
0000
0000
0000
0000
,
0000
0000
0000
0000
,
0000
0000
0000
0000
,
0000
0000
0000
0000
,
0000
0000
0000
0000
,
0000
0000
0000
0000
,
0000
0000
0000
0000
,
1000
0000
0001
0000
,
1000
0000
0000
0000
,
0010
0000
0100
0000
,
0010
0000
0000
0000
,
1000
0000
0001
0000
,
1000
0000
0000
0000
,
0020
0000
0000
0000
,
0130
0000
0000
0000
,
0011
0000
0100
0000
,
1000
0000
0100
0000
,
0010
0000
0001
0000
,
1000
0000
0001
0000
,
0100
0010
0100
0000
,
0001
1000
0001
0000
,
0100
0010
0100
0000
,
0001
0010
0100
1000
,
0002
0000
0000
0000
,
2003
0000
0000
0000
,
3002
0000
0000
0000
,
0203
0000
0000
0000
,
0310
0000
0010
0000
,
0110
0000
0100
0000
,
1001
0000
0001
0001
,
1001
0000
0000
0000
,
0100
1000
0100
1000
,
0100
0000
0100
0000
,
1000
0001
1000
0001
,
1000
0000
1000
0000
,
0001
0010
0001
0010
,
0001
0000
0001
0000
,
0100
0001
0100
0001
,
0100
0000
0100
0000
,
0100
0010
0100
0010
,
1000
0000
1000
0000
,
0001
0010
0001
0100
,
0001
0000
0001
0000
,
0100
0010
0100
0010
,
1000
0000
1000
0000
,
1000
0001
1000
0001
,
0100
0000
0000
0000
,
0100
0100
0100
0000
,
0010
0010
0010
0000
,
0100
0100
0100
0000
,
0001
0001
0001
0000
,
1000
1000
1000
0000
,
0001
0001
0001
0000
,
1000
1000
1000
0000
,
0100
0010
0001
0001
,
0100
0010
0100
0001
,
0100
0010
0100
0000
,
0001
1000
0001
0100
,
0001
1000
0001
0000
,
1000
0001
1000
0010
,
1000
0001
1000
0000
,
0010
0000
0010
0000
,
0010
0000
0000
0000
,
1001
0100
1000
0000
,
0001
0100
0001
0000
,
0100
0010
0100
0000
,
0010
1000
0010
0000
,
0100
0001
0100
0000
,
0001
0010
0100
1000
,
0001
1000
0001
0000
,
1000
0100
0010
0001
,
0100
0100
0100
0100
,
0000
0000
0000
0000
,
0010
0010
0010
0010
,
0000
0000
0000
0000
,
1000
1000
1000
1000
,
0000
0000
0000
0000
,
0001
0001
0001
0001
,
2000
0000
0000
0000
,
3000
0000
0000
0000
;

//---------------dance-single - ----------------
#NOTES:
     dance-single:
     :
     Hard:
     8:
     0.548,0.628,0.542,0.027,0.000:
0000
0000
0000
0000
,
0000
0000
0000
0000
,
0000
0000
0000
0000
,
0000
0000
0000
0000
,
0000
0000
0000
0000
,
0000
0000
0000
0000
,
0000
0000
0000
0000
,
0000
0000
0000
0000
,
0000
0000
0000
0000
,
0000
0000
0000
0000
,
1000
0100
0001
0100
,
1000
0100
0010
0001
,
0010
1000
0010
0001
,
0010
0100
1000
0010
,
1000
0100
0001
0010
,
1000
0100
0010
0001
,
0200
0000
0000
0300
,
0110
0000
0000
0000
,
0011
0100
0100
0000
,
1100
0010
0010
0000
,
0101
0010
0010
0000
,
1010
0100
0100
0000
,
0001
0100
0001
0000
1001
0000
0000
0000
,
1000
0010
1000
0000
0001
0000
1001
0000
,
0100
0000
0010
0100
0010
0000
1000
0001
,
0100
0010
0100
0110
,
0011
0100
1000
0100
,
0010
0001
1000
0001
,
1100
0010
0001
0010
,
0100
1000
0001
1000
,
1001
1000
1001
0001
,
0110
1000
0110
0001
,
0100
0010
0100
0010
0100
0010
0100
0000
,
2002
0000
0000
3003
,
1100
0000
1100
0000
1000
0001
0010
0001
,
0010
0001
0000
1000
0000
0100
0010
0000
,
0011
0000
0011
0000
0001
1000
0100
1000
,
0100
1000
0001
0000
0010
0100
1000
0000
,
1010
0000
1010
0000
1000
0001
0010
0001
,
0010
0001
0000
1000
0000
0010
0100
0000
,
1010
0000
1010
0000
1000
0001
0010
0001
,
0010
0001
0100
0000
0001
0010
0100
0000
,
1001
0000
0101
0000
0010
1000
0010
1000
,
0100
1000
0000
0001
0000
1000
0100
0010
,
0001
0000
1010
0000
0100
0001
0010
0001
,
0010
0001
1000
0000
0100
0010
0001
0000
,
1001
0000
1100
0000
0010
0001
0100
0001
,
0100
0001
0010
0000
0001
1000
0100
0000
,
1001
0000
0011
0000
0100
1000
0010
1000
,
0010
0100
0000
0001
0000
0010
0000
1000
,
0100
0000
1000
0100
0001
0000
0100
0010
,
0100
0001
0000
0010
0100
0000
1000
0001
,
0100
0000
0010
0100
0010
1000
0100
0000
,
1000
0010
0000
0010
0100
0000
0001
1000
,
0100
0000
1000
0100
0001
0000
0100
0000
,
0110
0000
0001
0100
0000
0100
0010
1000
,
0100
0000
1000
0001
0000
0000
0100
0000
,
0110
0000
0001
0010
1000
0000
1001
0000
,
0010
1000
0100
0010
0100
0000
1000
0001
,
1000
0100
0000
1000
0001
0000
1001
0000
,
0100
0001
0010
0100
0010
0000
0001
1000
,
0001
0100
0000
0001
1000
0000
1001
0000
,
0110
0000
0001
0100
0010
0000
0110
0000
,
1001
0000
0010
1000
0000
0100
0010
0001
,
0100
0001
0000
0010
0000
1000
0000
0100
,
0010
0010
0010
0010
,
1001
0000
0100
1000
0010
0000
1000
0001
,
0000
0010
0100
1000
0100
0010
0001
0000
,
0011
0000
0100
1000
0100
0010
0001
1000
,
0000
0100
0010
0001
0010
0100
1000
0000
,
1100
0000
0010
0001
0010
0100
1000
0001
,
0000
0010
0100
1000
0100
0010
0001
0000
,
0011
0000
0100
1000
0010
0000
0001
1000
,
0000
0100
0010
0001
0010
0100
1000
0000
,
1100
1010
1100
1010
,
0100
0010
0001
0010
1000
0010
0001
0000
,
0011
0101
0011
0101
,
0010
0100
1000
0100
0001
0100
1000
0000
,
1010
1100
1010
1100
,
0010
0100
0001
0100
1000
0100
0001
0000
,
0101
0011
0101
0011
,
0100
0010
1000
0000
1100
0000
1001
0000
;

//---------------dance-single - ----------------
#NOTES:
     dance-single:
     :
     Challenge:
     9:
     0.634,0.665,0.515,0.027,0.149: // measure 1
0000
0000
0000
0000
,  // measure 2
0000
0000
0000
0000
,  // measure 3
0000
0000
0000
0000
,  // measure 4
0000
0000
0000
0000
,  // measure 5
0000
0000
0000
0000
,  // measure 6
0000
0000
0000
0000
,  // measure 7
0000
0000
0000
0000
,  // measure 8
0000
0000
0000
0000
,  // measure 9
0000
0000
0000
0000
,  // measure 10
0000
0000
0000
0000
,  // measure 11
0001
0010
0100
0000
1000
0000
1001
0000
,  // measure 12
1000
0100
0010
0000
0001
0000
1001
0000
,  // measure 13
0010
0001
0100
0000
0010
0000
1001
0000
,  // measure 14
0100
1000
0010
0000
0100
0000
1001
0000
,  // measure 15
0100
0001
0010
0000
0100
0000
1001
0000
,  // measure 16
0010
1000
0100
0000
0010
0000
1001
0000
,  // measure 17
0020
0000
0000
0030
,  // measure 18
0110
0000
0000
0000
,  // measure 19
1000
0000
0010
0000
1000
0000
0000
1000
0000
0000
0100
0000
0010
0000
0000
0000
,  // measure 20
0001
0000
0100
0000
0001
0000
0000
0001
0000
0000
0010
0000
0100
0000
0000
0000
,  // measure 21
1000
0000
0010
0000
1000
0000
0000
1000
0000
0000
0100
0000
0010
0000
0000
0000
,  // measure 22
0001
0000
0100
0000
0001
0000
0000
0001
0000
0000
0010
0000
0100
0000
0000
0000
,  // measure 23
1001
0000
1000
0100
0001
0000
0100
0001
,  // measure 24
0010
0100
0010
0001
0100
0000
1001
0000
,  // measure 25
1001
0000
0001
0010
1000
0000
0010
1000
,  // measure 26
0100
0010
0100
1000
0010
0000
1001
0000
,  // measure 27
1100
0010
1100
0010
,  // measure 28
0101
1000
0101
1000
,  // measure 29
0011
0100
0011
0100
,  // measure 30
1010
0000
0000
0000
0001
0000
0000
0000
1010
0000
0000
0001
0100
0000
0000
0100
,  // measure 31
0010
0000
0000
0010
1000
0000
0000
0010
1000
0000
0000
0100
0010
0000
0000
0100
,  // measure 32
0010
0000
0000
0001
0100
0000
0000
0001
0100
0000
0000
0001
1000
0000
0000
0001
,  // measure 33
1000
0100
0010
0100
0010
0100
0010
0000
,  // measure 34
2002
0000
0000
3003
,  // measure 35
0100
0000
0001
0000
0010
0000
0000
0010
0000
0000
0001
0000
0100
0000
0000
0100
,  // measure 36
0000
0010
1000
0100
0010
0100
1000
0000
,  // measure 37
0010
0000
1000
0000
0100
0000
0000
0100
0000
0000
1000
0000
0010
0000
0000
0010
,  // measure 38
0000
0100
0001
0010
0100
0010
0001
0000
,  // measure 39
0100
0000
0001
0000
0010
0000
0000
0010
0000
0000
0001
0000
0100
0000
0000
0100
,  // measure 40
0000
0010
1000
0010
0100
0010
1000
0000
,  // measure 41
0010
0000
1000
0000
0100
0000
0000
0100
0000
0000
1000
0000
0010
0000
0000
0010
,  // measure 42
0000
0100
0001
0100
0010
0100
0001
0000
,  // measure 43
1001
0000
1010
0000
0100
0001
0100
0001
,  // measure 44
0010
0001
0000
1001
0000
0001
0010
0100
,  // measure 45
1000
0000
1001
0000
0010
1000
0100
1000
,  // measure 46
0000
1001
0000
1000
0100
0010
0001
0000
,  // measure 47
1001
0000
0100
0001
0100
0001
0010
0001
,  // measure 48
0000
1001
0000
0001
0010
0100
1000
0000
,  // measure 49
1001
0000
0100
1000
0100
1000
0010
1000
,  // measure 50
0100
0010
0000
0001
0000
0100
0000
1000
,  // measure 51
0010
0100
0010
0100
0001
0000
0010
0100
,  // measure 52
0010
0001
0010
0100
1000
0000
0001
1000
,  // measure 53
0010
0100
0010
0100
0001
0010
0100
0000
,  // measure 54
1000
0010
0100
0010
0100
0000
1001
0000
,  // measure 55
0100
0010
1000
0100
0010
0000
1001
0000
,  // measure 56
0010
1000
0100
0010
0000
0001
0010
1000
,  // measure 57
0010
0100
0010
1000
0010
0000
1001
0000
,  // measure 58
0100
0000
0001
0000
0010
0000
0001
0000
0010
0000
0000
0001
1000
0000
0010
0000
,  // measure 59
1000
0001
0010
0100
0010
0001
0010
1000
,  // measure 60
0010
0001
0010
0100
1000
0000
1001
0000
,  // measure 61
0001
1000
0100
0010
0100
1000
0100
0001
,  // measure 62
0100
1000
0100
0010
0001
0000
1001
0000
,  // measure 63
0110
0000
1000
0010
0100
0000
0110
0000
,  // measure 64
1001
0000
0100
0001
0010
0100
1000
0100
,  // measure 65
0010
0001
1001
1000
,  // measure 66
1001
0000
0100
1000
0100
1000
0100
0000
,  // measure 67
1001
0000
0000
0000
0010
0000
0001
0000
0010
0100
0000
0010
0100
0000
1000
0000
,  // measure 68
0100
0010
0001
0100
0001
0000
1001
0000
,  // measure 69
0011
0000
0000
0000
0100
0000
1000
0000
0100
0010
0000
0100
0010
0000
0001
0000
,  // measure 70
0010
0100
1000
0010
1000
0000
1001
0000
,  // measure 71
1100
0000
0000
0000
0010
0000
0001
0000
0100
0010
0000
0100
0010
0000
1000
0000
,  // measure 72
0100
0010
0001
0100
0001
0000
1001
0000
,  // measure 73
0011
0000
0000
0000
0100
0000
1000
0000
0010
0100
0000
0010
0100
0000
0001
0000
,  // measure 74
0010
0100
1000
0010
1000
0000
1001
0000
,  // measure 75
0011
0000
0011
0000
0001
0010
0100
1000
,  // measure 76
0100
0001
0100
1000
0010
0000
0110
0000
,  // measure 77
1100
0000
1100
0000
1000
0100
0010
0001
,  // measure 78
0010
1000
0010
0001
0100
0000
0110
0000
,  // measure 79
0101
0000
0101
0000
0001
0100
0010
1000
,  // measure 80
0010
0001
0010
1000
0100
0000
0110
0000
,  // measure 81
1010
0000
1010
0000
1000
0100
0010
0001
,  // measure 82
0001
0000
0100
0000
0001
0010
0000
0001
0010
0000
0001
0000
1000
0000
0000
0000
;

//---------------dance-single - ----------------
#NOTES:
     dance-single:
     :
     Beginner:
     2:
     0.088,0.219,0.063,0.000,0.000:
0000
0000
0000
0000
,
0000
0000
0000
0000
,
0000
0000
0000
0000
,
0000
0000
0000
0000
,
0000
0000
0000
0000
,
0000
0000
0000
0000
,
0000
0000
0000
0000
,
0000
0000
0000
0000
,
0000
0000
0000
0000
,
0000
0000
0000
0000
,
1000
0000
0000
0000
,
0000
0000
0000
0000
,
0001
0000
0000
0000
,
0000
0000
0000
0000
,
1000
0000
0000
0000
,
0000
0000
0000
0000
,
0001
0000
0000
0000
,
0000
0000
0000
0000
,
0100
0000
0000
0000
,
0000
0000
0000
0000
,
0100
0000
0000
0000
,
0000
0000
0000
0000
,
0010
0000
0000
0000
,
0000
0000
0000
0000
,
0010
0000
0000
0000
,
0000
0000
0000
0000
,
1001
0000
0000
0000
,
0000
0000
0000
0000
,
1001
0000
0000
0000
,
0000
0000
0000
0000
,
1001
0000
0000
0000
,
0011
0000
0000
0000
,
1100
0000
0000
0000
,
1000
0000
0000
0000
,
0001
0000
0000
0000
,
0001
0000
0000
0000
,
1000
0000
0000
0000
,
1000
0000
0000
0000
,
0010
0000
0000
0000
,
0010
0000
0000
0000
,
0100
0000
0000
0000
,
0100
0000
0000
0000
,
0001
0000
0000
0000
,
0001
0000
0000
0000
,
0010
0000
0000
0000
,
0010
0000
0000
0000
,
0100
0000
0000
0000
,
0100
0000
0000
0000
,
1000
0000
0000
0000
,
1000
0000
0000
0000
,
0001
0000
0000
0000
,
1000
0000
0000
0000
,
0001
0000
0000
0000
,
1000
0000
0000
0000
,
0010
0000
0000
0000
,
0100
0000
0000
0000
,
0010
0000
0000
0000
,
0100
0000
0000
0000
,
1001
0000
0000
0000
,
0001
0000
0000
0000
,
1000
0000
0000
0000
,
0001
0000
0000
0000
,
0100
0000
0000
0000
,
0010
0000
0000
0000
,
0100
0000
0000
0000
,
0000
0000
0000
0000
,
1001
0000
0000
0000
,
0001
0000
0000
0000
,
0010
0000
0000
0000
,
0001
0000
0000
0000
,
1000
0000
0000
0000
,
0100
0000
0000
0000
,
1000
0000
0000
0000
,
0001
0000
0000
0000
,
1000
0000
0000
0000
,
1000
0000
0000
0000
,
0100
0000
0000
0000
,
0100
0000
0000
0000
,
0010
0000
0000
0000
,
0010
0000
0000
0000
,
0001
0000
0000
0000
,
0001
0000
0000
0000
;

//---------------dance-single - ----------------
#NOTES:
     dance-single:
     :
     Medium:
     7:
     0.458,0.665,0.415,0.009,0.000:
0000
0000
0000
0000
,
0000
0000
0000
0000
,
0000
0000
0000
0000
,
0000
0000
0000
0000
,
0000
0000
0000
0000
,
0000
0000
0000
0000
,
0000
0000
0000
0000
,
0000
0000
0000
0000
,
0000
0000
0000
0000
,
0000
0000
0000
0000
,
0001
1000
0001
1000
,
0010
0100
0010
0100
,
0001
1000
0001
1000
,
0010
0100
0010
0100
,
0001
0010
0100
1000
,
0100
0000
0010
0000
0001
0000
1000
0001
,
2000
0000
0000
0001
,
3001
0000
0000
0000
,
1001
0010
1001
0000
,
1001
0100
1001
0000
,
1001
0010
1001
0000
,
1001
0100
1001
0000
,
0011
0100
1000
0100
,
1000
0000
0001
0000
1000
0000
0010
0100
,
0010
1000
0100
0010
,
0001
1000
0001
0000
0100
0000
0100
0000
,
1001
0010
0010
0010
,
0100
0100
0100
0100
,
1001
0100
0100
0100
,
0010
0010
0010
0010
,
1001
0011
1001
0011
,
1001
1100
1001
1100
,
1001
0110
1001
0110
,
1001
0000
0000
0000
,
0010
0000
0010
0000
0001
1000
0001
0000
,
0010
0000
0100
0000
1000
0010
1000
0000
,
0100
0000
0100
0000
1000
0001
1000
0000
,
0100
0000
0010
0000
0001
0100
0001
0000
,
0010
0000
0010
0000
0001
1000
0001
0000
,
0010
0000
0100
0000
1000
0010
1000
0000
,
0100
0000
0100
0000
1000
0001
1000
0000
,
0100
0000
0010
0000
0001
0010
0001
0000
,
0100
0000
0100
0000
0001
1000
0001
0000
,
0010
0000
0100
0000
1000
0100
1000
0000
,
0010
0000
0010
0000
1000
0001
1000
0000
,
0100
0000
0010
0000
0001
1000
0001
0000
,
0100
0000
0110
0000
0001
1000
0001
1000
,
0001
0010
0100
1000
,
0010
0000
0110
0000
1000
0001
1000
0001
,
1000
0000
0000
0000
,
0110
0010
1000
0001
,
0100
0010
0100
0000
1001
0000
0000
0000
,
0110
0100
0001
1000
,
0010
0100
0010
0000
1001
0000
0000
0000
,
0110
0000
0001
0000
0100
0000
0010
0100
,
0010
0000
1000
0001
1000
0000
0010
1000
,
0010
1000
0001
1000
,
0110
0000
0001
1000
0001
1000
0001
0000
,
0011
0100
1000
0001
,
0100
0010
0100
0000
0001
0000
1001
0000
,
1100
0010
0001
1000
,
0010
0100
0010
0000
1000
0000
1001
0000
,
0011
0100
1000
0001
,
0100
0000
0001
1000
0000
0010
0100
0010
,
0100
0000
0100
0000
,
0100
0000
0000
0000
,
1001
0000
0010
0001
0010
0000
0001
0000
,
0010
0100
1000
0001
,
1001
0000
0100
1000
0100
0000
1000
0000
,
0100
0010
0001
1000
,
1001
0000
0100
0001
0100
0000
0001
0000
,
0010
0100
1000
0001
,
1001
0000
0010
1000
0010
0000
1000
0000
,
0100
0010
0001
1001
,
0010
0000
0010
0000
0010
0001
0010
0001
,
0100
0010
0100
1001
,
0100
0000
0100
0000
0100
1000
0100
1000
,
0010
0100
0010
1001
,
0100
0000
0100
0000
0100
0001
0100
0001
,
0010
0100
0010
1001
,
0010
0000
0010
0000
0010
1000
0010
1000
,
0100
0010
0100
1001
;

//---------------dance-double - ----------------
#NOTES:
     dance-double:
     :
     Easy:
     4:
     0.305,0.370,0.145,0.072,0.000:
00000000
00000000
00000000
00000000
,
00000000
00000000
00000000
00000000
,
00000000
00000000
00000000
00000000
,
00000000
00000000
00000000
00000000
,
00000000
00000000
00000000
00000000
,
00000000
00000000
00000000
00000000
,
00000000
00000000
00000000
00000000
,
00000000
00000000
00000000
00000000
,
00000000
00000000
00000000
00000000
,
00000000
00000000
00000000
00000000
,
10000000
00000000
00010000
00000000
,
10000000
00000000
10000000
00000000
,
00100000
00000000
01000000
00000000
,
00100000
00000000
00100000
00000000
,
10000000
00000000
01000000
00000000
,
00100000
00000000
00010000
00000000
,
00011000
00000000
00000000
00000000
,
00001000
00000000
00000000
00000000
,
00001100
00000000
00000010
00000000
,
00000001
00000000
00000010
00000000
,
00000100
00000000
00001000
00000000
,
00000001
00000000
00001000
00000000
,
00000010
00000100
00000010
00000000
,
00001000
00000001
00001000
00000001
,
00000010
00000100
00001000
00010000
,
00001000
00010000
00001000
00010000
,
01100000
00000000
10000000
00000000
,
01100000
00000000
00010000
00000000
,
00011000
00000000
00001000
00000000
,
00000110
00000000
00000001
00000000
,
00000110
00000000
00000100
00000000
,
00000110
00000000
00000010
00000000
,
00001001
00000010
00000100
00001000
,
00011000
00000000
00000000
00000000
,
00100000
01000000
10000000
01000000
,
10000000
00010000
10000000
00000000
,
00100000
01000000
00010000
00100000
,
00010000
10000000
00010000
00000000
,
00100000
00001000
00010000
00001000
,
00010000
00000100
00001000
00000000
,
00000010
00000100
00000010
00001000
,
00000010
00000100
00000010
00000000
,
00000100
00000010
00000100
00000001
,
00000010
00000100
00001000
00000000
,
00010000
00100000
00010000
10000000
,
00010000
10000000
00010000
00000000
,
10000000
01000000
10000000
00010000
,
10000000
00010000
00100000
00000000
,
00001000
00010000
00001000
00010000
,
00000010
00000000
00000000
00000000
,
00000100
00000010
00000100
00000010
,
00000100
00000010
00000100
00000000
,
00000001
00001000
00000001
00001000
,
00000001
00001000
00000001
00000000
,
00010000
00001000
00010000
00001000
,
00010000
00001000
00010000
00000000
,
00001000
01000000
00001000
01000000
,
00001000
00010000
00100000
01000000
,
10010000
00000000
01000000
00010000
,
01000000
00100000
01000000
00000000
,
00010000
10000000
00010000
01000000
,
00010000
10000000
00010000
00000000
,
10000000
00010000
10000000
00100000
,
10000000
00010000
10000000
01000000
,
00100000
00010000
00001000
00010000
,
00001000
00000000
00000000
00000000
,
00011000
00000100
00000010
00000001
,
00001000
00000010
00001000
00000000
,
00000010
00000100
00000010
00000100
,
00000001
00000100
00000001
00000000
,
00000100
00000010
00000100
00000001
,
00000010
00000100
00001000
00010000
,
00001000
00010000
00001000
00000000
,
00010000
00100000
01000000
10000000
,
01000000
01000000
01000000
01000000
,
02200000
00000000
00000000
03300000
,
00100000
00100000
00100000
00100000
,
02200000
00000000
00000000
03300000
,
00010000
00010000
00010000
00010000
,
00022000
00000000
00000000
00033000
,
00001000
00001000
00001000
00001000
,
00000220
00000000
00000000
00000000
,
00000330
00000000
00000000
00000000
;
