#TITLE:CAN'T TAKE MY EYES OFF YOU;
#SUBTITLE:(70's REMIX);
#ARTIST:BEAT BOX;
#TITLETRANSLIT:;
#SUBTITLETRANSLIT:;
#ARTISTTRANSLIT:;
#CREDIT:DMAxel;
#BANNER:CAN'T TAKE MY EYES OFF YOU (70's REMIX).png;
#BACKGROUND:CAN'T TAKE MY EYES OFF YOU (70's REMIX)-bg.png;
#LYRICSPATH:CAN'T TAKE MY EYES OFF YOU (70's REMIX).lrc;
#CDTITLE:Dancemania X2.png;
#MUSIC:CAN'T TAKE MY EYES OFF YOU (70's REMIX).mp3;
#OFFSET:-0.100;
#SAMPLESTART:14.599;
#SAMPLELENGTH:12.000;
#SELECTABLE:YES;
#BPMS:0.000=134.000;
#STOPS:;
#BGCHANGES:;

//---------------dance-single - ----------------
#NOTES:
     dance-single:
     :
     Easy:
     3:
     0.185,0.302,0.165,0.033,0.000:
0000
0000
0000
0000
,
0000
0000
0000
0000
,
0000
0000
0000
0000
,
0000
0000
0000
0000
,
0001
0000
1000
0000
,
0001
0000
0000
0000
,
0100
0000
0010
0000
,
0100
0000
0100
0000
,
0100
0010
1000
0001
,
1001
0000
0000
0100
,
0000
0010
0000
0100
,
0000
0001
0000
0010
,
0000
0001
0000
1000
,
0000
0100
0000
1000
,
0000
0010
0000
0100
,
0000
0010
0000
1000
,
0000
0001
0010
0100
,
1001
0000
0000
0010
,
0000
0100
0000
0001
,
0000
1000
0000
0100
,
0000
0010
0000
0001
,
0000
0010
0000
0001
,
0000
1000
0000
0100
,
2000
0000
0000
0000
,
3020
0000
0000
0000
,
0130
0010
1000
0000
,
0000
0000
0001
0010
,
0001
0000
0000
1000
,
0000
0001
0100
0010
,
0100
0000
0100
0000
,
0000
0000
0001
1000
,
0001
0000
0000
0100
,
0000
0010
1000
0100
,
1000
0000
0010
0000
,
0000
0000
1000
0001
,
1000
0000
0000
0010
,
0000
0000
0100
0001
,
0010
0000
0001
0000
,
0010
0000
0100
1000
,
0020
0000
0000
0130
,
0010
0100
0010
0100
,
1001
0000
0101
0000
,
1001
0000
0000
0000
,
1001
0000
1010
0000
,
1001
0000
0000
0000
,
1001
0000
0011
0000
,
1001
0000
0000
0000
,
1001
0000
1100
0000
,
1001
0010
0100
1000
,
0010
0010
0100
0001
,
1001
0000
0000
0000
;

//---------------dance-single - ----------------
#NOTES:
     dance-single:
     :
     Hard:
     6:
     0.392,0.412,0.286,0.220,0.000: // measure 1
0000
0000
0000
0000
,  // measure 2
0000
0000
0000
0000
,  // measure 3
0000
0000
0000
0000
,  // measure 4
0000
0000
0000
0000
,  // measure 5
1001
1000
1001
0001
,  // measure 6
1002
0000
0000
0010
0000
0013
0000
0000
,  // measure 7
1001
0001
1001
1000
,  // measure 8
2002
0000
0000
0000
,  // measure 9
3003
0100
0001
0010
,  // measure 10
1002
0000
0000
0013
0000
0100
1000
0100
,  // measure 11
1000
0010
0000
0100
0000
0001
0100
0001
,  // measure 12
0200
0000
0000
0310
0000
1000
0001
1000
,  // measure 13
0001
0100
0000
0010
0000
0100
0001
0100
,  // measure 14
0002
0000
0000
1003
0000
0000
0010
0000
,  // measure 15
0100
0010
0000
1000
0000
0010
0100
0000
,  // measure 16
0002
0000
0000
0000
,  // measure 17
0013
1001
1001
0110
,  // measure 18
2000
0000
0000
3010
0100
0000
0010
0100
,  // measure 19
0001
0100
0000
0010
0000
1000
0010
0100
,  // measure 20
0002
0000
0000
1003
0000
0010
0100
0010
,  // measure 21
1000
0020
0000
1030
0000
0100
0001
0000
,  // measure 22
0012
0000
0000
0203
0000
0000
0320
0000
,  // measure 23
0000
1030
0000
0000
0001
0100
0010
0100
,  // measure 24
0002
0000
0000
2000
0000
0000
3003
0000
,  // measure 25
0100
1000
0100
0000
0010
0001
0010
0100
,  // measure 26
1000
0100
0010
0001
,  // measure 27
0100
0000
0010
0000
1000
0010
0100
0010
,  // measure 28
2000
0000
0000
0001
0000
3001
0000
0000
,  // measure 29
0010
0000
0001
0000
0100
0001
0010
0001
,  // measure 30
0200
0000
0000
0010
0310
0000
1000
0000
,  // measure 31
0100
0000
0010
0000
0001
0100
0010
0100
,  // measure 32
0002
0000
0000
1000
,  // measure 33
1003
0000
0010
0000
1000
0010
0100
0010
,  // measure 34
1000
0010
0100
0000
,  // measure 35
0000
0001
0110
1000
,  // measure 36
1002
0000
0000
1000
0000
1003
0000
0000
,  // measure 37
0010
0000
0100
0000
0001
0100
0010
0100
,  // measure 38
0001
0010
0100
1000
,  // measure 39
0100
0000
1000
0000
0010
0100
0001
0100
,  // measure 40
0020
0000
0000
0100
0000
0130
0000
0000
,  // measure 41
0001
0010
0100
1000
,  // measure 42
1001
1000
1001
0001
,  // measure 43
1000
0100
0010
0001
0000
1001
0000
0100
,  // measure 44
0001
1001
1000
1001
,  // measure 45
0001
0010
0100
1000
0000
1001
0000
0010
,  // measure 46
1000
1001
0001
1001
,  // measure 47
1000
0100
0010
0001
0000
1001
0000
0010
,  // measure 48
1000
1001
0001
1001
,  // measure 49
0110
1000
0100
0010
,  // measure 50
0001
0010
0001
0010
1000
0100
0001
0100
,  // measure 51
1001
0000
0000
0000
;

//---------------dance-single - ----------------
#NOTES:
     dance-single:
     :
     Challenge:
     7:
     0.502,0.522,0.516,0.022,0.049: // measure 1
0000
0000
0000
0000
,  // measure 2
0000
0000
0000
0000
,  // measure 3
0000
0000
0000
0000
,  // measure 4
0000
0000
0000
0000
,  // measure 5
1001
0011
1001
1100
,  // measure 6
1001
0000
0010
0100
0000
0110
0000
0001
,  // measure 7
1001
1010
1001
0101
,  // measure 8
2001
0100
0010
3001
,  // measure 9
0010
0100
0010
0001
0010
0100
1000
0001
,  // measure 10
1001
0000
0010
0100
0000
0001
0100
0010
,  // measure 11
1000
0010
1000
0010
0000
1000
0100
0010
,  // measure 12
0001
0100
0001
0100
0000
0001
0100
1000
,  // measure 13
0100
1000
0010
0100
0000
0001
0010
0100
,  // measure 14
1001
0000
1000
0010
0000
0100
0100
0000
,  // measure 15
0001
0100
0001
0010
0100
1000
0010
0100
,  // measure 16
0001
0010
0100
1000
,  // measure 17
0010
0000
1000
0010
0100
0001
0010
0100
,  // measure 18
1001
0000
0000
1001
0000
0001
0010
1000
,  // measure 19
0100
1000
0100
1000
0000
1000
0100
0010
,  // measure 20
0001
0100
0001
0100
0000
0010
1000
0100
,  // measure 21
1000
0001
0000
0101
0000
0010
0100
0010
,  // measure 22
1000
0010
0000
0010
0100
0000
0100
0001
,  // measure 23
0000
1001
0000
0001
0010
0001
0010
0100
,  // measure 24
1000
0001
0010
0001
,  // measure 25
1000
0000
0100
0000
0010
0000
0001
0000
0100
0000
0000
0010
0000
0000
0100
0000
,  // measure 26
0101
0000
0000
0010
0000
0000
1000
0000
0100
0000
1000
0000
0100
0000
0000
0000
,  // measure 27
0010
0000
0001
0000
0010
0000
0000
0000
0001
0000
0000
0100
0000
0000
0010
0000
,  // measure 28
0100
0000
0001
1000
0001
1000
0001
0000
,  // measure 29
0100
0000
0010
0000
0100
0000
0000
0000
0010
0000
0000
1000
0000
0000
0010
0000
,  // measure 30
0100
0000
0000
0001
0000
0000
0010
0000
0001
0000
0010
0000
0001
0000
0000
0000
,  // measure 31
1000
0100
1000
0000
1000
0100
0010
0001
,  // measure 32
1001
0000
0010
0000
0100
0001
0010
0100
,  // measure 33
1000
0000
0010
0000
0100
0000
0000
0000
0001
0000
0000
0100
0000
0000
0010
0000
,  // measure 34
1000
0000
0100
0010
0001
0000
0010
0001
,  // measure 35
0100
0000
0010
1000
0100
1000
0010
0000
,  // measure 36
1001
0000
0010
0001
0100
0001
0010
0000
,  // measure 37
0001
0000
0100
0000
0001
0000
0000
0000
0100
0000
0000
0001
0000
0000
0100
0000
,  // measure 38
0010
0000
0000
1000
0000
0000
0100
0000
1000
0000
0010
0000
1000
0000
0000
0000
,  // measure 39
0001
0000
0100
0000
0001
0000
0000
0000
0100
0000
0000
0010
0000
0000
0100
0000
,  // measure 40
0001
0000
1000
0001
1000
0001
1000
0100
,  // measure 41
0010
0001
0010
0001
0010
1000
0100
0010
,  // measure 42
1001
0101
1001
1010
,  // measure 43
1001
0010
0001
0011
0000
0011
0000
0100
,  // measure 44
1001
1100
1001
0011
,  // measure 45
1001
0100
1000
1100
0000
1100
0000
0010
,  // measure 46
1001
0011
1001
1100
,  // measure 47
1001
0100
0001
0101
0000
0101
0000
0010
,  // measure 48
1001
1100
1001
0011
,  // measure 49
1002
0010
0100
0010
,  // measure 50
1003
0100
0010
0001
0010
1000
0010
0001
,  // measure 51
1001
0000
0000
0000
;

//---------------dance-single - ----------------
#NOTES:
     dance-single:
     :
     Medium:
     5:
     0.295,0.384,0.088,0.099,0.000:
0000
0000
0000
0000
,
0000
0000
0000
0000
,
0000
0000
0000
0000
,
0000
0000
0000
0000
,
0001
0000
1000
0000
,
0002
0000
0000
0100
0000
0103
0000
0000
,
0100
0000
0010
0000
,
1001
0010
0100
0010
,
0100
0010
1000
0100
,
1001
0000
0010
0000
0100
0000
1000
0001
,
1000
0000
0010
0000
0100
0010
0100
0000
,
0010
0100
0010
1000
,
0001
1000
0010
0100
,
0010
1000
0010
0100
,
0001
0100
0010
0100
,
0020
0000
0000
0000
,
0130
0001
1000
0011
,
1001
0100
1000
0100
,
0010
0000
0001
0000
0100
0010
0100
0000
,
0010
0000
0100
0000
0001
0100
0010
0000
,
1000
0001
1000
0010
,
1100
0000
0000
0010
0000
0000
0001
0000
,
0000
0010
0000
0000
0100
0000
0100
0000
,
1000
0000
0000
0001
0000
0000
0000
0000
,
0100
0010
0100
0010
,
0200
0000
0000
0310
,
1000
0001
0100
0010
,
2000
0000
0000
3001
,
0010
0001
1000
0010
,
0100
0001
0100
0000
,
0010
0000
1000
0000
0010
0100
0010
0000
,
0200
0000
0310
1000
,
0001
0000
0010
0000
0001
1000
0001
0000
,
0200
0000
0000
0310
,
1000
0000
0001
0000
0100
0010
0100
0000
,
2001
0000
0000
3001
,
0100
0000
0010
0000
0100
0010
0100
0000
,
0020
0000
0000
0000
,
1030
0001
0100
0010
,
0200
0000
0000
0010
0000
0310
0000
0000
,
0000
0000
0010
0100
,
0001
0010
0100
1000
,
0001
0000
0100
0010
0000
0010
0000
0010
,
1000
0100
0010
0001
,
1000
0000
0010
0100
0000
0100
0000
0100
,
0001
0010
0100
1000
,
0001
0000
0100
0010
0000
0010
0000
0010
,
1000
0100
0010
0001
,
1001
0010
0100
0010
,
1000
0100
1000
0000
0001
0010
0001
0010
,
1001
0000
0000
0000
;

//---------------dance-single - ----------------
#NOTES:
     dance-single:
     :
     Beginner:
     1:
     0.049,0.082,0.055,0.000,0.000:
0000
0000
0000
0000
,
0000
0000
0000
0000
,
0000
0000
0000
0000
,
0000
0000
0000
0000
,
1000
0000
0000
0000
,
0000
0000
0000
0000
,
0001
0000
0000
0000
,
1000
0000
0000
0000
,
0000
0000
0000
0000
,
1001
0000
0000
0000
,
0000
0000
0000
0000
,
0010
0000
0000
0000
,
0000
0000
0000
0000
,
0010
0000
0000
0000
,
0000
0000
0000
0000
,
0100
0000
0000
0000
,
0000
0000
0000
0000
,
1001
0000
0000
0000
,
0000
0000
0000
0000
,
0100
0000
0000
0000
,
0000
0000
0000
0000
,
0100
0000
0000
0000
,
0000
0000
0000
0000
,
1000
0000
0000
0000
,
0000
0000
0000
0000
,
1001
0000
0000
0000
,
0000
0000
0000
0000
,
0010
0000
0000
0000
,
0000
0000
0000
0000
,
0100
0000
0000
0000
,
0000
0000
0000
0000
,
1000
0000
0000
0000
,
0000
0000
0000
0000
,
0001
0000
0000
0000
,
0000
0000
0000
0000
,
0010
0000
0000
0000
,
0000
0000
0000
0000
,
0100
0000
0000
0000
,
0000
0000
0000
0000
,
1000
0000
0000
0000
,
0001
0000
0000
0000
,
1001
0000
0000
0000
,
0000
0000
0000
0000
,
1000
0000
0000
0000
,
0000
0000
0000
0000
,
0100
0000
0000
0000
,
0000
0000
0000
0000
,
0010
0000
0000
0000
,
0001
0000
0000
0000
,
0000
0000
0000
0000
,
1001
0000
0000
0000
;
