#TITLE:Butterfly;
#SUBTITLE:;
#ARTIST:♪♪♪♪♪;
#TITLETRANSLIT:;
#SUBTITLETRANSLIT:;
#ARTISTTRANSLIT:(J-POP);
#CREDIT:DMAxel;
#BANNER:Butterfly.png;
#BACKGROUND:Butterfly-bg.png;
#LYRICSPATH:Butterfly.lrc;
#CDTITLE:pop'n music.png;
#MUSIC:Butterfly.mp3;
#OFFSET:-11.220;
#SAMPLESTART:79.834;
#SAMPLELENGTH:12.000;
#SELECTABLE:YES;
#BPMS:0.000=110.990;
#STOPS:;
#BGCHANGES:;

//---------------dance-single - ----------------
#NOTES:
     dance-single:
     :
     Easy:
     2:
     0.161,0.181,0.086,0.069,0.000: // measure 1
2000
0000
0000
0000
,  // measure 2
3002
0000
0000
0000
,  // measure 3
2003
0000
0000
0000
,  // measure 4
3001
0000
0000
0001
,  // measure 5
1000
0000
1000
0000
,  // measure 6
0001
0000
0001
0000
,  // measure 7
1001
0000
1000
0000
,  // measure 8
1000
0000
0001
0000
,  // measure 9
1000
0001
1000
0000
,  // measure 10
0010
0100
0010
0000
,  // measure 11
1001
0000
1000
0000
,  // measure 12
1000
0100
0010
0000
,  // measure 13
0001
0010
0100
0000
,  // measure 14
1000
0010
0100
0000
,  // measure 15
0001
0100
0010
0000
,  // measure 16
1000
1000
1000
0000
,  // measure 17
0001
0001
0001
0000
,  // measure 18
1000
0001
1000
0000
,  // measure 19
0001
1000
0001
0000
,  // measure 20
1000
1000
0010
0000
,  // measure 21
1000
1000
0010
0000
,  // measure 22
0100
0001
0010
0100
,  // measure 23
1000
0000
0010
0010
,  // measure 24
2000
0000
0000
0000
,  // measure 25
3002
0000
0000
0000
,  // measure 26
1003
0100
0000
0100
,  // measure 27
1000
0001
0000
0001
,  // measure 28
0010
0100
0000
0100
,  // measure 29
0010
1000
0100
1000
,  // measure 30
1001
0000
0000
0000
,  // measure 31
1010
0000
0000
0000
,  // measure 32
1001
0000
0000
0000
,  // measure 33
1000
0100
1000
0100
,  // measure 34
1000
0100
1000
0100
,  // measure 35
0001
0010
0001
0010
,  // measure 36
0001
0010
1000
0100
,  // measure 37
0010
0001
1000
0100
,  // measure 38
0010
0100
0010
0100
,  // measure 39
0010
0001
0010
0100
,  // measure 40
2000
0000
0000
0000
,  // measure 41
3001
0000
0110
0000
,  // measure 42
1001
1001
1001
0000
,  // measure 43
0000
0000
0010
0000
,  // measure 44
0100
0000
0000
0000
0000
2002
0000
0000
,  // measure 45
0000
0000
0000
0000
,  // measure 46
0000
0000
0000
0000
,  // measure 47
0000
0000
0000
0000
0000
0000
0000
0000
0000
0000
0000
3003
0000
0000
0000
0000
;

//---------------dance-single - ----------------
#NOTES:
     dance-single:
     :
     Medium:
     4:
     0.254,0.301,0.181,0.077,0.013: // measure 1
0001
0000
0010
0000
,  // measure 2
0100
0000
1000
0000
,  // measure 3
0100
0000
0010
0000
,  // measure 4
0001
0000
1000
0001
0000
0000
1000
0000
,  // measure 5
1100
0000
0001
1000
,  // measure 6
0001
0000
1000
0001
,  // measure 7
0011
0000
1000
0001
,  // measure 8
1000
0000
0001
1000
,  // measure 9
0110
0001
1001
0000
,  // measure 10
0110
1000
1001
0000
,  // measure 11
1001
1000
0001
1000
,  // measure 12
0010
0100
0010
2000
0000
0000
3001
0000
,  // measure 13
0100
0010
0100
0002
0000
0000
1003
0000
,  // measure 14
0010
0100
0010
2000
0000
0000
3001
0000
,  // measure 15
0100
0010
0100
0002
0000
0000
0000
0000
,  // measure 16
1003
0100
0010
0001
,  // measure 17
0100
1000
0100
0001
,  // measure 18
0010
0100
1000
0001
,  // measure 19
0010
1000
0010
0001
,  // measure 20
1000
0010
1000
0000
0001
0000
0011
0000
,  // measure 21
0001
0100
0001
0000
1000
0000
1100
0000
,  // measure 22
1100
0000
0010
0000
0001
1000
0001
1000
,  // measure 23
0001
0100
0010
0100
,  // measure 24
0001
0010
0100
1000
0000
0000
0000
0000
,  // measure 25
1000
0100
0010
0001
0000
0000
0000
0000
,  // measure 26
0200
0001
0000
0301
,  // measure 27
0020
1000
0000
1030
,  // measure 28
0200
0001
0000
0301
,  // measure 29
0010
0100
1000
0001
,  // measure 30
1001
1000
1000
1000
,  // measure 31
0110
0000
0001
0000
,  // measure 32
1001
0000
1000
0000
,  // measure 33
1001
0000
1000
0000
1100
0000
0010
0001
,  // measure 34
0010
0000
0001
0000
0001
0010
0001
0000
,  // measure 35
1001
0000
0001
0000
0011
0000
0100
1000
,  // measure 36
0100
0000
1000
0000
1000
0100
1000
0000
,  // measure 37
0001
0100
0001
0100
0001
0000
1000
0100
,  // measure 38
1000
0100
1000
0000
0010
0100
0010
0100
,  // measure 39
0010
0000
1000
0100
0010
0001
1000
0000
,  // measure 40
0001
1000
0001
1000
0001
1000
0001
1000
,  // measure 41
0001
0000
0011
0000
,  // measure 42
1100
1001
1001
0000
,  // measure 43
0000
1000
0100
0010
,  // measure 44
0001
0000
0000
0000
0000
0000
0000
0000
0000
0100
0000
0000
0000
0000
0000
0000
0000
0000
0000
0000
0002
0000
0000
0000
0000
0000
0000
0000
0000
0000
0000
0000
,  // measure 45
0000
0000
0000
0000
0000
0000
0000
2000
0000
0000
0000
0000
0000
0000
0000
0000
,  // measure 46
0000
0000
0000
0000
,  // measure 47
0000
0000
0000
0000
0000
0000
0000
0000
3003
0000
0000
1000
0000
0000
0000
0000
;

//---------------dance-single - ----------------
#NOTES:
     dance-single:
     :
     Hard:
     6:
     0.344,0.362,0.172,0.112,0.017: // measure 1
1000
0100
0010
0001
,  // measure 2
0010
0100
1000
0001
,  // measure 3
0010
0100
2000
0001
,  // measure 4
3001
0010
0100
1000
0000
0000
0001
0000
,  // measure 5
1001
1000
0001
0100
,  // measure 6
1000
0100
0001
1000
,  // measure 7
1001
0001
1000
0100
,  // measure 8
0001
0100
1000
0001
,  // measure 9
0100
0001
0001
1000
0100
0000
1000
0000
,  // measure 10
0100
1000
1000
0001
0100
0000
0001
0000
,  // measure 11
1001
0000
1000
0100
0001
0001
0001
0000
,  // measure 12
1000
0100
0010
0001
1000
0000
1100
0000
,  // measure 13
0001
0010
0100
1000
0001
0000
0011
0000
,  // measure 14
1000
0010
0100
0001
1000
0000
1010
0000
,  // measure 15
0001
0100
0010
1000
0001
0100
0001
0100
,  // measure 16
0101
0000
1000
0000
0001
0100
1000
0000
,  // measure 17
0010
0100
0010
0000
1000
0000
0100
0000
,  // measure 18
1100
0000
0001
0000
1000
0100
0001
0000
,  // measure 19
0100
0010
0100
0000
0001
0000
1000
0000
,  // measure 20
0001
0100
0001
1000
0100
0000
0100
0000
,  // measure 21
0100
1000
0001
0100
0001
0000
0010
0000
,  // measure 22
0010
0001
1000
0010
1000
0001
0100
0001
,  // measure 23
0100
0000
0001
0010
0100
1000
0001
0000
,  // measure 24
0010
0000
0100
0000
1000
0000
0010
0000
0010
0000
0000
1000
0000
0000
0000
0000
,  // measure 25
0100
0010
0001
0100
0100
0010
0100
0010
,  // measure 26
0100
0001
1000
0000
0010
0000
1010
0000
,  // measure 27
0010
1000
0001
0000
0010
0000
0011
0000
,  // measure 28
0100
1000
0001
0000
0010
0100
1000
0000
,  // measure 29
0010
0000
0010
0000
0010
0100
0010
0000
,  // measure 30
1000
0001
1000
0001
1000
0001
1000
0001
,  // measure 31
0200
0000
0001
0000
0301
0100
0010
1000
,  // measure 32
0020
1000
1030
0101
,  // measure 33
1001
0000
0001
0100
0001
0000
1000
0100
,  // measure 34
0001
0010
0100
1000
0001
0100
0001
0000
,  // measure 35
1001
0000
1000
0010
1000
0000
0001
0010
,  // measure 36
1000
0100
0010
0001
1000
0010
1000
0000
,  // measure 37
0001
0010
0100
1000
0010
0100
0001
1000
,  // measure 38
0100
0001
0100
1000
0100
0001
1000
0010
,  // measure 39
0100
0001
0010
0100
1000
0001
0010
0100
,  // measure 40
1000
0001
1000
0001
1000
0001
1000
0001
,  // measure 41
0202
0303
2020
3030
,  // measure 42
0011
1100
2002
0000
,  // measure 43
3003
0001
1000
0100
,  // measure 44
0001
0000
0000
0000
0000
0000
0000
0000
0000
0010
0000
0000
0000
0000
0000
0000
0000
0000
0000
0000
0220
0000
0000
0000
0000
0000
0000
0000
0000
0000
0000
0000
,  // measure 45
0000
0000
0000
0000
0330
0000
0000
2002
0000
0000
0000
0000
0000
0000
0000
0000
,  // measure 46
0000
0000
0000
0000
,  // measure 47
0000
0000
0000
0000
0000
0000
0000
0000
3003
0000
0000
0001
0000
0000
0000
0000
;

//---------------dance-single - ----------------
#NOTES:
     dance-single:
     :
     Challenge:
     7:
     0.428,0.462,0.206,0.112,0.120: // measure 1
0100
0000
0100
0001
1000
0000
0100
0000
,  // measure 2
0100
0000
0100
1000
0001
0000
0010
0000
,  // measure 3
0010
0000
0010
0001
2000
0000
0001
0000
,  // measure 4
3001
0010
0100
1000
0000
0000
1000
0000
,  // measure 5
1001
0000
0001
0100
0001
0000
1000
0100
,  // measure 6
1000
0100
0010
0001
,  // measure 7
1001
0000
1000
0010
1000
0000
0001
0010
,  // measure 8
0001
0010
0100
1000
,  // measure 9
1010
0000
1000
0000
0001
0000
0010
0000
0001
0000
1000
0000
1000
0100
1000
0000
,  // measure 10
0101
0000
0001
0000
1000
0100
1000
0000
0001
0000
0100
0000
0100
0001
0100
0000
,  // measure 11
1001
0000
0001
0000
1000
0000
0100
0000
0010
0000
0010
0000
0010
0001
0010
0000
,  // measure 12
0001
0000
0010
0000
0100
0000
1000
0000
0001
0100
0001
0000
1001
0000
0000
0000
,  // measure 13
1000
0000
0100
0000
0010
0000
0001
0000
1000
0010
0000
1000
0001
0010
0001
0000
,  // measure 14
0001
0000
0100
0000
0010
0000
1000
0000
0001
0100
0001
0000
1001
0000
0000
0000
,  // measure 15
1000
0000
0010
0000
0100
0000
0001
0000
1000
0100
1000
0100
1000
0001
0100
0001
,  // measure 16
0100
0010
0100
0001
1000
0100
0010
0001
,  // measure 17
0100
0010
0100
0000
0010
0100
0010
1000
,  // measure 18
0001
0010
0100
1000
0100
0001
0100
1000
,  // measure 19
0001
0100
0010
1000
0001
0000
0100
0010
,  // measure 20
0100
0001
0001
0100
1000
0000
0010
0100
,  // measure 21
0010
1000
1000
0100
0001
0000
0100
0010
,  // measure 22
0110
0000
0001
0100
1000
0100
0010
0001
,  // measure 23
1000
0000
1000
0100
0010
0001
1000
0000
,  // measure 24
0100
0000
0010
0000
0001
0000
1000
0000
0010
1000
0000
0001
0100
0001
0100
0000
,  // measure 25
0001
0000
0010
0000
0100
0000
1000
0000
0001
0010
0001
0010
0001
1000
0010
1000
,  // measure 26
0010
0100
0001
0010
0100
0000
1100
0000
,  // measure 27
0100
0010
1000
0100
0010
0000
0011
0000
,  // measure 28
0010
0100
0001
0010
0100
0000
1100
0000
,  // measure 29
0100
0010
1000
0100
0010
0001
0001
1000
,  // measure 30
0010
0100
0010
0100
0001
0010
0001
0010
,  // measure 31
1010
0000
0000
0000
1000
0000
0000
0000
1000
0100
1000
0001
0100
0001
0100
0000
,  // measure 32
0101
0000
0000
0000
0001
0000
0000
0000
0001
0100
0000
0010
1000
0000
1000
0000
,  // measure 33
0001
0010
0100
1000
0010
0000
0100
0001
,  // measure 34
0001
1000
0100
0001
0010
0100
1000
0001
,  // measure 35
1000
0100
0010
0001
0100
0000
0010
1000
,  // measure 36
1000
0110
0001
1000
0100
0010
0001
0000
,  // measure 37
1000
0010
1000
0001
0010
0001
1000
0001
,  // measure 38
1001
0010
0100
1000
0001
0100
0001
1000
,  // measure 39
1001
1000
0100
0010
1001
1000
0100
0010
,  // measure 40
0001
1000
0100
1000
0100
1000
0100
1000
,  // measure 41
2020
3030
0022
0033
,  // measure 42
0101
0110
2010
0001
,  // measure 43
3001
2000
3010
0100
,  // measure 44
0002
0000
0000
0000
0000
0000
0000
0000
0000
2000
0000
0000
0000
0000
0000
0000
3003
0000
0000
0000
0022
0000
0000
0000
0000
0000
0000
0000
0000
0000
0000
0000
,  // measure 45
0000
0000
0000
0000
0033
0000
0000
2002
0000
0000
0000
0000
0000
0000
0000
0000
,  // measure 46
0000
0000
0000
0000
,  // measure 47
0000
0000
0000
0000
0000
0000
0000
0000
3003
0000
0000
0100
0000
0000
0000
0000
;

//---------------dance-single - ----------------
#NOTES:
     dance-single:
     :
     Beginner:
     1:
     0.059,0.094,0.077,0.000,0.000: // measure 1
0000
0000
0000
0000
,  // measure 2
0000
0000
0000
0000
,  // measure 3
0000
0000
0000
0000
,  // measure 4
0000
0000
0000
0000
,  // measure 5
0001
0000
0000
0000
,  // measure 6
1000
0000
0000
0000
,  // measure 7
0001
0000
0000
0000
,  // measure 8
1000
0000
0000
0000
,  // measure 9
1001
0000
0000
0000
,  // measure 10
0010
0000
0000
0000
,  // measure 11
1001
0000
0000
0000
,  // measure 12
1000
0000
0000
0000
,  // measure 13
0100
0000
0000
0000
,  // measure 14
0010
0000
0000
0000
,  // measure 15
0001
0000
0000
0000
,  // measure 16
1001
0000
0000
0000
,  // measure 17
1000
0000
0000
0000
,  // measure 18
0001
0000
0000
0000
,  // measure 19
1000
0000
0000
0000
,  // measure 20
1000
0000
0000
0000
,  // measure 21
0001
0000
0000
0000
,  // measure 22
0001
0000
0000
0000
,  // measure 23
0000
0000
0000
0000
,  // measure 24
1001
0000
0000
0000
,  // measure 25
0001
0000
0000
0000
,  // measure 26
1000
0000
0000
0000
,  // measure 27
1000
0000
0000
0000
,  // measure 28
0001
0000
0000
0000
,  // measure 29
0001
0000
0000
0000
,  // measure 30
1001
0000
0000
0000
,  // measure 31
1000
0000
0000
0000
,  // measure 32
0001
0000
0000
0000
,  // measure 33
0001
0000
0000
0000
,  // measure 34
0010
0000
0000
0000
,  // measure 35
0100
0000
0000
0000
,  // measure 36
1000
0000
0000
0000
,  // measure 37
1001
0000
0000
0000
,  // measure 38
1000
0000
0000
0000
,  // measure 39
1001
0000
0000
0000
,  // measure 40
0001
0000
0000
0000
,  // measure 41
1001
0000
0000
0000
,  // measure 42
1000
0000
0000
0000
,  // measure 43
0000
0000
0001
0000
,  // measure 44
0000
0000
0000
0000
0000
1001
0000
0000
;
