#TITLE:Butter-Fly;
#SUBTITLE:;
#ARTIST:和田光司;
#TITLETRANSLIT:;
#SUBTITLETRANSLIT:;
#ARTISTTRANSLIT:WADA KOUJI;
#CREDIT:DMAxel;
#BANNER:Butter-Fly.png;
#BACKGROUND:Butter-Fly-bg.png;
#LYRICSPATH:Butter-Fly.lrc;
#CDTITLE:DMAxel original simfile.png;
#MUSIC:Butter-Fly.mp3;
#OFFSET:-5.500;
#SAMPLESTART:56.226;
#SAMPLELENGTH:12.000;
#SELECTABLE:YES;
#BPMS:0.000=164.900;
#STOPS:;
#BGCHANGES:-14.000=Butter-Fly.avi=1.000=1=1=0,
99999=-nosongbg-=1.000=0=0=0 // don't automatically add -songbackground-
;

//---------------dance-single - ----------------
#NOTES:
     dance-single:
     :
     Easy:
     3:
     0.257,0.247,0.072,0.174,0.000: // measure 1
0000
0000
0000
0000
,  // measure 2
0001
0010
0100
1000
,  // measure 3
0020
0000
0000
0030
,  // measure 4
1000
0100
0010
0001
,  // measure 5
0200
0000
0000
0300
,  // measure 6
0001
0100
0010
1000
,  // measure 7
0002
0000
0000
0003
,  // measure 8
1000
0010
0100
0001
,  // measure 9
2000
0000
0000
0000
,  // measure 10
3010
0100
0010
1000
,  // measure 11
0001
0000
0000
1000
,  // measure 12
0010
1000
0001
0010
,  // measure 13
0001
1000
0000
0001
,  // measure 14
0010
0001
1000
0010
,  // measure 15
1000
0000
0001
0000
,  // measure 16
1001
0000
1000
0000
,  // measure 17
0001
0000
1000
0000
,  // measure 18
0010
0100
0010
1000
,  // measure 19
0001
0100
0000
0010
,  // measure 20
1000
0001
0100
0010
,  // measure 21
0100
0000
0000
0001
,  // measure 22
0100
0001
1000
0100
,  // measure 23
1000
0000
0001
0000
,  // measure 24
1001
0000
1000
0000
,  // measure 25
0001
0000
1000
0000
,  // measure 26
0001
0010
0100
1000
,  // measure 27
0002
0000
0000
1003
,  // measure 28
0001
0100
0010
2000
,  // measure 29
0000
0000
3000
0000
,  // measure 30
0010
0100
0001
1000
,  // measure 31
0020
0000
0000
0000
,  // measure 32
1030
0000
0000
1000
0000
0000
0000
0001
,  // measure 33
0000
0000
0000
0002
0000
0000
0000
0000
,  // measure 34
1003
0010
0100
0001
,  // measure 35
1001
0000
0000
0000
,  // measure 36
0110
1000
0001
1000
,  // measure 37
0010
0100
0010
0100
,  // measure 38
0002
0000
0000
1003
,  // measure 39
0010
1000
0001
0010
,  // measure 40
0001
0000
1000
0000
0001
0000
0000
0001
,  // measure 41
0000
0000
0000
1001
0000
0000
0000
0000
,  // measure 42
0001
1000
0010
1000
,  // measure 43
0020
0000
0000
0000
,  // measure 44
0130
0001
1000
0010
,  // measure 45
0100
0010
1000
0001
,  // measure 46
2000
0000
0000
3001
,  // measure 47
0100
0001
1000
0100
,  // measure 48
1000
0000
0001
0000
1000
0000
0000
1000
,  // measure 49
0000
0000
0000
1001
0000
0000
0000
0000
,  // measure 50
0020
0000
0000
0000
,  // measure 51
2030
0000
0000
0000
,  // measure 52
3002
0000
1000
0000
,  // measure 53
1000
0000
1000
0000
,  // measure 54
0203
0000
0010
0000
,  // measure 55
0010
0000
0010
0000
,  // measure 56
0302
0000
1000
0000
,  // measure 57
1000
0000
1000
0000
,  // measure 58
0103
0000
0010
0000
,  // measure 59
0200
0000
0000
0000
,  // measure 60
0000
0000
0000
0000
,  // measure 61
0310
0000
0000
0110
0000
0000
0000
0000
;

//---------------dance-single - ----------------
#NOTES:
     dance-single:
     :
     Hard:
     7:
     0.533,0.494,0.348,0.286,0.000: // measure 1
0000
0000
0000
0000
,  // measure 2
2000
0000
0000
0001
3001
0000
0100
0000
,  // measure 3
0020
0000
0000
0230
0000
0000
0000
0000
,  // measure 4
0302
0000
0000
1000
1003
0000
0010
0000
,  // measure 5
0200
0000
0000
0320
0000
0000
0130
0000
,  // measure 6
1002
0000
0000
1000
1003
0000
0010
0000
,  // measure 7
0200
0000
0000
0302
0000
0000
0000
0000
,  // measure 8
2003
0000
0000
0001
3001
0000
0100
0000
,  // measure 9
0110
0000
0000
1001
0000
0000
1001
0000
,  // measure 10
0001
0100
0001
0000
0100
0010
0100
0000
,  // measure 11
0010
1000
0010
0000
1000
0001
1000
0100
,  // measure 12
0000
0010
0001
0010
0100
0000
0010
0100
,  // measure 13
0010
0000
1000
0001
1000
0100
0010
0001
,  // measure 14
2000
0000
0001
0000
3001
0100
0001
0100
,  // measure 15
0000
0010
1000
0100
0000
1000
0001
0000
,  // measure 16
1001
0000
1000
0100
0010
0000
0001
1000
,  // measure 17
0000
0100
0010
0001
1000
0010
1000
0000
,  // measure 18
1001
0000
1000
0010
1000
0000
0010
0100
,  // measure 19
0010
1000
0100
0000
1000
0001
0100
0001
,  // measure 20
0000
0100
0001
0100
0010
0000
0100
0010
,  // measure 21
0100
0001
0010
0000
0001
1000
0010
0100
,  // measure 22
0002
0000
1000
0000
1003
0100
0010
0100
,  // measure 23
0000
1000
0100
0001
0000
0100
0001
1000
,  // measure 24
1001
0000
0010
1000
0010
1000
0001
0010
,  // measure 25
0000
0100
1000
0001
0100
0001
0100
0001
,  // measure 26
1000
0000
0100
1000
0000
0100
1000
0001
,  // measure 27
0100
0000
0001
0100
0000
0001
1000
0100
,  // measure 28
1100
0000
0001
0000
0101
0000
1000
0100
,  // measure 29
0010
0100
1000
0001
0000
1000
0010
0100
,  // measure 30
0001
0000
0010
0001
0000
0010
0001
1000
,  // measure 31
0010
0000
1000
0010
0000
1000
0001
0010
,  // measure 32
0011
0000
1000
0010
0000
0100
0001
0010
,  // measure 33
0000
0100
1000
0020
0000
0000
0000
0000
,  // measure 34
0130
0101
0010
1010
,  // measure 35
1002
1000
1003
0000
,  // measure 36
1001
0000
0100
0001
0100
0000
0010
1000
,  // measure 37
0100
0000
0010
0001
0010
0100
0010
0001
,  // measure 38
0100
0000
0010
1000
0000
1000
0001
0100
,  // measure 39
0001
0000
0100
0010
1000
0100
0010
0100
,  // measure 40
1000
0000
0010
1000
0100
0010
0001
1000
,  // measure 41
0000
0100
1000
0002
0000
0000
1003
0010
,  // measure 42
1000
0000
1010
0000
1010
0000
0001
0100
,  // measure 43
0001
0101
0101
0000
,  // measure 44
1001
0000
0100
0001
0000
0001
1000
0100
,  // measure 45
1000
0000
0001
0010
0100
0010
0001
1000
,  // measure 46
0010
0000
0100
0001
0000
0001
1000
0100
,  // measure 47
0010
0001
0000
1000
0001
0010
0100
1000
,  // measure 48
0010
0100
0000
0100
0001
0010
0100
1000
,  // measure 49
0000
0010
0100
0002
0000
0000
1003
0000
,  // measure 50
1100
1100
0101
0101
,  // measure 51
0110
1010
0011
1001
,  // measure 52
1002
0000
0000
1003
0100
0010
0100
0000
,  // measure 53
2000
0000
0000
3200
0000
0000
0000
0300
,  // measure 54
2001
0000
0000
3001
0010
0100
0010
0000
,  // measure 55
0002
0000
0000
0203
0000
0000
0000
0300
,  // measure 56
1002
0000
0000
1003
0010
0100
0010
0000
,  // measure 57
2000
0000
0000
3200
0000
0000
0000
0300
,  // measure 58
2001
0000
0000
3001
0100
0010
0100
0000
,  // measure 59
0110
0000
0000
1100
0000
0000
0022
0000
,  // measure 60
0000
0000
0033
0000
,  // measure 61
1000
0100
0010
0001
0000
0000
0000
0000
;

//---------------dance-single - ----------------
#NOTES:
     dance-single:
     :
     Challenge:
     8:
     0.640,0.648,0.184,0.184,0.077: // measure 1
0001
0000
0100
0000
0001
0000
0100
0000
0001
0000
1000
0100
1000
0100
1000
0100
,  // measure 2
2000
0000
0000
0000
3001
0000
0100
0001
0100
0000
0001
0000
0010
0000
0100
0000
,  // measure 3
1000
0000
1000
0010
0200
0000
0301
0000
,  // measure 4
1002
0000
0000
0000
1003
0000
0010
1000
0010
0000
1000
0000
0100
0000
0010
0000
,  // measure 5
0001
0000
0001
0100
0020
0000
1030
0000
,  // measure 6
2001
0000
0000
0000
3001
0000
0100
0001
0100
0000
0001
0000
0010
0000
0100
0000
,  // measure 7
1000
0000
1000
0010
0200
0000
0301
0000
,  // measure 8
1002
0000
0000
0000
1003
0000
0010
1000
0010
0000
1000
0000
0100
0000
0010
0000
,  // measure 9
0001
0001
0100
0010
0010
1000
0100
0010
,  // measure 10
1001
0000
0001
0100
0010
0000
0100
0010
,  // measure 11
1000
0000
0010
0100
0010
0100
0001
0010
,  // measure 12
0000
0001
0100
0010
0100
0000
0010
0100
,  // measure 13
0001
0000
0100
0010
1000
0001
0010
0100
,  // measure 14
1001
0000
1000
0010
1000
0001
0010
0100
,  // measure 15
0000
1000
0100
0001
0000
0100
0010
1000
,  // measure 16
0100
0000
0010
0100
1000
0100
0001
0100
,  // measure 17
0000
0010
1000
0100
0001
0100
0010
0000
,  // measure 18
1001
0000
0001
0100
0010
0000
0100
0010
,  // measure 19
1000
0100
0001
0000
0100
1000
0100
0010
,  // measure 20
0000
0001
0100
0010
0100
0000
0010
0100
,  // measure 21
0001
0100
1000
0000
0100
0001
1000
0001
,  // measure 22
1001
0000
0001
0100
0001
1000
0100
0001
,  // measure 23
0000
0100
0010
1000
0000
0100
0010
0100
,  // measure 24
1000
0000
0001
0100
0001
0100
0010
1000
,  // measure 25
0000
0100
0010
0100
1000
0100
0001
0100
,  // measure 26
2000
0100
0001
3100
,  // measure 27
0001
0100
0001
1000
0000
1000
0001
0100
,  // measure 28
0001
0000
1000
0010
0100
0001
0100
0010
,  // measure 29
1000
0000
0001
1000
0000
1000
0100
0010
,  // measure 30
0002
0100
1000
0103
,  // measure 31
1000
0100
1000
0001
0000
0001
1000
0000
,  // measure 32
1001
0100
0010
0001
0000
0001
0100
0010
,  // measure 33
0000
1000
0010
0200
0000
0000
0001
0000
,  // measure 34
0301
0000
0010
0000
0100
0000
1000
0000
0100
0000
0010
0000
0001
0000
0100
0010
,  // measure 35
0200
0001
0301
1001
,  // measure 36
0100
0001
1000
0100
0010
0100
1000
0000
,  // measure 37
0010
1000
0001
0010
0100
0010
0001
0000
,  // measure 38
0100
0001
0010
0100
0000
1000
0001
0100
,  // measure 39
0001
0100
0000
0010
1000
0100
0010
0001
,  // measure 40
0100
0000
0001
1000
0000
1000
0010
0100
,  // measure 41
0000
0001
0100
2000
0000
0001
3001
1000
,  // measure 42
0100
0010
0001
0100
0010
0100
0001
0100
,  // measure 43
1000
0000
0100
0000
0010
0000
0100
0000
1000
0000
0001
0100
0001
0100
0001
0000
,  // measure 44
1001
0000
0001
0010
0100
0010
0001
0000
,  // measure 45
0100
0001
1000
0100
0010
0100
1000
0000
,  // measure 46
0010
1000
0100
0010
0000
0001
1000
0010
,  // measure 47
1000
0010
0000
0100
0001
0010
0100
1000
,  // measure 48
0001
0000
0100
0001
0000
0001
1000
0100
,  // measure 49
0000
1000
0100
0002
0000
1000
1003
0000
,  // measure 50
0010
1000
0001
0010
0001
1000
0010
0100
,  // measure 51
0001
0000
1000
0000
0100
0000
1000
0000
0010
0000
0100
0001
0100
0001
0100
0000
,  // measure 52
0020
0000
0000
0000
1030
0000
0001
0010
0001
0000
0010
0000
0100
0000
1000
0000
,  // measure 53
0010
0000
0100
0001
0010
0000
0100
0000
,  // measure 54
0201
0000
0000
0000
0301
0000
1000
0100
1000
0000
0100
0000
0010
0000
0001
0000
,  // measure 55
0101
0000
0010
1000
0100
0000
0010
0000
,  // measure 56
1020
0000
0000
0000
1030
0000
0001
0010
0001
0000
0010
0000
0100
0000
1000
0000
,  // measure 57
1010
0000
0100
0001
1000
0000
0010
0100
,  // measure 58
0010
1000
0100
0001
0100
1000
0100
0010
,  // measure 59
0101
0000
0000
1100
0000
0000
2001
0000
,  // measure 60
0020
0000
3000
0000
0130
0001
0100
0000
,  // measure 61
0010
1000
0100
0011
0000
0000
0000
0000
;

//---------------dance-single - ----------------
#NOTES:
     dance-single:
     :
     Medium:
     5:
     0.374,0.370,0.245,0.174,0.000: // measure 1
0000
0000
0000
0000
,  // measure 2
1001
0001
0001
0001
,  // measure 3
0200
0000
0000
0320
0000
0000
0000
0000
,  // measure 4
1030
1000
1000
1000
,  // measure 5
0020
0000
0000
0230
0000
0000
0000
0000
,  // measure 6
0310
0100
0010
0100
,  // measure 7
0002
0000
0000
2003
0000
0000
0000
0000
,  // measure 8
3010
0100
0010
0100
,  // measure 9
0001
0000
0000
0110
0000
0000
1001
0000
,  // measure 10
0001
1000
0001
1000
,  // measure 11
0001
1000
0001
1000
,  // measure 12
0100
1000
0100
1000
,  // measure 13
0100
1000
0100
0010
,  // measure 14
0001
0010
0001
0100
,  // measure 15
0010
1000
0100
1000
,  // measure 16
1001
0000
1000
0010
1000
0000
0001
0010
,  // measure 17
0000
0001
0010
0000
0100
0000
1000
0000
,  // measure 18
1001
1000
0001
1000
,  // measure 19
0001
1000
0001
1000
,  // measure 20
0010
0100
0010
0100
,  // measure 21
0010
0100
0001
1000
,  // measure 22
0100
1000
0100
0010
,  // measure 23
0001
1000
0100
0010
,  // measure 24
1001
0000
0001
0100
0001
0000
1000
0100
,  // measure 25
0000
1000
0100
0000
0010
0000
0001
0000
,  // measure 26
0210
0001
0001
0301
,  // measure 27
1000
0000
0000
0010
0000
0000
0100
0000
,  // measure 28
0001
0010
0100
1000
,  // measure 29
0001
0000
0000
0100
0000
0000
0001
0000
,  // measure 30
0120
1000
1000
1030
,  // measure 31
0001
0000
0000
0100
0000
0000
0010
0000
,  // measure 32
1010
0000
0000
0101
0000
0000
0000
1000
,  // measure 33
0000
0000
0000
1001
0000
0000
0000
0000
,  // measure 34
1000
0010
0100
0001
,  // measure 35
2002
0000
0000
3003
,  // measure 36
1001
0010
0100
1000
,  // measure 37
0010
0100
0010
1000
,  // measure 38
0010
0100
0001
1000
,  // measure 39
0010
0100
0010
1000
,  // measure 40
0001
0000
1000
0000
0010
0000
0100
0010
,  // measure 41
0000
0100
0010
0100
0000
0000
0001
0000
,  // measure 42
1000
0010
1010
0001
,  // measure 43
0010
0001
0011
0000
,  // measure 44
1001
0010
0100
1000
,  // measure 45
0001
0100
0010
1000
,  // measure 46
0020
0000
0000
0100
0000
0000
0130
0000
,  // measure 47
0001
0010
0100
1000
,  // measure 48
0100
0000
0001
0000
0100
0000
0010
0100
,  // measure 49
0000
0010
0100
0010
0000
0000
0000
0000
,  // measure 50
1001
1000
1010
0001
,  // measure 51
0011
1000
1100
0001
,  // measure 52
1001
0001
0100
0010
,  // measure 53
2000
0000
0000
3002
0000
0000
0000
0000
,  // measure 54
1003
0000
0000
0010
0100
0000
0001
0000
,  // measure 55
0002
0000
0000
2003
0000
0000
0000
0000
,  // measure 56
3001
0000
0000
0100
0010
0000
1000
0000
,  // measure 57
2000
0000
0000
3002
0000
0000
0000
0000
,  // measure 58
1003
0000
0000
0010
0100
0000
0001
0000
,  // measure 59
0101
0000
0000
0110
0000
0000
1001
0000
,  // measure 60
0000
0000
0000
0000
,  // measure 61
0001
0100
0001
1000
0000
0000
0000
0000
;

//---------------dance-single - ----------------
#NOTES:
     dance-single:
     :
     Beginner:
     1:
     0.055,0.092,0.061,0.000,0.000: // measure 1
0000
0000
0000
0000
,  // measure 2
1000
0000
0000
0000
,  // measure 3
0000
0000
0000
0000
,  // measure 4
0001
0000
0000
0000
,  // measure 5
0000
0000
0000
0000
,  // measure 6
1000
0000
0000
0000
,  // measure 7
0000
0000
0000
0000
,  // measure 8
0001
0000
0000
0000
,  // measure 9
1001
0000
0000
0000
,  // measure 10
0100
0000
0000
0000
,  // measure 11
0000
0000
0000
0000
,  // measure 12
0010
0000
0000
0000
,  // measure 13
0000
0000
0000
0000
,  // measure 14
0100
0000
0000
0000
,  // measure 15
0000
0000
0000
0000
,  // measure 16
0010
0000
0000
0000
,  // measure 17
0000
0000
0000
0000
,  // measure 18
1001
0000
0000
0000
,  // measure 19
0000
0000
0000
0000
,  // measure 20
1000
0000
0000
0000
,  // measure 21
0000
0000
0000
0000
,  // measure 22
1000
0000
0000
0000
,  // measure 23
0000
0000
0000
0000
,  // measure 24
0001
0000
0000
0000
,  // measure 25
0000
0000
0000
0000
,  // measure 26
0001
0000
0000
0000
,  // measure 27
0000
0000
0000
0000
,  // measure 28
1000
0000
0000
0000
,  // measure 29
0000
0000
0000
0000
,  // measure 30
0001
0000
0000
0000
,  // measure 31
0000
0000
0000
0000
,  // measure 32
0100
0000
0000
0000
,  // measure 33
0000
0000
0000
0000
,  // measure 34
1001
0000
0000
0000
,  // measure 35
0000
0000
0000
0000
,  // measure 36
1001
0000
0000
0000
,  // measure 37
0000
0000
0000
0000
,  // measure 38
0000
0000
0000
0000
,  // measure 39
1000
0000
0000
0000
,  // measure 40
0000
0000
0000
0000
,  // measure 41
0000
0000
0000
0000
,  // measure 42
0001
0000
0000
0000
,  // measure 43
0000
0000
0000
0000
,  // measure 44
1000
0000
0000
0000
,  // measure 45
0000
0000
0000
0000
,  // measure 46
0001
0000
0000
0000
,  // measure 47
0000
0000
0000
0000
,  // measure 48
0010
0000
0000
0000
,  // measure 49
0000
0000
0000
0000
,  // measure 50
0001
0000
0000
0000
,  // measure 51
1000
0000
0000
0000
,  // measure 52
1001
0000
0000
0000
,  // measure 53
0000
0000
0000
0000
,  // measure 54
0001
0000
0000
0000
,  // measure 55
0000
0000
0000
0000
,  // measure 56
1000
0000
0000
0000
,  // measure 57
0000
0000
0000
0000
,  // measure 58
0001
0000
0000
0000
,  // measure 59
1001
0000
0000
0000
,  // measure 60
0000
0000
0000
0000
,  // measure 61
1000
0000
0000
0000
;
