#TITLE:Bomb A Head! V;
#SUBTITLE:(TV Edit);
#ARTIST:m.c.A.T.;
#TITLETRANSLIT:;
#SUBTITLETRANSLIT:;
#ARTISTTRANSLIT:;
#CREDIT:Kyon;
#BANNER:Bomb A Head! V (TV Edit).png;
#BACKGROUND:Bomb A Head! V (TV Edit)-bg.png;
#LYRICSPATH:Bomb A Head! V (TV Edit).lrc;
#CDTITLE:Dj DMA Original Simfile.png;
#MUSIC:Bomb A Head! V (TV Edit).mp3;
#OFFSET:-0.540;
#SAMPLESTART:42.057;
#SAMPLELENGTH:12.000;
#SELECTABLE:YES;
#BPMS:0.000=140.000;
#STOPS:;
#BGCHANGES:0.140=Bomb A Head! V (TV Edit).avi=1.000=1=1=0,
99999=-nosongbg-=1.000=0=0=0 // don't automatically add -songbackground-
;

//---------------dance-single - ----------------
#NOTES:
     dance-single:
     :
     Easy:
     3:
     0.204,0.243,0.054,0.086,0.000:
0000
0000
0000
0000
,
0000
0010
0000
0100
,
0000
0010
0000
0100
,
0000
0020
0000
0000
,
0130
0002
0000
1003
,
0000
0000
0010
0000
,
0100
0000
0010
0000
,
1000
0001
1000
0002
,
0000
0203
0000
0310
,
1000
0000
0001
0000
,
1000
1001
0000
0000
,
0000
0000
0000
0000
,
0110
0000
0001
0000
,
1000
0000
0001
0000
,
1000
0000
0010
0000
,
0100
0000
0010
0000
,
0100
0010
0100
0001
,
0000
1000
0010
0100
,
0000
0010
0100
0001
,
0000
1000
0010
2000
,
0000
0000
3001
0000
,
0100
0000
0010
0000
,
0100
0000
0010
0000
,
1000
0000
0001
0000
,
1000
0010
0100
0010
,
0000
1000
0001
1000
,
0000
0001
0010
0100
,
1000
0020
0000
0000
,
0030
1000
0001
1000
,
0000
0010
0100
0010
,
0000
1000
0100
0010
,
0001
0100
0010
1000
,
0001
1001
0100
0000
,
0010
0000
1000
0000
,
0001
0000
1000
0000
,
0010
0000
0100
0000
,
0010
0000
1000
0001
,
1000
0001
1000
0010
,
0100
0001
0010
0001
,
1000
0100
1000
0010
,
0000
0100
0000
0000
,
0000
0010
0000
0000
,
0000
1000
0010
0100
,
0001
2000
0000
0000
,
0000
3001
0000
0000
,
0000
0100
0000
0000
,
0000
0010
0100
0001
,
1000
0011
0000
1100
,
0010
0100
0000
0001
,
0000
1000
0001
2000
,
0000
3010
0000
0000
;

//---------------dance-single - ----------------
#NOTES:
     dance-single:
     :
     Hard:
     7:
     0.423,0.459,0.237,0.075,0.043:
0000
0000
0000
0000
,
0000
1001
0010
1001
,
0100
1001
0000
0010
,
0000
0000
1000
0100
0010
0001
1000
0000
,
1001
0100
0010
0100
,
0001
1000
0001
1000
,
0100
2000
0000
3002
,
0000
0103
0010
1000
,
0001
1001
0100
0010
,
1000
0001
0100
0001
,
1000
1001
0000
0000
,
0000
0000
0001
0010
0100
1000
0010
0100
,
0110
0000
0000
0000
0001
0000
0000
0010
0000
0000
0000
0000
0100
0000
0000
0000
,
1000
0000
0000
0000
0010
0000
0000
0100
0000
0000
0000
0000
0010
0000
0000
0000
,
1000
0000
0001
1000
0001
0000
0100
0000
,
0010
0000
1000
0100
1000
0001
0010
0000
,
1100
0000
0000
0000
0001
0000
0000
0010
0000
0000
0000
0000
0001
0000
0000
0000
,
1001
0000
0000
0000
1000
0000
0000
0001
0000
0000
0000
0000
0100
0000
0000
0000
,
0110
0000
0001
0100
0010
1000
0010
0000
,
1000
0000
0010
0100
0001
1000
0001
0000
,
0100
0000
0000
0000
0010
0000
0100
0000
0000
0001
0000
0000
1000
0000
0001
0000
,
1000
0000
0000
0000
0010
0000
0010
0000
0100
0000
0000
0001
0000
0000
0000
0000
,
1000
0000
0000
0000
0010
0000
0100
0000
0000
0010
0000
0000
1000
0000
0001
0000
,
1000
0000
0000
0000
0001
0000
0001
0000
0100
0000
0000
0010
0000
0000
0000
0000
,
1000
0000
1001
0010
0100
0010
1000
0100
,
1000
0000
1001
0010
0100
0001
0010
0001
,
0010
0002
0203
0320
,
1030
0100
0002
0000
0000
0000
0000
0000
,
0003
0000
1001
0100
0010
0100
0001
1000
,
0001
0000
1001
0100
0010
1000
0001
1000
,
0001
0000
1000
0010
0001
0000
0001
0100
,
1000
0100
0001
0000
1000
0000
0010
0100
,
0010
1000
0001
0000
0100
0000
0010
1000
,
0001
0000
0100
0000
0010
0000
1000
0010
,
0100
0001
0100
0001
,
1000
0000
0010
0000
0100
0001
1000
0000
,
1001
0000
0001
0100
1000
0000
1000
0010
,
0001
0000
0100
0100
0010
0010
1000
0001
,
1000
0000
0010
0100
0010
1000
0001
0000
,
1001
0000
0100
0010
1000
0000
0001
0100
,
0010
0000
1000
0000
0001
0000
0100
0010
,
0100
0000
0001
0000
1000
0000
0001
0100
,
0010
1000
0100
0010
,
0001
0100
0002
0000
0000
0000
0000
0000
,
0000
0000
1003
0100
0010
0001
0100
0010
,
1000
0000
0001
0010
0100
1000
0010
0100
,
0001
0000
1000
0001
1000
0000
0001
0100
,
0010
0000
1001
0000
0000
0000
0100
0010
,
1000
0100
1100
0000
0001
0100
0001
0000
,
0100
0000
1010
0000
0101
0000
1000
0010
,
1001
1001
0000
0000
;

//---------------dance-single - ----------------
#NOTES:
     dance-single:
     :
     Challenge:
     8:
     0.544,0.513,0.387,0.022,0.194: // measure 1
0000
0000
0000
0000
,  // measure 2
0000
1001
0100
1001
,  // measure 3
0010
1001
0000
0100
,  // measure 4
0000
0000
0001
0010
0100
1000
0001
0000
,  // measure 5
1100
0000
0001
0010
0100
0000
1000
0010
,  // measure 6
0100
0000
0001
0010
0001
0000
1000
0100
,  // measure 7
1000
0000
0010
0100
0001
0000
1100
0000
,  // measure 8
0101
0000
0000
0000
1000
0000
0010
0000
0100
0000
0001
0000
0010
0001
0000
1100
,  // measure 9
0000
0000
0000
0000
0100
1000
0000
0011
0000
0000
0000
0000
1000
0000
0001
0000
,  // measure 10
0010
0001
0011
0000
1000
0100
1100
0000
,  // measure 11
0001
1001
0000
0000
,  // measure 12
0000
0000
1000
0100
0010
0001
0100
0010
,  // measure 13
0110
0000
0000
0000
1000
0000
0100
1000
0000
0000
0001
0000
0010
0000
0100
0000
,  // measure 14
1000
0000
0010
0000
0100
0000
0001
0010
0000
0000
0100
0000
1100
0000
0000
0000
,  // measure 15
0011
0000
0000
0000
0001
0000
0010
0000
1000
0000
0100
0010
0000
0000
0001
0000
,  // measure 16
1000
0000
0000
0000
0001
0000
0100
0000
1000
0100
0000
0010
0000
0000
0001
0000
,  // measure 17
1001
0000
0000
0000
1000
0000
0100
1000
0000
0000
0010
0000
0100
0000
0001
0000
,  // measure 18
1001
0000
0100
0000
0001
0000
0100
0010
0000
0000
1000
0000
0101
0000
0000
0000
,  // measure 19
1010
0000
0000
0000
1000
0000
0010
0000
0100
0000
0001
1000
0000
0000
0010
0000
,  // measure 20
0100
0000
0000
0000
0010
0000
0100
0010
0000
1000
0000
0001
0000
0000
0100
0000
,  // measure 21
0010
0000
0000
0000
1001
0000
0100
0000
0000
0001
0000
0000
1000
0000
0001
1000
,  // measure 22
0000
0000
0000
0000
0010
0000
0010
0000
0100
0000
0001
1000
0000
0000
0000
0000
,  // measure 23
0001
0000
0000
0000
0100
0000
0010
0000
0000
0100
0000
0000
0001
0000
1000
0001
,  // measure 24
0000
0000
0000
0000
1000
0000
1000
0000
0010
0000
0100
0001
0000
0000
0000
0000
,  // measure 25
0001
0000
1001
0100
0010
0100
0001
0010
,  // measure 26
0001
0000
1001
0100
0010
1000
0100
1000
,  // measure 27
0100
0000
1000
0100
0001
0100
1000
0010
,  // measure 28
0001
0010
2000
0000
0001
0000
0001
0000
,  // measure 29
3001
0000
1001
0010
0100
0010
1000
0001
,  // measure 30
1000
0000
1001
0010
0100
0001
1000
0001
,  // measure 31
1000
0000
0001
0100
1000
0100
1000
0010
,  // measure 32
0001
0010
1000
0000
0001
0000
0100
0010
,  // measure 33
0100
0000
0001
0000
1000
0000
0010
0000
0100
0000
0010
0100
0010
0000
1000
0001
,  // measure 34
0000
0001
0000
0000
0000
1000
0010
0000
0100
0000
0001
0000
1000
0000
0010
0100
,  // measure 35
0000
0100
0000
0000
0001
0000
0001
0000
0010
0000
0100
0000
1000
0000
1000
0000
,  // measure 36
0100
0010
0001
0100
0010
1000
0001
0000
,  // measure 37
1001
0000
1000
0010
0001
0000
0001
0100
,  // measure 38
1000
0000
0000
0000
0010
0000
0010
0000
0100
0010
0000
1000
0001
0000
1000
0000
,  // measure 39
0001
0000
0000
0000
0100
0000
0010
0000
0100
0001
0000
0001
1000
0000
0001
0000
,  // measure 40
1000
0000
0010
0100
0001
0100
1000
0010
,  // measure 41
0100
0000
0001
1000
0001
0000
1000
0000
0100
0000
0001
0000
0100
0000
0010
0000
,  // measure 42
1000
0000
0001
0100
1000
0001
0010
0100
,  // measure 43
1000
0011
1100
1001
,  // measure 44
0100
0010
2000
0000
0001
0000
0001
0000
,  // measure 45
3001
0000
0000
0000
0001
0000
0010
0000
0100
0000
1000
0010
0000
0010
0100
0000
,  // measure 46
0001
0000
0000
0000
1000
0000
0100
0000
0010
0000
0001
0100
0000
0100
0010
0000
,  // measure 47
1000
0000
0001
1000
0001
1000
0010
0100
,  // measure 48
0001
1000
1001
0000
1000
0000
0010
0100
,  // measure 49
0001
0100
0011
0000
1000
0010
1100
0000
,  // measure 50
0010
0000
0101
0000
1010
0000
0011
1100
,  // measure 51
1001
1001
0000
0000
;

//---------------dance-single - ----------------
#NOTES:
     dance-single:
     :
     Beginner:
     1:
     0.091,0.135,0.108,0.000,0.000:
0000
0000
0000
0000
,
0000
0000
0000
0000
,
0000
0000
0000
0000
,
0000
1001
0000
0000
,
0000
0010
0000
0000
,
0000
0000
0100
0000
,
0000
0000
0000
0010
,
0000
0000
0000
1000
,
0000
0000
0000
0001
,
0000
0000
0000
1000
,
0000
0011
0000
0000
,
0000
1100
0000
0000
,
0000
0000
0001
0000
,
0000
1000
0000
0000
,
0000
0001
0000
0000
,
0000
1000
0000
0000
,
0000
0010
0000
0000
,
0000
0100
0000
0000
,
0000
0010
0000
0000
,
0000
0100
0000
0000
,
0000
1001
0000
0000
,
0000
0000
0000
0000
,
0000
1001
0000
0000
,
0000
0000
0000
0000
,
0000
1001
0000
0000
,
0000
0010
0000
0000
,
0000
0100
0000
0000
,
0000
0001
0000
0000
,
0000
1000
0000
0000
,
0000
0100
0000
0000
,
0000
1000
0000
0000
,
0000
0001
0000
0000
,
0000
0010
0000
0000
,
0000
0000
0010
0000
,
0000
0000
0010
0000
,
0000
0000
0010
0000
,
0000
0100
0000
0000
,
0000
0100
0000
0000
,
0000
0100
0000
0000
,
0000
0100
0000
0000
,
0000
1001
0000
0000
,
0000
1001
0000
0000
,
0000
1001
0000
0000
,
0000
0100
0000
0000
,
0000
0010
0000
0000
,
0000
0100
0000
0000
,
0000
0001
0000
0000
,
0000
0000
0000
1000
,
0000
0001
0000
1000
,
0000
0001
1000
0001
,
0000
1001
0000
0000
;

//---------------dance-single - ----------------
#NOTES:
     dance-single:
     :
     Medium:
     5:
     0.370,0.405,0.151,0.129,0.000:
0000
0000
0000
0000
,
0000
1001
0000
1001
,
0000
1001
0000
0100
,
0000
0000
0001
0001
1000
1000
0010
0000
,
1001
0200
0000
0302
,
0000
0000
1003
0000
,
0001
0000
1000
0000
,
0010
0000
0100
0020
,
0000
0230
0000
0301
,
1000
0000
0010
0000
,
0100
1001
0000
0000
,
0000
0000
1000
1000
0001
0001
0100
0100
,
1001
0001
1000
0001
,
1000
0010
0100
0010
,
1000
0001
1000
0001
,
0100
0010
1000
0100
,
1000
0001
1000
0001
,
0100
0010
1000
0100
,
1000
0000
0001
1000
0001
0000
1000
0000
,
0010
0000
0100
0010
0100
0000
0001
0000
,
1000
0000
0001
0000
0100
0000
0010
0100
,
0010
0000
1000
0000
0001
0000
1000
0001
,
1000
0000
0010
0000
0100
0000
0001
0010
,
0001
0000
1000
0000
0010
0000
1000
0100
,
1000
0000
0001
0010
0100
1000
0010
0100
,
0001
0000
1000
0100
0010
0001
0100
0010
,
1000
0001
0010
0100
,
1000
2002
0000
0000
,
3003
0000
1000
0100
0010
0001
0010
0100
,
1000
0000
0001
0010
0100
1000
0100
0010
,
0001
0000
1000
0001
1000
0000
0010
0000
,
0100
0002
0000
0000
,
1000
0000
1003
0000
0010
0000
0100
0001
,
0100
0000
0010
0000
1000
0000
0010
1000
,
0010
2000
3001
0200
,
0310
0000
0100
0000
0010
1000
0001
0000
,
1001
0000
1000
0010
0001
0000
0001
0100
,
1000
0000
0010
0010
0100
0100
0001
1000
,
0001
0000
0100
0010
0100
0001
1000
0000
,
1001
0020
0000
0230
,
0000
0000
0301
0000
1000
0000
0010
0100
,
0010
0000
1000
0000
0001
0000
1000
0010
,
0100
0001
0010
0100
,
1000
0010
2000
0000
0000
0000
0000
0000
,
0000
0000
3001
0010
0100
1000
0010
0100
,
0001
0000
1000
0100
0010
0001
0100
0010
,
1000
0001
0010
0100
,
1000
0000
1001
0000
0000
0000
0010
0100
,
0001
0010
0011
0000
1000
0010
1000
0000
,
0010
0000
0101
0000
1010
0000
0100
0100
,
0100
1001
0000
0000
;
