#TITLE:Biometrics Warrior;
#SUBTITLE:;
#ARTIST:GUHROOVY fw. NO+CHIN;
#TITLETRANSLIT:;
#SUBTITLETRANSLIT:;
#ARTISTTRANSLIT:;
#CREDIT:DMAxel;
#BANNER:Biometrics Warrior.png;
#BACKGROUND:Biometrics Warrior-bg.png;
#LYRICSPATH:Biometrics Warrior.lrc;
#CDTITLE:beatmaniaIIDX.png;
#MUSIC:Biometrics Warrior.mp3;
#OFFSET:2.160;
#SAMPLESTART:35.714;
#SAMPLELENGTH:12.000;
#SELECTABLE:YES;
#BPMS:0.000=107.500,68.000=215.000,132.000=107.500,180.000=215.000,248.000=107.500,250.000=215.000,254.000=107.500,256.000=215.000;
#STOPS:;
#BGCHANGES:2.000=Biometrics Warrior.AVI=1.000=1=0=1,
99999=-nosongbg-=1.000=0=0=0 // don't automatically add -songbackground-
;

//---------------dance-single - ----------------
#NOTES:
     dance-single:
     :
     Easy:
     3:
     0.244,0.316,0.291,0.033,0.000: // measure 1
0000
0000
0000
0000
,  // measure 2
0000
0000
0000
0000
,  // measure 3
0000
0000
0000
0000
,  // measure 4
0000
0000
0000
0000
,  // measure 5
0000
0000
0000
0000
,  // measure 6
0001
0001
0001
0000
,  // measure 7
1000
0000
0001
0000
,  // measure 8
1000
1000
1000
0000
,  // measure 9
0001
1000
0001
0000
,  // measure 10
0110
1000
0010
1000
,  // measure 11
0010
0010
0000
0000
,  // measure 12
0100
0001
0100
0001
,  // measure 13
0010
0010
0010
0000
,  // measure 14
1001
0010
0100
1000
,  // measure 15
0001
1000
0010
1000
,  // measure 16
0001
0100
0001
1000
,  // measure 17
0001
0001
1000
0000
,  // measure 18
1001
0000
0011
0000
,  // measure 19
0001
0000
1000
0000
,  // measure 20
0010
0000
1000
0000
,  // measure 21
1001
0000
1001
0000
,  // measure 22
0010
0000
0100
0000
,  // measure 23
0010
0000
0001
0000
,  // measure 24
0010
0000
0100
0000
,  // measure 25
1000
0000
0000
0000
,  // measure 26
1001
0000
1100
0000
,  // measure 27
1000
0000
0001
0000
,  // measure 28
0100
0000
0001
0000
,  // measure 29
1001
0000
1001
0000
,  // measure 30
0100
0000
0010
0000
,  // measure 31
0100
0000
1000
0000
,  // measure 32
0100
0000
0010
0000
,  // measure 33
0001
0000
0000
0000
,  // measure 34
1001
0001
0010
0000
,  // measure 35
0100
0100
1000
0000
,  // measure 36
1000
1000
0010
0000
,  // measure 37
0100
0100
0001
0000
,  // measure 38
1001
0010
0100
1000
,  // measure 39
0001
1000
0100
0010
,  // measure 40
0001
1000
0001
0010
,  // measure 41
0100
1000
0010
0100
,  // measure 42
0022
0000
0000
0033
,  // measure 43
2200
0000
0000
3300
,  // measure 44
1001
0010
0001
0100
,  // measure 45
1000
1000
0010
0010
,  // measure 46
1001
0000
0011
0000
,  // measure 47
0100
0000
1000
0000
,  // measure 48
0001
0000
1000
0000
,  // measure 49
0010
0000
0010
0000
,  // measure 50
1001
0000
1100
0000
,  // measure 51
0010
0000
0001
0000
,  // measure 52
1000
0000
0001
0000
,  // measure 53
0010
0000
0000
0000
,  // measure 54
1001
0000
1100
0000
,  // measure 55
0010
0000
0001
0000
,  // measure 56
1000
0000
0001
0000
,  // measure 57
0010
0000
0010
0000
,  // measure 58
0110
0000
1001
0000
,  // measure 59
0010
0000
0100
0000
,  // measure 60
1000
0000
1000
0000
,  // measure 61
0001
0000
0000
0000
,  // measure 62
0011
0000
0011
0000
,  // measure 63
1001
0000
1100
0000
,  // measure 64
1100
0000
1001
0000
,  // measure 65
0101
0000
0110
0000
,  // measure 66
0101
0000
0110
0000
,  // measure 67
1000
0000
0001
0000
,  // measure 68
0000
0000
0010
0000
,  // measure 69
1001
0000
0010
0000
,  // measure 70
0100
0000
1000
0000
,  // measure 71
0100
0000
0010
0000
,  // measure 72
0001
0000
1000
0000
,  // measure 73
0001
0000
0010
0000
,  // measure 74
0100
0000
1000
0000
,  // measure 75
0010
0000
0100
0000
,  // measure 76
0010
0000
0000
0000
,  // measure 77
1001
0000
0000
0000
;

//---------------dance-single - ----------------
#NOTES:
     dance-single:
     :
     Medium:
     6:
     0.376,0.506,0.183,0.033,0.000:
0000
0000
0000
0000
,
0000
0000
0000
0000
,
0000
0000
0000
0000
,
0000
0000
0000
0000
,
0000
0000
0000
0000
,
1100
0000
1100
0000
1000
0001
1000
0000
,
0010
0100
0001
0000
0000
0100
0001
0000
,
0001
0010
0001
0000
1000
0010
1000
0000
,
0001
0010
0001
0000
1000
0010
1000
0000
,
1001
0100
0010
0001
,
0100
0001
0100
0000
0010
0100
0010
0000
,
1000
0100
0010
0001
,
1000
0000
0010
0000
0100
0000
0010
0010
,
1001
0100
0010
0001
0100
0001
0010
0000
,
0001
0100
0001
0010
0100
1000
0100
0000
,
1000
0001
1000
0000
0010
0100
0010
0000
,
1000
1000
0100
0100
0010
0010
0001
1000
,
0001
0010
0001
0010
,
0001
0010
0001
0000
,
1000
0100
1000
0100
,
1000
0100
1000
0000
,
0001
0100
0001
0100
,
0001
0100
0001
0000
,
1000
0010
1000
0010
,
1000
0000
0000
0000
,
0100
1000
0100
0000
,
1000
0001
1000
0000
,
0100
0010
0001
0100
,
0010
0010
0110
0000
,
1000
0001
1000
0100
,
0010
0001
0010
0000
,
0001
0010
0100
1000
,
0001
0000
0000
0000
,
1001
0000
1100
0000
0010
0001
0010
0000
,
1001
0000
0011
0000
0100
1000
0100
0000
,
1001
0110
1001
1001
,
0010
0100
0010
0000
1000
0001
0000
0000
,
0001
0100
0001
0100
0001
0010
0100
1000
,
0010
1000
0010
1000
0100
0010
0001
0000
,
0100
0010
0100
0000
0001
1000
0001
0000
,
1000
0100
0010
0001
0100
0001
0000
1000
,
0200
0000
1000
1300
,
0020
0001
0001
0031
,
0001
1000
0001
0000
0100
0010
0100
0000
,
0001
0100
0001
1000
0010
1000
1000
0000
,
0100
1000
0100
1000
,
0100
1000
0100
0000
,
1000
0001
1000
0001
,
1000
0001
1000
0000
,
0001
0010
0001
0010
,
0001
0010
0001
0000
,
0100
0010
0100
0010
,
0100
0000
0000
0000
,
0001
0100
0001
0000
,
1000
0010
1000
0000
,
0010
0010
0010
0100
,
0001
0010
0100
0000
,
1000
0001
1000
0000
,
0100
0100
1000
0010
,
0100
0001
0010
0100
,
1000
0000
0000
0000
,
1001
0100
1001
0000
,
1001
0000
1001
0010
,
1001
0000
1001
0000
,
1001
0100
1001
0000
,
0010
0100
0010
0000
,
1000
0100
0020
0000
,
0031
0010
0200
0000
,
1300
0100
0010
0001
,
1000
0100
0010
0001
,
1000
0001
0010
0100
,
1000
0001
0010
0100
,
1000
0100
0010
0001
,
1000
0100
0010
0001
,
1000
0001
0010
0100
,
1000
0001
0000
0001
,
1001
0000
0000
0000
;

//---------------dance-single - ----------------
#NOTES:
     dance-single:
     :
     Hard:
     9:
     0.585,0.917,0.391,0.017,0.187:
0000
0000
0000
0000
,
0000
0000
0000
0000
,
0000
0000
0000
0000
,
0000
0000
0000
0000
,
0000
0000
0000
0000
,
0100
0010
0100
0010
1000
1000
1000
0000
,
0010
0100
0001
0000
0010
0100
1000
0000
,
0010
0100
0010
0000
1000
0010
0001
0000
,
0100
0010
0100
0001
0010
0100
1000
0000
,
0010
0100
0010
0000
1000
0100
0010
0001
,
1000
1000
1000
0000
0001
0100
0001
0000
,
0110
0000
1001
0000
0010
0100
1000
1000
,
0010
0000
0100
0000
0001
0000
0010
0000
0010
0000
0010
0000
0001
1000
0001
0000
,
1000
0010
1000
0010
1000
0000
0100
0000
0010
0000
0001
0000
0100
0000
0001
0000
,
0010
0001
0010
0001
0010
0000
0001
0000
0010
0000
0100
0000
1100
0000
0000
0000
,
0100
0001
0100
0001
0100
0001
0010
0100
1000
0100
1000
0010
1000
0000
0000
0000
,
0100
1000
0100
0000
0010
0000
0001
0000
0001
0010
0001
0010
0001
0000
0110
0000
,
1000
0010
0100
0000
1001
0000
0010
0000
,
0100
1000
1000
0000
,
0001
0000
0100
0010
0100
0000
1001
0000
,
0010
0010
0110
0000
,
1000
0000
0010
0100
0010
0000
1001
0000
,
0010
0010
1000
0001
,
0100
0010
0100
0010
0100
0000
0001
0000
,
1000
0100
0010
0001
,
0001
0100
0010
0000
1001
0000
0100
0000
,
0010
0001
0001
0000
,
1000
0000
0010
0100
0010
0000
1001
0000
,
0100
0100
0110
0000
,
0001
0000
0100
0010
0100
0000
1001
0000
,
0010
0010
1000
0001
,
1000
0100
1000
0100
1000
0010
0000
0100
,
0001
0000
0011
0000
,
1001
0001
0100
0100
0001
0010
0100
0100
,
1001
1000
0010
0010
1000
0100
0010
0010
,
1001
0000
1001
0000
0110
0000
0110
0000
0001
0100
0001
0000
0010
0000
0100
0000
,
1000
0000
1000
0000
0010
0000
0010
0000
1000
0000
0001
0010
0000
0001
1000
0000
,
0010
1000
0010
1000
0010
0000
1001
0000
0100
1000
0100
1000
0100
0010
0001
0000
,
0100
0001
0100
0001
0100
0000
1001
0000
0010
0001
0010
0001
0000
0100
1000
0000
,
0110
0000
0110
0000
1001
0000
1001
0000
0010
0100
0010
0100
0001
0010
0100
0000
,
1000
0000
0010
0000
0100
0000
0001
0000
0100
0000
1000
0010
0000
0100
0001
0000
,
0010
0000
0001
0010
0000
0001
0010
0000
0001
0000
1000
0100
0000
1000
0100
0000
,
1000
0000
0001
0100
0000
0001
0100
0000
0001
0000
1000
0010
0000
1000
0010
0000
,
1000
0001
1000
0001
1000
0000
0010
0000
0110
0000
1000
0000
0110
0000
0001
0000
,
0100
0010
0100
0010
0100
0000
0001
0100
0001
0000
0110
0000
1000
0000
0000
0000
,
0001
0100
0010
0000
1001
0000
0100
0000
,
0010
0001
0001
0000
,
1000
0000
0010
0100
0010
0000
1001
0000
,
0100
0100
0110
0000
,
0001
0000
0100
0010
0100
0000
1001
0000
,
0010
0100
1000
1001
,
0010
0001
0010
0001
0010
0000
0001
0000
,
0100
0110
1001
0110
,
1000
0010
0100
0000
1001
0000
0010
0000
,
0100
1000
1000
0000
,
0001
0000
0100
0010
0100
0000
1001
0000
,
0010
0010
0110
0000
,
1000
0000
0010
0100
0010
0000
1001
0000
,
0100
0010
0100
0000
0001
0000
0001
0000
,
1000
0100
1000
0100
1000
0100
0000
0001
,
0100
0100
0100
0000
,
0001
0100
0001
0100
0001
0000
0001
0000
,
1001
0001
0001
0001
1000
0010
1000
0010
,
1000
0000
1000
0000
1001
1000
1000
1000
,
1001
0000
0010
0001
0010
0001
0100
0000
,
0010
1000
0010
0000
1000
0000
1001
0000
,
0100
1000
0100
1000
0020
0000
0000
0000
,
0130
0001
0100
0001
0020
0000
0000
0000
,
0031
0100
0001
0100
0001
0000
0010
0000
,
0100
1000
0100
0000
1000
0001
1000
0000
,
1000
0010
1000
0010
1000
0000
0100
0000
,
0010
0001
0010
0000
0001
1000
0001
0000
,
0001
0010
0001
0010
0001
0000
0100
0000
,
0010
1000
0010
0000
1000
0001
1000
0000
,
1000
0100
1000
0100
1000
0000
0010
0000
,
0100
0101
0000
0101
,
1001
0000
0000
0000
;

//---------------dance-single - ----------------
#NOTES:
     dance-single:
     :
     Challenge:
     10:
     0.784,0.980,0.566,0.017,0.433:
0000
0000
0000
0000
,
0000
0000
0000
0000
,
0000
0000
0000
0000
,
0000
0000
0000
0000
,
0000
0000
0000
0000
,
1100
0000
1000
0000
0011
0000
0001
0100
0001
0000
0010
0100
0000
1000
0001
0000
,
0100
0000
0001
0100
1000
0000
0010
0000
0010
0000
1000
0010
0001
0000
0100
0000
,
0100
0001
0100
0010
0100
0000
0100
0000
0010
1000
0010
0100
0010
0000
0010
0000
,
0100
0001
0100
0001
0010
0000
0001
0010
0001
1000
0001
1000
0001
0000
0110
0000
,
1001
0000
0100
1000
0100
0000
1000
0100
0001
0000
0110
0000
0100
0000
1001
0000
,
0001
0000
0001
0000
0101
0000
0000
0000
0110
0000
0001
0010
1000
0000
0010
0100
,
0010
0000
1000
0001
0000
0001
0000
0001
0100
0010
0100
0000
1001
0000
1001
0000
,
1000
0000
0100
1000
0100
1000
0100
0000
1001
0000
1000
0000
0010
0100
0010
0000
,
1000
0010
1000
0010
1000
0100
0010
0001
0100
0001
0010
0001
0100
0000
1001
0000
,
0001
0100
0001
0100
0001
0010
0100
1000
0010
1000
0100
1000
0010
0000
1001
0000
,
0100
0010
0100
0010
0100
0010
0100
0000
0001
0100
1000
0000
0001
0100
1000
0000
,
1001
0000
1000
0010
1000
0000
0110
0000
0001
0010
0001
0010
0100
0000
1001
0000
,
1000
0010
1000
0010
1000
0001
0010
0001
,
0100
0001
0010
0100
1000
0000
1001
0000
,
0001
0100
0001
0100
0001
1000
0100
1000
,
0110
1001
0110
0001
,
0011
0000
0100
1000
0100
1000
0001
0000
,
0010
0001
0010
0000
1001
0000
1001
0000
,
0100
0010
0100
0010
0100
0010
0100
0000
,
0001
0100
0010
1000
0001
0100
0010
1000
,
0001
0100
0001
0100
0001
1000
0100
1000
,
0010
0100
0001
1000
0001
0000
0110
0000
,
1001
0000
0010
1000
0010
1000
0100
0010
,
1001
0110
1001
0000
,
1100
0000
0010
0001
0010
0001
1000
0001
,
1000
0001
0010
0100
1000
0000
0110
0000
,
0001
0100
0001
1000
0100
1000
0001
0100
,
0001
0001
0011
0000
,
1001
0000
0010
0001
0000
0010
0001
0000
1000
0000
0100
1000
0000
0100
1000
0000
,
0110
0000
0001
0100
0000
0001
0100
0000
1001
0000
0010
1000
0000
0010
1000
0000
,
1001
0000
1001
0000
0110
0000
0110
0000
0001
0100
0001
0100
0001
0010
0100
0000
,
1000
0010
1000
0010
1000
0100
0010
0000
1001
0000
0001
0010
0000
0001
1000
0000
,
0010
1000
0010
1000
0010
0001
0010
1000
0100
0010
0001
1000
0100
0010
0001
0000
,
0100
0001
0100
0001
0100
1000
0100
0001
0010
0100
1000
0001
0010
0100
1000
0000
,
0110
0000
0110
0000
1001
0000
1001
0000
0010
0100
0010
0100
0001
0010
0100
0000
,
1000
0001
1000
0001
0100
0010
0100
0000
0001
0010
0100
1000
0000
1000
0010
0000
,
0100
0001
0100
0001
0100
0001
0100
0000
0010
1000
0010
1000
0010
1000
0010
0000
,
1000
0100
1000
0100
1000
0100
1000
0000
0001
0010
0001
0010
0001
0010
0001
0000
,
0100
0001
0010
0001
0100
0000
0110
0000
1001
0000
1000
0100
0001
0000
1001
0000
,
0100
0010
0100
0010
0100
0001
0100
1000
0010
0100
0010
0000
1001
0000
0000
0000
,
1000
0010
1000
0010
1000
0001
0010
0001
,
1000
0100
0010
0001
0100
0010
0100
0000
,
1001
0000
0010
0100
0010
1000
0100
0010
,
1001
0110
1001
0000
,
0101
0000
0010
1000
0010
1000
0100
0010
,
0001
0100
0001
0000
0110
0000
1001
0000
,
0010
0001
0010
0001
0100
0001
0010
0100
,
1000
0001
1000
0001
1000
0001
1000
0000
,
0001
0100
0001
0100
0001
1000
0100
1000
,
0001
0010
0100
1000
0010
0100
0010
0000
,
1001
0000
0100
0010
0100
0001
0010
0100
,
1001
0110
1001
0000
,
1010
0000
0100
0001
0100
0001
0010
0001
,
0100
0010
0100
0000
1001
0000
1001
0000
,
0100
1000
0100
1000
0100
1000
0000
1000
,
0001
0100
0100
0000
,
0001
0001
0001
0001
0001
0000
0100
0000
,
0210
0010
0010
0310
1000
1000
1000
1000
,
1000
0000
0010
0000
0120
0100
0100
0130
,
0001
0010
0001
0010
0001
0010
1000
0010
,
0001
0100
0010
1000
0001
0000
1001
0000
,
0100
0010
0001
0010
0100
0000
1001
0000
,
0010
0100
1000
0100
0010
0000
1001
0000
,
0001
0010
0100
0010
0001
0010
1000
0100
,
0010
0100
1000
0100
0001
0100
0010
0000
,
1000
0100
0010
0100
1000
0100
0001
0010
,
0100
0010
0001
0010
1000
0010
0100
0000
,
0001
0010
0100
0010
0001
0010
1000
0100
,
0010
0100
1000
0100
0001
0010
0100
0000
,
1000
0010
0100
0010
1000
0001
0010
0001
,
0100
0001
0010
0000
0010
0000
0011
0000
,
1001
0000
0000
0000
;

//---------------dance-single - ----------------
#NOTES:
     dance-single:
     :
     Beginner:
     2:
     0.107,0.158,0.108,0.000,0.000:
0000
0000
0000
0000
,
0000
0000
0000
0000
,
0000
0000
0000
0000
,
0000
0000
0000
0000
,
0000
0000
0000
0000
,
1000
0000
0000
0000
,
0001
0000
0000
0000
,
1000
0000
0000
0000
,
0001
0000
0000
0000
,
0100
0000
0000
0000
,
0100
0000
0000
0000
,
0010
0000
0000
0000
,
0010
0000
0000
0000
,
1001
0000
1000
0000
,
0001
0000
0010
0000
,
0001
0000
1000
0000
,
0100
0000
0000
0000
,
1001
0000
0000
0000
,
1000
0000
0000
0000
,
0010
0000
0000
0000
,
0100
0000
0000
0000
,
0100
0000
0000
0000
,
0001
0000
0000
0000
,
0001
0000
0000
0000
,
0000
0000
0000
0000
,
1001
0000
0000
0000
,
0001
0000
0000
0000
,
0010
0000
0000
0000
,
0010
0000
0000
0000
,
0100
0000
0000
0000
,
0100
0000
0000
0000
,
1000
0000
0000
0000
,
0001
0000
0000
0000
,
1001
0000
0000
0000
,
1000
0000
0000
0000
,
0100
0000
0000
0000
,
1000
0000
0000
0000
,
0001
0000
0001
0000
,
0001
0000
1000
0000
,
1000
0000
0010
0000
,
0010
0000
0100
0000
,
1001
0000
0000
0000
,
0001
0000
0000
0000
,
1000
0000
0100
0000
,
0010
0000
0001
0000
,
1001
0000
0000
0000
,
0001
0000
0000
0000
,
0010
0000
0000
0000
,
0100
0000
0000
0000
,
1000
0000
0000
0000
,
1000
0000
0000
0000
,
1000
0000
0000
0000
,
0110
0000
0000
0000
,
1001
0000
0000
0000
,
0001
0000
0000
0000
,
0001
0000
0000
0000
,
1001
0000
0000
0000
,
0001
0000
0000
0000
,
0010
0000
0000
0000
,
0100
0000
0000
0000
,
1000
0000
0000
0000
,
1001
0000
0000
0000
,
0000
0000
1001
0000
,
0000
0000
0000
0000
,
1001
0000
0000
0000
,
0000
0000
0000
0000
,
1000
0000
0000
0000
,
0000
0000
0000
0000
,
0010
0000
0000
0000
,
0010
0000
0000
0000
,
0010
0000
0000
0000
,
0100
0000
0000
0000
,
0100
0000
0000
0000
,
0001
0000
0000
0000
,
0001
0000
0000
0000
,
0001
0000
0000
0000
,
1001
0000
0000
0000
;
