#TITLE:Betty Boo;
#SUBTITLE:;
#ARTIST:SENAX;
#TITLETRANSLIT:;
#SUBTITLETRANSLIT:;
#ARTISTTRANSLIT:;
#CREDIT:DMAxel;
#BANNER:Betty Boo.png;
#BACKGROUND:Betty Boo-bg.png;
#LYRICSPATH:;
#CDTITLE:pop'n music.png;
#MUSIC:Betty Boo.mp3;
#OFFSET:-1.140;
#SAMPLESTART:52.597;
#SAMPLELENGTH:12.000;
#SELECTABLE:YES;
#BPMS:0.000=121.000;
#STOPS:;
#BGCHANGES:;

//---------------dance-single - ----------------
#NOTES:
     dance-single:
     :
     Easy:
     3:
     0.250,0.313,0.243,0.198,0.000:
0000
0000
0000
0000
,
0000
0000
0000
0000
,
0000
0000
0000
0000
,
0000
0000
0000
0000
,
0100
0000
0000
0000
,
0010
0000
0000
0000
,
0100
0000
0000
0000
,
0010
0000
0000
0000
,
1000
0000
0000
0000
,
0001
0000
0000
0000
,
0100
0010
0100
0001
,
1000
0001
0100
0001
,
0100
0010
1000
0001
,
1001
0100
0010
1000
,
1001
0010
0100
0001
,
0100
0001
1000
0001
,
1000
0010
0100
0001
,
1001
0100
1000
0000
,
1001
0010
0010
1000
,
0001
0010
0001
1000
,
0100
1000
0001
0010
,
0001
1001
0100
0010
,
0100
0010
1000
0001
,
1000
0001
0100
0010
,
0100
0100
0010
0010
,
1000
0100
0010
0001
,
1001
0100
2000
0000
,
3100
0010
0002
0000
,
0013
0001
0100
0001
,
1001
0010
0100
0010
,
0110
1001
0100
1000
,
0001
0011
1000
1100
,
0010
0001
0010
0100
,
2000
0000
3002
0000
,
0103
0100
0010
0010
,
1000
0100
0010
0001
,
0110
1000
1000
0110
,
0001
0001
0010
0100
,
1001
0100
0010
0100
,
0010
1000
0001
0010
,
0001
1000
0100
1000
,
0001
0001
0001
0001
,
2002
0000
0000
0000
,
3003
2200
0000
0000
,
3300
0022
0000
0000
,
0033
2200
0000
0000
,
3300
0022
0000
0000
,
0033
2020
0000
0000
,
3030
0202
0000
0000
,
0303
0220
0000
0330
,
1001
1001
0110
0110
,
0001
0000
0010
0000
0100
0000
0000
2002
,
0000
0000
0000
0000
,
0000
0000
3003
0000
;

//---------------dance-single - ----------------
#NOTES:
     dance-single:
     :
     Hard:
     7:
     0.430,0.458,0.306,0.054,0.185:
0000
0000
0000
0000
,
0000
0000
0000
0000
,
0000
0000
0000
0000
,
0000
0000
0000
0000
,
0010
0100
0001
2000
0000
0000
3000
0000
,
0100
1000
0001
0020
0000
0000
0030
0000
,
0001
0100
0010
2000
0000
0000
3000
0000
,
0001
0000
0010
0000
0100
0000
1000
0000
0000
1000
0000
0000
1000
0000
0001
0000
,
1000
0000
0100
0000
0010
0000
0001
0000
0000
0001
0000
0000
0001
0000
1000
0000
,
0001
0000
0010
0000
0100
0000
1000
0000
0000
1000
0020
0000
0000
0000
0000
0000
,
0130
0000
0001
0000
0100
0000
0001
0000
0010
0000
0100
0000
0000
1000
0000
0000
,
0010
0000
1000
0000
0010
0000
1000
0000
0100
0000
0010
0000
0000
0001
0000
0000
,
0010
0000
0001
0000
0010
0000
0001
0000
0010
0000
0100
0000
1000
0001
0000
0000
,
1001
0000
0000
0000
0010
0000
1000
0100
0000
1000
0100
0000
1000
0000
0001
0000
,
1001
0000
0000
0000
0010
0000
1000
0000
0100
0000
0010
0000
0000
0001
0000
0000
,
0100
0000
0010
0000
0100
0000
0001
0000
0010
0000
1000
0000
0000
0010
0000
0000
,
0100
0000
0001
0000
0010
0000
0100
0000
1000
0000
0010
0000
1000
0001
0000
0000
,
1001
0000
0000
0000
0100
0000
0001
0010
0000
0001
0010
0000
0001
0000
1000
0000
,
1001
0000
0010
0000
0010
0000
0000
0000
0001
0000
0000
1000
0000
0000
0001
0000
,
0010
0100
1000
0010
1000
0010
0100
0010
,
1000
0000
0100
0000
0100
0000
0000
0000
1000
0000
0000
0001
0000
0000
1000
0000
,
0100
0010
0001
0000
0100
0010
0100
0000
,
1001
0000
0100
0000
0100
0000
0000
0000
0001
0000
0000
1000
0000
0000
0001
0000
,
0010
0100
1000
0010
1000
0100
1000
0010
,
1000
0000
0010
0000
0010
0000
0000
0000
1000
0000
0000
0001
0000
0000
1000
0000
,
1001
1001
0110
0110
,
1001
0000
0000
0000
1000
0000
0000
0000
0001
0010
0000
0010
0000
0000
0001
0000
,
1000
0000
0100
0000
0010
0000
0001
0000
0100
0010
0000
0010
0000
0000
0000
0000
,
1000
0000
0000
0000
0001
0000
0000
0000
0100
0000
0000
0000
0010
0000
0000
1000
,
0001
0010
0100
1000
0100
0010
0001
0000
,
0110
0000
0000
0000
0110
0000
0000
0000
1000
0010
0000
0010
0000
0000
1000
0000
,
0100
0000
0010
0000
0001
0000
0100
0000
0010
0100
0000
0100
0000
0000
0000
0000
,
0001
0000
0000
0000
1000
0000
0000
0000
0010
0000
0000
0000
0100
0000
0000
0001
,
1000
0100
0010
0001
0010
0100
1000
0000
,
0110
0000
0000
0000
0110
0000
0000
0000
0010
1000
0000
1000
0000
0000
0001
0000
,
0010
0000
0100
0000
1000
0000
0010
0000
0100
0010
0000
0010
0000
0000
0000
0000
,
1000
0000
0000
0000
0001
0000
0000
0000
0100
0000
0000
0000
0010
0000
0000
1000
,
0001
0010
0100
1000
0100
0010
0001
0000
,
0110
0000
0000
0000
0110
0000
0000
0000
0100
0001
0000
0001
0000
0001
1000
0000
,
0100
0000
0010
0000
0001
0000
0100
0000
0010
0100
0000
0100
0000
0000
0000
0000
,
0001
0000
0000
0000
1000
0000
0100
0000
0001
0000
0000
0000
0100
0000
0000
0010
,
1000
0100
0010
0001
0010
0100
1000
0010
,
0100
0000
0100
0000
0100
0000
0000
0000
0011
0000
0000
1001
0000
0000
0000
0000
,
0000
0110
0110
0000
1000
0100
0010
0001
,
0000
0000
1001
0000
0010
1000
0000
0000
,
0000
0110
0110
0000
0001
0010
0100
1000
,
0000
0000
1001
0000
0100
0001
0000
0000
,
0000
0110
0110
0000
1000
0100
0010
0001
,
0000
0000
1001
0000
0010
0001
0000
0000
,
0000
0110
0110
0000
0001
0010
0100
1000
,
1001
1001
1100
0011
,
0001
0000
0010
0000
0100
0000
1000
0000
0001
0100
0000
0100
0000
0000
2002
0000
,
0000
0000
0000
0000
,
0000
0000
3003
0000
;

//---------------dance-single - ----------------
#NOTES:
     dance-single:
     :
     Challenge:
     8:
     0.558,0.555,0.487,0.054,0.482: // measure 1
0000
0000
0000
0000
,  // measure 2
0000
0000
0000
0000
,  // measure 3
0000
0000
0000
0000
,  // measure 4
0000
0000
0000
0000
,  // measure 5
1000
0000
0100
0000
0010
0000
0001
0010
0000
0001
0010
0000
0000
0101
0000
0000
,  // measure 6
1001
0000
0010
0000
0100
0000
1000
0100
0000
1000
0100
0000
0000
1010
0000
0000
,  // measure 7
1001
0000
0100
0000
0010
0000
0001
0100
0000
0100
0010
0000
0100
0001
0000
1000
,  // measure 8
0001
0000
0010
0000
0100
0000
1000
0010
0000
0010
0100
0000
0010
1000
0000
0001
,  // measure 9
1000
0000
0100
0000
0010
0000
0001
0010
0000
0010
0100
0000
0010
0001
0000
1000
,  // measure 10
0001
0000
0010
0000
0100
0000
1000
0100
0000
0010
0200
0000
0000
0000
0300
0000
,  // measure 11
1001
0000
0010
0000
0100
0000
1000
0000
0010
0000
1000
0000
0000
1100
0000
0000
,  // measure 12
1001
0000
0100
0000
0010
0000
0001
0000
0100
0000
0001
0000
0000
0011
0000
0000
,  // measure 13
1001
0000
0010
0000
0100
0000
1000
0000
0100
0000
0001
0000
0100
0010
0000
0000
,  // measure 14
1001
0000
0100
0000
0010
0000
0001
0100
0000
0100
0010
0100
0001
0100
0010
0000
,  // measure 15
1001
0000
0010
0000
0100
0000
1000
0000
0010
0000
1000
0000
0000
0101
0000
0000
,  // measure 16
1001
0000
0100
0000
0010
0000
0001
0000
0100
0000
0001
0000
0000
1010
0000
0000
,  // measure 17
1001
0000
0010
0000
0100
0000
1000
0000
0100
0000
0001
0000
0010
0100
0000
0000
,  // measure 18
1001
0000
0010
0000
1000
0000
0001
0100
0000
0100
0010
0100
0001
0100
0010
0000
,  // measure 19
1001
0000
1000
0000
0000
1010
0000
0000
1100
0000
0000
0011
0000
0001
1000
0000
,  // measure 20
0100
0000
0100
0000
0100
1000
0000
0000
1100
0000
0010
0000
0001
0000
0000
0000
,  // measure 21
1001
0000
0001
0000
0000
0101
0000
0000
0110
0000
0000
1100
0000
0010
0001
0000
,  // measure 22
0010
0000
0010
0000
0010
0001
0000
0000
0011
0000
0100
0000
1000
0000
0000
0000
,  // measure 23
1001
0000
1000
0000
0000
1100
0000
0000
1010
0000
0000
0101
0000
0010
1000
0000
,  // measure 24
0100
0000
0100
0000
0100
1000
0000
0000
1100
0000
0010
0000
0001
0000
0000
0000
,  // measure 25
1001
0000
0001
0000
0000
0101
0000
0000
0110
0000
0000
1010
0000
0100
0001
0000
,  // measure 26
1001
1100
0101
1010
,  // measure 27
1001
0000
0000
0000
0001
0000
1000
0000
0001
0100
0000
0100
0000
0100
0010
0000
,  // measure 28
1000
0000
0100
0000
0010
0000
0001
0000
0100
0010
0000
0010
0000
0010
1000
0000
,  // measure 29
0001
0000
0000
0100
0000
0000
0001
0000
1000
0000
0000
0010
0000
0000
0000
0100
,  // measure 30
0001
0000
0010
0000
0100
0000
1000
0000
0100
0000
0010
0000
0001
0100
0000
0100
,  // measure 31
0010
0000
0000
0000
1000
0000
0001
0000
1000
0010
0000
0010
0000
0010
1000
0000
,  // measure 32
0100
0000
0010
0000
0001
0000
0100
0000
0010
0100
0000
0100
0000
0100
0001
0000
,  // measure 33
1000
0000
0000
0010
0000
0000
1000
0000
0001
0000
0000
0100
0000
0000
0000
0010
,  // measure 34
1000
0000
0100
0000
1000
0010
0000
0100
0000
0100
0000
0010
1000
0000
0010
0000
,  // measure 35
0110
0000
0000
0000
0001
0000
1000
0000
0001
0010
0000
0010
0000
0010
0001
0000
,  // measure 36
0100
0000
0010
0000
1000
0000
0100
0000
0010
0100
0000
0100
0000
0100
1000
0000
,  // measure 37
0001
0000
0000
0010
0000
0000
0001
0000
1000
0000
0000
0100
0000
0000
0000
1000
,  // measure 38
0001
0000
0010
0000
0100
0000
1000
0000
0010
0000
0100
0000
0010
1000
0000
1000
,  // measure 39
0001
0000
0000
0000
1000
0000
0001
0000
1000
0100
0000
0100
0000
0100
1000
0000
,  // measure 40
0010
0000
0100
0000
0001
0000
0010
0000
0100
0010
0000
0010
0000
0010
0001
0000
,  // measure 41
1000
0000
0000
0100
0000
0000
1000
0000
0001
0000
0000
0010
0000
0000
0000
0001
,  // measure 42
1000
0000
0100
0000
1000
0010
0000
0100
0000
0100
0000
0010
1000
0000
0010
0000
,  // measure 43
0110
0000
1000
0000
1000
0000
0000
0100
0010
0000
0001
0000
0010
0000
0100
0000
,  // measure 44
1000
0000
0010
0000
0110
0000
0000
0001
0010
0000
0100
0000
1000
0000
0020
0000
,  // measure 45
0000
0000
0130
0000
1001
0000
0000
0010
0100
0000
1000
0000
0100
0000
0010
0000
,  // measure 46
0001
0000
0100
0000
0110
0000
0000
1000
0100
0000
0010
0000
0001
0000
0200
0000
,  // measure 47
0000
0000
0310
0000
1001
0000
0000
0100
0010
0000
0001
0000
0010
0000
0100
0000
,  // measure 48
1000
0000
0010
0000
0110
0000
0000
0001
0010
0000
0100
0000
1000
0000
0020
0000
,  // measure 49
0000
0000
0130
0000
1001
0000
0000
0010
0100
0000
1000
0000
0100
0000
0010
0000
,  // measure 50
0001
0000
0100
0000
0110
0000
0000
1000
0100
0000
0010
0000
0001
0000
0100
0000
,  // measure 51
0110
1010
0101
1001
,  // measure 52
1000
0000
1000
0000
0001
0000
0001
0000
0010
0100
0000
0100
0000
0000
2002
0000
,  // measure 53
0000
0000
0000
0000
,  // measure 54
0000
0000
3003
0000
;

//---------------dance-single - ----------------
#NOTES:
     dance-single:
     :
     Medium:
     5:
     0.367,0.410,0.388,0.045,0.081:
0000
0000
0000
0000
,
0000
0000
0000
0000
,
0000
0000
0000
0000
,
0000
0000
0000
0000
,
1000
0000
0100
0020
0000
0000
0030
0000
,
0001
0000
0010
0200
0000
0000
0300
0000
,
1000
0000
0100
0020
0000
0000
0030
0000
,
0001
0000
0000
0000
0010
0000
0100
0000
0000
1000
0000
0000
0100
0000
0000
0000
,
1000
0000
0000
0000
0100
0000
0010
0000
0000
0001
0000
0000
0010
0000
0000
0000
,
1001
1001
0110
0110
,
1001
0000
0000
0000
1000
0000
0000
0000
0010
0000
0000
0000
0000
0100
0000
0000
,
0100
0000
0000
0000
0001
0000
0000
0000
1000
0000
0000
0000
0000
0010
0000
0000
,
0010
1000
0010
0100
,
1001
0000
0000
0000
0010
0000
0100
0000
0000
0010
0000
0000
1000
0000
0001
0000
,
1000
0000
0000
0000
0010
0000
0000
0000
0100
0000
0000
0000
0000
0001
0000
0000
,
1001
0000
0000
0000
0010
0000
0000
0000
0100
0000
0001
0000
0000
1000
0000
0000
,
1001
0000
0000
0000
0100
0000
0000
0000
0010
0000
1000
0000
0000
0001
0000
0000
,
1001
0000
0000
0000
0100
0000
0010
0000
0000
0100
0000
0000
0001
0000
1000
0000
,
0001
0000
0100
0000
0010
0000
0000
0000
1000
0000
0000
0010
0000
0000
1000
0000
,
0100
0010
0001
0100
0001
0100
0010
0000
,
0100
0000
0010
0000
1000
0000
0000
0000
0001
0000
0000
0100
0000
0000
0010
0000
,
0100
0010
1000
0100
0010
0001
0100
0000
,
1001
0000
0000
0000
0100
0000
0000
0000
0010
0000
0000
1000
0000
0000
0010
0000
,
0100
0010
1000
0001
1000
0100
0010
0000
,
0001
0000
0100
0000
0010
0000
0000
0000
0100
0000
0000
0001
0000
0000
1000
0000
,
1001
1001
0110
0110
,
1001
0000
0000
0000
0001
0000
0000
0000
1000
0000
0000
0100
0000
0000
1000
0000
,
0001
0010
0100
1000
0010
0000
0100
0000
,
0001
1000
0010
0100
,
0001
0010
0100
1000
0100
0010
0001
0000
,
0110
0000
0000
0000
0110
0000
0000
0000
1001
0000
0000
0010
0000
0000
0001
0000
,
1000
0100
0010
0001
0100
0000
0010
0000
,
1000
0100
0010
0001
,
1000
0100
0010
0001
0010
0100
1000
0000
,
0110
0000
0000
0000
0110
0000
0000
0000
0100
0000
0000
0001
0000
0000
1000
0000
,
0001
0010
0100
1000
0010
0000
0100
0000
,
0001
0010
0100
1000
,
0001
0010
0100
1000
0100
0010
0001
0000
,
1001
0000
0000
0000
1001
0000
0000
0000
0010
0000
0000
0100
0000
0000
0001
0000
,
0010
0100
1000
0010
0100
0000
0010
0000
,
1100
1100
0101
0101
,
0010
1000
0100
0010
0001
0100
0001
0010
,
0100
0000
1000
0000
0010
0000
0000
0000
1000
0000
0000
0001
0000
0000
0000
0000
,
0000
0100
0010
0000
0110
0000
0110
0000
,
0000
0000
1001
0000
0100
0010
0000
0000
,
0000
0010
0100
0000
0110
0000
0110
0000
,
0000
0000
1001
0000
0001
1000
0000
0000
,
0000
0010
0100
0000
0110
0000
0110
0000
,
0000
0000
1001
0000
0010
0100
0000
0000
,
0000
1000
0001
0000
0110
0000
0110
0000
,
1100
1100
0101
0101
,
0010
0100
0010
0000
0110
0000
0000
2002
,
0000
0000
0000
0000
,
0000
0000
3003
0000
;

//---------------dance-single - ----------------
#NOTES:
     dance-single:
     :
     Beginner:
     1:
     0.085,0.140,0.081,0.000,0.000:
0000
0000
0000
0000
,
0000
0000
0000
0000
,
0000
0000
0000
0000
,
0000
0000
0000
0000
,
0000
0000
0000
0000
,
0000
0000
0000
0000
,
0000
0000
0000
0000
,
0000
0000
0000
0000
,
0000
0000
0000
0000
,
0000
0000
0000
0000
,
0001
0000
0000
0000
,
1000
0000
0000
0000
,
0001
0000
0000
0000
,
1000
0000
0000
0000
,
1001
0000
0000
0000
,
0010
0000
0000
0000
,
0100
0000
0000
0000
,
0010
0000
0000
0000
,
1001
0000
0000
0000
,
0001
0000
0001
0000
,
0000
1001
0000
0000
,
1000
0000
1000
0000
,
0000
1001
0000
0000
,
0001
0000
0001
0000
,
0000
1001
0000
0000
,
1000
0000
1000
0000
,
0010
0000
0100
0000
,
0010
0000
1000
0000
,
0001
0000
1000
0000
,
0000
0000
0000
0000
,
0001
0000
1000
0000
,
0001
0000
1000
0000
,
0010
0000
0100
0000
,
0010
0000
0000
0000
,
1001
0000
1000
0000
,
0001
0000
1000
0000
,
0010
0000
0100
0000
,
0010
0000
0000
0000
,
1001
0000
0100
0000
,
0010
0000
0100
0000
,
0001
0000
1000
0000
,
0001
0000
0000
0000
,
1001
0000
0000
0000
,
0000
0100
0000
0000
,
0000
0010
0000
0000
,
0000
1000
0000
0000
,
0000
0001
0000
0000
,
0000
1000
0000
0000
,
0000
0001
0000
0000
,
0000
0100
0000
0000
,
0010
0000
0000
0000
,
0000
0000
0000
0000
0000
0000
0000
1001
;
