#TITLE:Betty Boo remix;
#SUBTITLE:;
#ARTIST:Remixed by SLAKE;
#TITLETRANSLIT:;
#SUBTITLETRANSLIT:;
#ARTISTTRANSLIT:;
#CREDIT:DMAxel;
#BANNER:Betty Boo remix.png;
#BACKGROUND:Betty Boo remix-bg.png;
#LYRICSPATH:;
#CDTITLE:Konami original REMIX.png;
#MUSIC:Betty Boo remix.mp3;
#OFFSET:-2.040;
#SAMPLESTART:87.335;
#SAMPLELENGTH:12.000;
#SELECTABLE:YES;
#BPMS:0.000=128.000;
#STOPS:34.000=1.440
,175.000=1.440
;
#BGCHANGES:;

//---------------dance-single - ----------------
#NOTES:
     dance-single:
     :
     Easy:
     3:
     0.177,0.251,0.163,0.018,0.000:
0000
0000
0000
0000
,
0000
0000
0000
0000
,
0000
0000
0000
0000
,
0000
0000
0000
0000
,
0000
0000
0000
0000
,
0000
0000
0000
0000
,
0000
0000
1000
0000
,
0001
1001
0000
0000
,
1001
0000
0100
0010
,
0100
0000
0010
0000
,
1000
0000
0001
0000
,
1000
0000
0001
0000
,
0010
0000
0001
0000
,
1000
0000
0100
0000
,
1000
0000
0010
0000
,
0100
0000
0010
0000
,
1000
0001
1000
1001
,
0000
0000
0000
0010
,
0000
0100
0000
0010
,
0000
1000
0001
1000
,
0000
0001
0000
1000
,
0000
0001
0010
0001
,
0000
0010
0000
0001
,
0000
1000
0100
1000
,
0000
0100
0000
1001
,
0000
0000
0000
0010
,
0000
0000
0000
0100
,
0000
0000
0000
0011
,
1000
0001
1000
1010
,
0000
0000
0000
0101
,
0000
0000
0000
1010
,
0000
0000
0000
0101
,
0010
1000
0001
1100
,
0010
0100
0001
0010
,
0001
1000
0100
1000
,
0010
0100
0010
1000
,
0001
1000
0001
0010
,
0001
0100
0010
1000
,
0100
1000
0001
1000
,
0010
0100
0001
1001
,
0000
0000
0000
1001
,
0000
0000
0000
1001
,
0000
0000
0000
0101
,
0000
0000
0000
1010
,
0001
1000
0000
0001
,
0000
0100
0000
0010
,
1000
0001
1000
0001
,
0100
0000
0000
0000
,
0010
0100
0010
1000
,
0001
1000
0001
0010
,
0001
0000
1000
0000
,
0010
1000
0010
0100
,
1001
0000
0000
0000
,
1001
0000
0010
0000
0100
0000
0000
2002
,
0000
0000
0000
0000
,
0000
0000
3003
0000
;

//---------------dance-single - ----------------
#NOTES:
     dance-single:
     :
     Hard:
     7:
     0.383,0.451,0.380,0.117,0.122: // measure 1
0000
0000
0000
0000
,  // measure 2
0000
0000
0000
0000
,  // measure 3
0000
0000
0000
0000
,  // measure 4
0000
0000
0010
0010
,  // measure 5
1000
0000
0010
0010
,  // measure 6
0100
0000
0001
0000
,  // measure 7
0001
0000
1000
0000
,  // measure 8
0110
0110
0000
0000
,  // measure 9
0011
1100
1001
0100
,  // measure 10
0010
0100
0001
1000
,  // measure 11
0001
1000
0100
1000
,  // measure 12
0001
0010
0001
0100
,  // measure 13
0010
0100
0001
1001
,  // measure 14
0001
1000
0010
1000
,  // measure 15
0001
0100
0010
2000
,  // measure 16
0000
3002
0000
1003
,  // measure 17
1010
0001
0101
1001
,  // measure 18
0100
0000
0010
1000
0100
0010
0002
0000
,  // measure 19
0000
2003
0000
3001
,  // measure 20
0000
0000
0100
0001
0010
0100
2000
0000
,  // measure 21
0000
3002
0000
0103
,  // measure 22
0000
0000
0001
1000
0100
0010
0002
0000
,  // measure 23
0000
2003
0000
3010
,  // measure 24
0000
0000
0100
0001
0010
0100
2000
0000
,  // measure 25
0000
0000
3010
0100
1001
0000
1001
0000
,  // measure 26
0100
0000
0000
0000
0010
0000
0100
0000
0000
0010
0000
0000
1001
0000
0000
0000
,  // measure 27
0100
0000
0000
0000
0010
0000
1000
0000
0000
0001
0000
0000
1001
0000
0000
0000
,  // measure 28
0001
0000
0000
0000
0100
0000
0010
0000
0000
1000
0000
0000
1001
0000
0100
0000
,  // measure 29
0010
0001
0010
0100
1000
0010
1001
0000
,  // measure 30
0100
0000
0000
0000
0010
0000
0100
0000
0000
0001
0000
0000
1001
0000
0000
0000
,  // measure 31
0100
0000
0000
0000
0010
0000
1000
0000
0000
0001
0000
0000
1001
0000
0000
0000
,  // measure 32
0100
0000
0000
0000
0001
0000
1000
0000
0000
0100
0000
0000
0011
0000
0100
0000
,  // measure 33
1000
0100
0010
0001
0100
0010
1001
0000
,  // measure 34
0010
0000
0000
0000
0100
0000
0000
0001
0000
0000
1000
0000
0010
0000
0100
0000
,  // measure 35
0001
1000
0001
0010
0100
1000
0000
0010
,  // measure 36
0100
0000
0000
0000
0001
0000
0000
1000
0000
0000
0001
0000
0100
0000
0000
0000
,  // measure 37
1010
0101
1001
0110
,  // measure 38
1000
0000
0000
0000
0010
0000
0000
0100
0000
0000
0001
0000
1000
0000
0100
0000
,  // measure 39
0010
0001
0010
0100
1000
0001
0000
0100
,  // measure 40
0010
0000
0000
0000
1000
0000
0000
0001
0000
0000
1000
0000
0002
0000
0000
0000
,  // measure 41
1000
0100
0013
2000
,  // measure 42
0001
0000
0000
0010
0000
0000
3100
0000
0000
1001
0000
0001
,  // measure 43
0010
0000
0001
1000
0000
1000
0100
0000
1000
0001
0000
0000
,  // measure 44
0011
0011
1100
1001
,  // measure 45
1010
0000
0000
0000
1010
0000
0000
0000
0100
0010
0000
0010
0000
0010
1000
0000
,  // measure 46
0100
0000
0010
0000
0001
0000
0100
0000
0010
0100
0000
0100
0000
0000
0000
0000
,  // measure 47
0101
0000
1010
0000
0100
0001
0010
0000
,  // measure 48
0001
0000
0100
0000
0000
0010
0000
0000
0010
0000
0000
1000
0000
0001
0000
0000
,  // measure 49
0101
0000
0000
0000
0101
0000
0000
0000
0010
0100
0000
0100
0000
0100
0001
0000
,  // measure 50
0010
0100
1000
0010
0001
0010
1000
0000
,  // measure 51
1100
0000
0011
0000
1001
0000
0100
0010
,  // measure 52
0100
0000
0001
0000
0000
0001
0000
0000
0100
0000
0000
0010
0000
0000
1000
0000
,  // measure 53
1001
1010
0101
1001
,  // measure 54
0001
0001
0100
0100
0010
0000
0000
2002
,  // measure 55
0000
0000
0000
0000
,  // measure 56
0000
0000
3003
0000
;

//---------------dance-single - ----------------
#NOTES:
     dance-single:
     :
     Challenge:
     8:
     0.515,0.577,0.352,0.045,0.447: // measure 1
0000
0000
0000
0000
,  // measure 2
0000
0000
0000
0000
,  // measure 3
0000
0000
0000
0000
,  // measure 4
0000
0000
0100
0100
,  // measure 5
0001
0000
0000
1000
0000
0001
0000
0000
0010
0000
0000
0000
0010
0000
0000
0000
,  // measure 6
0001
0000
0000
0100
0000
0000
0000
0000
1001
0000
0000
0000
0000
0000
0001
0000
,  // measure 7
1000
0000
0000
1000
0001
0000
0000
0000
,  // measure 8
0110
1001
0000
0000
,  // measure 9
1100
0000
0011
0000
1001
0000
0010
0100
,  // measure 10
0001
0000
0000
0000
0010
0000
0000
0001
0000
0000
0100
0000
0001
0000
0100
0000
,  // measure 11
0010
0000
0000
0000
0100
0000
0000
0010
0000
0000
1000
0000
0100
0000
1000
0000
,  // measure 12
0010
0000
0000
0000
0100
0000
0000
0010
0000
0000
1000
0000
0010
0000
0100
0000
,  // measure 13
0010
0000
0000
0000
0100
0000
0000
0001
0000
0000
0100
0000
0010
0000
0100
0000
,  // measure 14
0001
0000
0000
0000
1000
0000
0000
0100
0000
0000
1000
0000
0001
0000
0010
0000
,  // measure 15
0001
0000
0100
0000
0010
0000
0000
0100
0000
0000
0001
0000
1000
0000
0100
0000
,  // measure 16
1000
0000
0010
0000
0100
0000
0000
0001
0000
0000
1000
0000
0001
0010
0001
0000
,  // measure 17
1000
0100
1000
0000
0001
0100
0001
0000
1000
0010
1000
0000
1001
0000
0000
0000
,  // measure 18
0010
0000
0000
0000
0100
0000
0001
0000
0010
0000
0100
0000
1000
0010
0000
0020
,  // measure 19
0000
0000
0000
0000
0130
0001
0000
0001
0000
0000
0000
0000
1001
0000
0000
0000
,  // measure 20
0100
0000
0000
0000
0010
0000
1000
0000
0100
0000
0010
0000
0001
0100
0000
0200
,  // measure 21
0000
0000
0000
0000
0310
1000
0000
1000
0000
0000
0000
0000
1001
0000
0000
0000
,  // measure 22
0010
0000
0000
0000
1000
0000
0001
0000
0010
0000
0100
0000
1000
0100
0000
0200
,  // measure 23
0000
0000
0000
0000
0310
0001
0000
0001
0000
0000
0000
0000
1001
0000
0000
0000
,  // measure 24
0100
0000
0010
1000
0100
0010
0001
0100
,  // measure 25
0010
0000
1000
0100
1000
0000
0001
0010
0001
0000
0000
0000
1001
0000
0010
0000
,  // measure 26
0100
0000
1000
0000
0010
0100
0010
0000
0100
0010
0100
0000
1001
0000
0100
0000
,  // measure 27
0010
0000
0001
0000
1000
0100
1000
0000
0001
0010
0001
0000
1001
0000
0010
0000
,  // measure 28
0100
0000
1000
0000
0001
0100
0001
0000
1000
0010
1000
0000
1001
0000
0010
0000
,  // measure 29
0100
0000
1000
0100
0000
0100
0010
0000
0001
0100
0010
0000
1001
0000
0100
0000
,  // measure 30
0010
0000
0001
0000
1000
0100
1000
0000
0001
0010
0001
0000
1001
0000
0100
0000
,  // measure 31
0010
0000
0001
0000
1000
0010
1000
0000
0001
0100
0001
0000
1001
0000
0010
0000
,  // measure 32
0100
0000
0001
0000
1000
0010
1000
0000
0001
0100
0001
0000
1100
0000
0010
0000
,  // measure 33
0001
0000
0010
0100
0000
0100
1000
0000
0100
1000
0010
0000
1001
0000
0010
0000
,  // measure 34
0000
0100
0000
0000
0010
0000
0000
1000
0000
1000
0001
0000
0100
0000
0010
0000
,  // measure 35
1000
0000
0001
1000
0000
1000
0100
0000
0010
0000
0001
0000
0000
0000
0100
0000
,  // measure 36
0000
0010
0000
0000
1000
0000
0000
0001
0000
0001
1000
0000
0010
0000
0100
0000
,  // measure 37
0101
0000
1010
0000
1001
0000
0110
0100
,  // measure 38
0000
0001
0000
0000
0100
0000
0000
0010
0000
0010
1000
0000
0001
0000
0010
0000
,  // measure 39
0100
0000
1000
0100
0000
0100
0010
0000
0001
0000
1000
0000
0000
0000
0010
0000
,  // measure 40
0100
0000
0001
1000
0001
0000
1000
0001
1000
0000
0001
0000
1100
0000
0000
0000
,  // measure 41
0011
0000
0000
1000
0100
1000
0100
1000
0001
0010
0000
0000
,  // measure 42
1001
0000
0000
0001
0010
0001
0010
0001
1000
0100
1000
0010
,  // measure 43
1000
0001
0100
0001
1000
0010
1000
0001
0100
0001
0000
0000
,  // measure 44
0011
1010
1010
1001
,  // measure 45
1100
0000
0000
0000
1100
0000
0000
0000
0010
0100
0000
0100
0000
0100
0001
0000
,  // measure 46
0010
0000
0100
0000
1000
0000
0010
0000
0100
0001
0000
0001
0000
0000
0000
0000
,  // measure 47
0010
0000
0000
0010
0000
0000
0001
0000
1000
0000
0000
1000
0000
0000
1000
0000
,  // measure 48
0010
0000
0100
0000
0000
0001
0000
0000
1000
0000
0000
0010
0000
0100
0000
0000
,  // measure 49
0011
0000
0000
0000
1100
0000
0000
0000
0010
1000
0000
1000
0000
1000
0010
0000
,  // measure 50
0100
0000
0001
0000
0010
0000
0100
0000
1000
0010
0000
0010
0000
0000
0000
0000
,  // measure 51
0100
0000
0000
0100
0000
0000
0001
0000
1000
0000
0000
1000
0000
0000
1000
0000
,  // measure 52
0010
0000
0100
0000
0000
0001
0000
0000
1000
0000
0000
0010
0000
0100
0000
0000
,  // measure 53
1001
0011
0110
1100
,  // measure 54
0010
0000
0010
0000
0001
0000
0001
0000
0010
0100
0000
0100
0000
0000
2002
0000
,  // measure 55
0000
0000
0000
0000
,  // measure 56
0000
0000
3003
0000
;

//---------------dance-single - ----------------
#NOTES:
     dance-single:
     :
     Beginner:
     2:
     0.101,0.146,0.145,0.000,0.000:
0000
0000
0000
0000
,
0000
0000
0000
0000
,
0000
0000
0000
0000
,
0000
0000
0000
0000
,
0000
0000
0000
0000
,
0000
0000
0001
0000
,
0001
0000
0001
0000
,
1001
0000
0000
0000
,
1001
0000
0010
0000
,
0000
0000
0000
0000
,
0000
0000
0000
1000
,
0000
1000
0000
0001
,
0000
0001
0000
1001
,
0000
0000
0000
0000
,
0010
0000
0000
0010
,
0000
0100
0000
0100
,
0000
0010
0000
1001
,
0000
0000
0000
0001
,
0000
0001
0000
0001
,
0000
0000
0000
1000
,
0000
1000
0000
1000
,
0000
0000
0000
0010
,
0000
0010
0000
0010
,
0000
0000
0000
0100
,
0000
0100
0000
1001
,
0000
0000
0000
1001
,
0000
0000
0000
1001
,
0000
0000
0000
1001
,
0000
0000
0000
0000
,
0000
0000
0000
1001
,
0000
0000
0000
1001
,
0000
0000
0000
1001
,
0000
0000
0000
0000
,
0000
0000
0000
0001
,
0000
0000
0000
1000
,
0000
0000
0000
0010
,
0000
0010
0000
1001
,
0000
0000
0000
1000
,
0000
0000
0000
0001
,
0000
0000
0000
0100
,
0000
0100
0000
0010
,
0000
0010
0000
1000
,
0000
1000
0000
0001
,
0000
0001
0000
1001
,
0000
0000
0000
0000
,
0100
0000
0000
0000
,
0010
0000
0010
0000
,
0000
0000
0000
0000
,
1001
0000
0000
0000
,
0010
0000
0000
0000
,
0100
0000
0100
0000
,
0010
0000
0000
0000
,
0110
0000
0000
0000
,
1000
0000
0000
0000
0000
0000
0000
1001
;

//---------------dance-single - ----------------
#NOTES:
     dance-single:
     :
     Medium:
     5:
     0.307,0.401,0.352,0.081,0.000:
0000
0000
0000
0000
,
0000
0000
0000
0000
,
0000
0000
0000
0000
,
0000
0000
0000
0000
,
0000
0000
0000
0000
,
0000
0000
0010
0000
,
0100
0000
0010
0000
,
1001
1001
0000
0000
,
1001
1001
0010
0100
,
0100
0000
0001
0000
,
1000
0000
0001
0100
,
0000
0010
0000
0100
,
0000
0010
0000
1001
,
0001
1000
0001
0000
,
0100
0010
0100
0010
,
0000
1000
0000
0001
,
0000
0100
0000
1001
,
0010
0100
0001
2000
,
0000
3002
0000
0103
,
0010
1000
0001
0200
,
0000
0320
0000
1030
,
0000
0001
0010
0002
,
0000
2003
0000
3010
,
0000
0100
0010
2000
,
0000
3001
0100
1001
,
0010
0110
0110
1001
,
0100
0110
0110
1001
,
0010
0110
0110
1001
,
0100
0010
0001
1001
,
0100
1000
0001
0101
,
0010
1000
0001
1010
,
0100
0010
1000
1001
,
0001
0010
0100
1001
,
0001
0000
1000
0010
0100
0000
0010
0000
,
0100
0000
0001
0100
0010
0000
1000
0000
,
0001
0000
1000
0001
0100
0000
0010
0000
,
1000
0001
0101
1000
,
0010
0000
1000
0010
0100
0000
0010
0000
,
1000
0000
0001
1000
0010
0000
0100
0000
,
0010
0000
1000
0001
1000
0000
0101
0000
,
1010
0001
1000
1001
,
0011
1100
0001
1001
,
0010
0100
0011
1100
,
1001
0101
1010
1001
,
0010
0000
0100
0000
0001
0100
0001
0000
,
1000
0000
0010
0000
1000
0010
1000
0000
,
0001
0000
0100
0000
0010
0100
0001
0000
,
0010
0001
0010
0000
0010
0001
0010
0100
,
1000
0000
0001
0000
0100
0010
0100
0000
,
0001
0010
0100
1000
0010
0000
0110
0000
,
0100
1000
0100
0000
0100
1000
0100
0010
,
0001
0010
0000
0011
0000
0101
0000
0010
,
1001
0000
1001
0000
1000
0100
0010
0000
,
0001
0010
0001
0100
0020
0000
0000
2000
,
0000
0000
0000
0000
,
0000
0000
3030
0000
;
