#TITLE:Believe;
#SUBTITLE:(ONE PIECE・オープニングテーマ);
#ARTIST:Folder 5;
#TITLETRANSLIT:;
#SUBTITLETRANSLIT:(ONE PIECE OPENING THEME);
#ARTISTTRANSLIT:;
#CREDIT:DMAxel;
#BANNER:Believe (ONE PIECE OPENING THEME).png;
#BACKGROUND:Believe (ONE PIECE OPENING THEME)-bg.png;
#LYRICSPATH:Believe (ONE PIECE OPENING THEME).lrc;
#CDTITLE:DMAxel Original Simfile.png;
#MUSIC:Believe (ONE PIECE OPENING THEME).mp3;
#OFFSET:-0.452;
#SAMPLESTART:59.173;
#SAMPLELENGTH:14.000;
#SELECTABLE:YES;
#BPMS:0.000=155.000;
#STOPS:;
#BGCHANGES:-5.000=Believe (ONE PIECE OPENING THEME).avi=1.000=1=1=0,
99999=-nosongbg-=1.000=0=0=0 // don't automatically add -songbackground-
;

//---------------dance-single - ----------------
#NOTES:
     dance-single:
     :
     Easy:
     3:
     0.191,0.281,0.161,0.036,0.000:
0000
0000
0000
0000
,
0000
0000
0000
0000
,
0000
0000
0000
0000
,
0000
0000
0000
0000
,
0001
0000
0000
0000
,
0000
0000
0000
0000
,
1000
0000
0000
0000
0000
0000
0000
1000
,
0000
0000
1001
1001
,
1000
0000
0001
0000
,
1000
0000
1000
0000
,
0001
0000
1000
0000
,
0001
0000
0001
0000
,
0100
0000
0010
0000
,
0100
0000
0100
0000
,
0010
0000
0100
0000
,
0010
0000
0010
0000
,
0220
0000
0000
0330
,
2002
0000
0000
3003
,
0100
0000
1000
0000
,
0100
0000
1000
0000
,
0100
0000
0000
0000
,
1001
0000
1001
0000
,
0010
0000
0010
0000
,
0001
0000
0001
0000
,
0010
0000
0010
0000
,
0001
0000
0001
0000
,
1000
0000
1000
0000
,
0001
0000
0001
0000
,
1000
0000
0001
0000
,
1000
0000
0010
0000
,
1001
0000
0001
0000
,
1000
0000
0001
0000
,
1000
0000
1000
0000
,
0100
0000
0010
0000
,
0100
0000
0010
0000
,
0001
0000
0001
0000
,
1000
0000
0001
0000
,
1000
0000
0000
0000
,
1001
0000
0010
0000
,
0001
0000
1000
0000
,
0100
0000
1000
0000
,
0010
0000
1000
0000
,
1001
0000
1000
0000
,
0100
0000
1000
0000
,
0001
0000
0100
0000
,
0010
0000
0010
0000
,
1001
0000
0001
0000
,
0010
0000
0001
0000
,
1000
0001
1000
0000
,
1000
0000
1000
0000
,
1001
0000
0010
0000
,
0001
0000
1000
0000
,
0010
0000
1000
0000
,
0001
0000
0100
0000
,
1001
0000
1000
0000
,
0100
0000
1000
0000
,
0001
0000
0100
0000
,
0010
0000
0100
0000
,
1001
0000
0001
0000
,
0100
0000
0001
0000
,
1000
0000
0100
0000
,
1000
0000
1000
0000
,
1001
0000
1000
0000
,
0010
0000
1000
0000
,
0001
0000
0010
0000
,
0010
0000
0000
0000
,
1001
0000
0001
0000
,
0001
0000
1000
0000
,
1000
0010
1000
0000
,
1001
0000
0000
0000
0101
0000
0000
1001
;

//---------------dance-single - ----------------
#NOTES:
     dance-single:
     :
     Hard:
     8:
     0.531,0.532,0.358,0.027,0.009: // measure 1
0000
0000
0000
0000
,  // measure 2
0000
0000
0000
0000
,  // measure 3
0000
0000
0000
0000
,  // measure 4
0000
0000
0000
0000
,  // measure 5
1000
0000
1000
0000
0001
0100
0000
0200
,  // measure 6
0000
0000
0001
0301
,  // measure 7
0001
0000
0001
0000
1000
0010
0000
0220
,  // measure 8
0000
0330
0110
0110
,  // measure 9
1001
0000
0001
0000
0001
0100
0000
0100
,  // measure 10
0000
0100
0010
0000
1000
0001
1000
0000
,  // measure 11
1001
0000
1000
0000
1000
0010
0000
0010
,  // measure 12
0000
0010
0100
0000
0001
1000
0001
0000
,  // measure 13
1001
0000
0001
0000
0001
0100
0000
0100
,  // measure 14
0000
0100
0010
0000
1000
0001
1000
0000
,  // measure 15
1001
0000
1000
0000
1000
0010
0000
0010
,  // measure 16
0000
0010
0100
0000
0001
1000
0001
0000
,  // measure 17
1000
1000
1000
0010
0100
0001
0000
0000
,  // measure 18
0001
0010
0001
0100
0010
1001
0000
0000
,  // measure 19
0011
0000
0010
1000
0001
0000
0001
0100
,  // measure 20
0001
0000
0001
1000
0001
0000
0001
1000
,  // measure 21
0100
0010
0001
0010
1000
0001
1000
0000
,  // measure 22
1100
0000
0000
0000
1001
0000
0000
0000
1001
0000
0000
1001
0000
0000
1001
0000
,  // measure 23
0000
0000
0010
0001
0010
0000
0010
0000
,  // measure 24
0001
1000
0101
1001
,  // measure 25
0100
0000
0100
1000
0100
0000
0100
0000
,  // measure 26
1000
0000
0001
0000
0001
1000
0001
1000
,  // measure 27
0001
0000
0100
0001
0100
0000
0100
0000
,  // measure 28
0001
1000
1100
1001
,  // measure 29
0010
0000
0010
1000
0010
0000
0010
0000
,  // measure 30
1000
0001
0011
1001
,  // measure 31
0001
0100
0010
0100
0000
0001
0000
1000
,  // measure 32
0010
0100
0010
0000
1000
0010
0100
0001
,  // measure 33
0000
0001
0100
0010
0000
1000
0010
0100
,  // measure 34
0000
0001
0010
0100
1000
0000
1001
0000
,  // measure 35
1000
0010
0100
0010
1000
0000
0001
0000
,  // measure 36
0100
0010
0100
0001
1000
0000
1000
0001
,  // measure 37
1000
0100
1000
0010
0100
0001
0000
1001
,  // measure 38
0000
0001
0100
0010
0000
1000
1001
0000
,  // measure 39
1100
0000
0100
0001
1000
0000
1000
0100
,  // measure 40
1000
0000
0100
1000
0001
0000
0001
0010
,  // measure 41
0001
0000
0100
0010
0100
0010
0100
0001
,  // measure 42
1000
1000
0001
0011
,  // measure 43
1001
0000
0010
1000
0001
0000
0001
0100
,  // measure 44
0001
0000
0100
0001
1000
0000
1000
0010
,  // measure 45
1000
0010
0100
0010
0100
0010
1000
0001
,  // measure 46
0010
0100
1000
0100
0000
1000
0001
0000
,  // measure 47
1001
0000
0100
0001
1000
0000
1000
0010
,  // measure 48
1000
0000
1000
0001
1000
0000
1000
0100
,  // measure 49
1000
0001
0010
0100
1000
0010
0000
0000
,  // measure 50
1100
1100
0011
0011
,  // measure 51
0010
1000
0001
0000
0001
1000
0001
0000
,  // measure 52
0100
0001
1000
0000
1000
0001
1000
0000
,  // measure 53
0010
0100
0010
0100
0010
0100
0010
1000
,  // measure 54
0001
0001
1000
1100
,  // measure 55
1001
0000
0010
0001
1000
0000
1000
0010
,  // measure 56
1000
0000
0100
1000
0001
0000
0001
0010
,  // measure 57
0001
0100
0010
0100
0010
0100
0010
1000
,  // measure 58
0001
0010
0100
1000
0010
1000
0001
0000
,  // measure 59
1000
0010
1000
0000
0010
0100
0001
0000
,  // measure 60
0001
0100
0001
0000
0100
0010
1000
0010
,  // measure 61
1000
0001
1000
0001
1000
0001
1000
0010
,  // measure 62
0001
0001
1000
1001
,  // measure 63
0001
0100
0001
0000
0100
0010
1000
0000
,  // measure 64
1000
0010
1000
0000
0010
0100
0001
0100
,  // measure 65
0001
1000
0001
1000
0001
1000
0001
0100
,  // measure 66
1000
0000
0100
0010
0000
0001
0001
0000
,  // measure 67
1001
0000
0100
1000
0010
0000
1000
0010
,  // measure 68
0001
0000
0100
0001
0010
0000
0001
0010
,  // measure 69
1000
0100
1000
0010
0100
0001
0000
0000
,  // measure 70
0011
0000
0000
0000
0011
0000
0000
0000
1001
0000
0000
1001
0000
0000
1001
0000
;

//---------------dance-single - ----------------
#NOTES:
     dance-single:
     :
     Beginner:
     2:
     0.125,0.218,0.143,0.000,0.000:
0000
0000
0000
0000
,
0000
0000
0000
0000
,
0000
0000
0000
0000
,
0000
0000
0000
0000
,
1000
0000
0000
0000
,
0000
0000
0000
0000
,
1000
0000
0000
0000
,
0000
0000
0000
0000
,
1001
0000
0000
0000
,
0000
0000
1000
0000
,
1001
0000
0000
0000
,
0000
0000
0001
0000
,
1000
0000
0000
0000
,
0000
0000
0001
0000
,
1001
0000
1000
0000
,
0001
0000
1001
0000
,
0010
0000
0000
0000
,
0010
0000
0000
0000
,
1001
0000
0000
0000
,
0000
0000
0000
0000
,
1000
0000
0000
0000
,
0000
0000
0000
0000
,
0001
0000
0000
0000
,
1000
0000
0000
0000
,
0001
0000
0000
0000
,
1000
0000
0000
0000
,
0001
0000
0000
0000
,
0100
0000
0000
0000
,
0010
0000
0000
0000
,
0100
0000
0000
0000
,
0110
0000
0000
0000
,
0001
0000
0000
0000
,
1000
0000
0000
0000
,
0001
0000
0000
0000
,
1000
0000
0000
0000
,
0010
0000
0000
0000
,
0100
0000
0000
0000
,
0010
0000
0000
0000
,
1001
0000
0000
0000
,
0100
0000
0000
0000
,
0100
0000
0000
0000
,
0100
0000
0000
0000
,
1001
0000
0000
0000
,
0010
0000
0000
0000
,
0010
0000
0000
0000
,
0010
0000
0000
0000
,
1001
0000
1000
0000
,
1000
0000
0001
0000
,
0001
0000
0001
0000
,
1001
0000
0000
0000
,
1001
0000
1000
0000
,
0001
0000
1000
0000
,
0001
0000
0100
0000
,
0010
0000
0100
0000
,
1001
0000
0000
0000
,
0001
0000
0000
0000
,
1000
0000
0000
0000
,
1000
0000
0000
0000
,
1001
0000
0010
0000
,
0001
0000
0010
0000
,
0001
0000
1000
0000
,
0001
0000
1000
0000
,
0100
0000
1000
0000
,
0100
0000
1000
0000
,
0010
0000
1000
0000
,
0010
0000
0000
0000
,
1001
0000
1000
0000
,
1000
0000
0001
0000
,
0001
0000
0001
0000
,
0110
0000
1001
0000
;

//---------------dance-single - ----------------
#NOTES:
     dance-single:
     :
     Medium:
     6:
     0.391,0.438,0.304,0.036,0.000:
0000
0000
0000
0000
,
0000
0000
0000
0000
,
0000
0000
0000
0000
,
0000
0000
0000
0000
,
0002
0000
0000
0000
,
0000
0000
1003
0000
,
2000
0000
0000
0000
0000
0000
0000
3001
,
0000
0000
0011
0011
,
1001
0000
1000
0100
,
1000
0100
1000
1000
,
0001
0010
0001
0100
,
0001
0010
0001
0001
,
1000
0010
1000
0100
,
1000
0010
0100
0100
,
1001
0000
0001
0100
,
0001
0010
0001
0001
,
0101
0000
1100
0000
,
2002
0000
0000
3003
,
1010
0000
1000
0001
1000
0000
1000
0010
,
1000
0000
0001
1000
0001
0000
0001
0100
,
0001
0010
1000
0100
,
1001
1001
1100
0000
,
1001
0000
1000
0000
,
0010
0100
0010
1000
,
0001
0000
0001
0000
,
0100
0010
1000
0001
,
1000
0000
1000
0000
,
0010
0100
0010
1000
,
0001
0000
1000
0001
1000
0000
0010
0000
,
0100
0010
1010
1000
,
1001
0001
0010
0100
,
1000
0000
0010
0000
0100
0001
0010
0001
,
0000
1000
0100
1000
0000
0001
0010
0001
,
0000
1000
0010
0000
0100
0000
0101
0000
,
1001
0000
0001
1000
,
0001
0010
0001
1000
,
0100
1000
0010
1000
,
0001
1000
0010
1000
0000
0010
0010
0000
,
1001
0100
0001
0100
,
1000
0100
0010
0001
,
0010
1000
0010
0001
,
0010
0100
1000
1100
,
1001
0010
0001
0010
,
1000
0100
0010
0001
,
0100
0000
1000
0000
0010
0100
0010
0000
,
1000
0001
1000
0001
0000
0100
0100
0000
,
1001
0000
1000
0010
1000
0000
1000
0001
,
1000
0000
0001
0100
0001
0000
0001
1000
,
0001
0010
1000
0100
,
0011
0011
1001
1001
,
0001
0010
1000
0100
,
0010
0001
0100
1000
,
0100
0001
0010
0100
,
1000
0100
0010
0011
,
1001
1000
0100
0001
,
0010
0100
1000
0010
,
0001
0010
1000
0010
,
0100
0001
0010
0100
,
1001
0000
1000
0010
1000
0000
0001
0000
,
0010
0000
0001
0000
1000
0001
1000
0001
,
1000
0010
0100
0001
,
0100
1000
0100
0011
,
1001
0000
0001
0000
0100
0001
0100
0000
,
0010
1000
0100
0010
,
0001
1000
0001
0000
0010
0001
0010
0000
,
0100
0000
1000
0010
0000
0010
0010
0000
,
1001
0000
1000
0100
1000
0000
1000
0001
,
1000
0000
0001
0010
0001
0000
0001
1000
,
0001
0010
1000
0100
,
0011
0000
0011
0000
1001
0000
0000
1001
;

//---------------dance-single - ----------------
#NOTES:
     dance-single:
     :
     Challenge:
     9:
     0.646,0.688,0.412,0.045,0.112: // measure 1
0000
0000
0000
0000
,  // measure 2
0000
0000
0000
0000
,  // measure 3
0000
0000
0000
0000
,  // measure 4
0000
0000
0000
0000
,  // measure 5
1001
0000
0001
0000
1000
0020
0000
0100
,  // measure 6
0000
0100
0100
0130
,  // measure 7
1001
0000
1000
0000
0001
0100
0000
0220
,  // measure 8
0000
0330
1010
1010
,  // measure 9
1001
0000
1001
0000
1000
0010
0100
0001
,  // measure 10
0000
0001
1000
0000
0100
0010
0001
1000
,  // measure 11
0001
0000
1001
0000
0001
0100
0010
1000
,  // measure 12
0000
1000
0001
0000
0010
0100
1000
0001
,  // measure 13
1000
0000
1001
0000
1000
0100
0010
0001
,  // measure 14
0000
0001
1000
0000
0100
0010
0001
1000
,  // measure 15
0001
0000
1001
0000
0001
0010
0100
1000
,  // measure 16
0000
1000
0001
0000
0010
0100
1000
0001
,  // measure 17
1000
0010
1000
0010
1000
0000
0001
0000
0010
0000
0001
0000
0000
0000
0000
0000
,  // measure 18
0100
0001
0100
0001
0100
0000
0001
1000
0001
1000
0001
0000
0000
0000
0000
0000
,  // measure 19
0101
0000
0000
0000
0010
1000
0010
0000
0010
0000
0100
0000
0010
1000
0010
0000
,  // measure 20
0010
0000
0100
0000
0001
0100
0001
0000
0001
0000
1000
0000
0001
0100
0001
0000
,  // measure 21
0001
1000
0100
0001
0100
0010
0100
0000
,  // measure 22
1100
0000
0000
0000
1100
0000
0000
0000
0101
0000
0000
0101
0000
0000
0101
0000
,  // measure 23
1001
0000
0010
1000
0010
0000
0010
0100
,  // measure 24
0010
1000
0001
0100
0101
0000
1001
0000
,  // measure 25
0100
0001
0100
0000
0100
0010
0100
0001
,  // measure 26
1000
0000
1000
0100
1000
0010
0100
0001
,  // measure 27
1000
0000
0010
1000
0010
0000
0010
0100
,  // measure 28
0010
1000
0001
0010
0011
0000
1001
0000
,  // measure 29
0100
0010
0100
0000
0100
0001
0100
0010
,  // measure 30
0100
0001
1000
0000
1100
0000
1001
0000
,  // measure 31
1000
0010
0100
0001
1000
0001
1000
0001
,  // measure 32
0100
0010
1000
0001
1000
0001
0010
2000
,  // measure 33
0000
3100
0010
0002
0000
0013
0100
1000
,  // measure 34
0000
1000
0010
0100
0001
0000
1001
0000
,  // measure 35
0001
0100
0001
1000
0100
0000
0100
1000
,  // measure 36
0100
1000
0001
0100
0001
0000
1000
0001
,  // measure 37
0010
0100
1000
0010
0100
0010
0000
0010
,  // measure 38
1000
0001
0010
0100
0000
1010
1001
0000
,  // measure 39
0001
0100
0010
1000
0100
0001
0100
1000
,  // measure 40
0001
1000
0010
0100
0001
0100
1000
0100
,  // measure 41
0001
1000
0100
0010
0100
1000
0001
0100
,  // measure 42
0000
0100
0001
0100
0010
1000
1100
0000
,  // measure 43
1001
0000
1000
0010
0100
0001
0010
0100
,  // measure 44
1000
0001
0010
1000
0010
0001
0010
0100
,  // measure 45
1000
0001
0010
1000
0010
0100
0001
1000
,  // measure 46
0100
1000
0010
1010
0000
0001
0001
0000
,  // measure 47
1001
0000
0000
0000
0100
0001
0100
0000
0100
0000
0010
0000
0100
0001
0100
0000
,  // measure 48
0100
0000
0010
0000
1000
0010
1000
0000
1000
0000
0100
0000
1000
0010
1000
0000
,  // measure 49
1000
0001
0010
1000
0100
0010
0000
0000
,  // measure 50
0011
0011
1100
1100
,  // measure 51
1000
0100
0010
0001
0010
1000
0010
0001
,  // measure 52
1000
0001
0010
0100
1000
0100
0001
0100
,  // measure 53
1000
0001
0010
0100
0010
0001
1000
0010
,  // measure 54
0000
0010
1000
0010
0100
0001
0011
0000
,  // measure 55
1001
0000
0001
0100
0010
1000
0100
0010
,  // measure 56
0001
0010
1000
0010
0001
1000
0100
0010
,  // measure 57
0001
0010
0100
0010
0001
0010
1000
0001
,  // measure 58
0010
0100
1000
0001
0100
0001
0100
0000
,  // measure 59
0001
0010
0100
1000
0100
0001
0100
1000
,  // measure 60
0001
1000
0100
0010
0001
0010
1000
0010
,  // measure 61
0001
1000
0100
0010
0100
1000
0001
0100
,  // measure 62
0000
0100
0001
0100
0010
1000
1010
0000
,  // measure 63
1001
0000
1100
0000
1000
0100
1000
0001
,  // measure 64
1000
0100
0001
0100
1000
0010
0100
0001
,  // measure 65
0010
0100
0010
0001
1000
0100
0001
0100
,  // measure 66
1000
0010
0100
0101
0000
1000
1000
0000
,  // measure 67
1001
0000
0000
0000
0100
1000
0100
1000
0100
0000
0000
0000
0010
0001
0010
0001
,  // measure 68
0010
0000
0000
0000
0001
1000
0001
1000
0001
0000
0000
0000
1000
0100
1000
0100
,  // measure 69
1000
0000
0001
0100
0001
0000
0100
0000
0010
0000
1000
0000
0000
0000
0000
0000
,  // measure 70
1010
0000
0000
0000
1010
0000
0000
0000
0011
0000
0000
0011
0000
0000
1001
0000
;
