#TITLE:BRIDAL FESTIVAL !!!;
#SUBTITLE:;
#ARTIST:S.S.D. with ななっち;
#TITLETRANSLIT:;
#SUBTITLETRANSLIT:;
#ARTISTTRANSLIT:S.S.D. with NANACCHI;
#CREDIT:DMAxel;
#BANNER:BRIDAL FESTIVAL !!!.png;
#BACKGROUND:BRIDAL FESTIVAL !!!-bg.png;
#LYRICSPATH:;
#CDTITLE:beatmaniaIIDX.png;
#MUSIC:BRIDAL FESTIVAL !!!.mp3;
#OFFSET:3.060;
#SAMPLESTART:7.320;
#SAMPLELENGTH:12.000;
#SELECTABLE:YES;
#BPMS:0.000=138.000;
#STOPS:;
#BGCHANGES:3.000=BRIDAL FESTIVAL !!!.AVI=1.000=1=0=1,
99999=-nosongbg-=1.000=0=0=0 // don't automatically add -songbackground-
;

//---------------dance-single - ----------------
#NOTES:
     dance-single:
     :
     Easy:
     3:
     0.225,0.318,0.142,0.126,0.000:
0000
0000
0000
0000
,
0000
0000
0000
0000
,
0000
0000
0000
0000
,
0000
0000
0000
0000
,
0000
0000
0000
0000
,
0000
0000
0000
0000
,
0010
0000
0010
0000
,
0100
0000
0100
0000
,
1001
0000
0001
0000
,
1000
0000
1000
0000
,
0010
0100
0010
0000
,
1000
0001
1000
0000
,
0001
0010
0001
0000
,
1000
0100
1000
0010
,
1001
0000
0100
0010
,
0100
0000
0001
0000
,
1001
0000
1000
0001
,
1000
0000
0010
0000
,
0101
0000
1000
0010
,
1000
0000
0001
0000
,
1010
0000
0100
0001
,
0100
0000
0010
0000
,
2000
0000
0000
0000
,
3002
0000
0000
0000
,
2003
0000
0000
0000
,
3002
0000
0000
0000
,
0103
0100
0100
0000
,
0010
0010
0010
0000
,
1000
1000
1000
0000
,
0001
0010
0100
1000
,
1001
0001
0001
0100
,
0100
0100
0010
0000
,
1000
1000
1000
0100
,
0100
0100
0010
0000
,
0001
0001
0001
0100
,
0100
0010
1000
0000
,
0010
0010
0100
0001
,
0010
1000
0100
0000
,
1001
0000
0010
0000
,
0100
0000
0001
0000
,
1000
0000
0010
0000
,
1000
0000
0001
0000
,
1001
0000
0100
0000
,
0001
0000
0010
0000
,
1001
0000
0100
0000
,
1000
0000
0010
0000
,
0200
0000
0000
0000
,
0320
0000
0000
0030
,
1002
0000
0000
0000
,
2003
0000
0000
3000
,
1002
0000
1000
0000
,
2003
0000
0000
0000
,
0002
0000
0000
0000
,
3003
0000
0000
0000
,
0010
0010
0100
0001
,
0010
0010
0001
1000
,
0100
0100
1000
0100
,
0010
0010
0001
0001
,
1001
0010
0100
0010
,
1000
0010
0100
0001
,
1001
0000
0100
0000
,
0001
0100
1000
0010
,
2001
0000
0000
0000
,
3020
0000
0000
0000
,
0230
0000
0000
0000
,
0301
0010
1000
0100
,
1001
0001
0001
0000
,
1001
1000
1000
0000
,
0020
0000
0130
0000
,
1001
0000
0000
0000
;

//---------------dance-single - ----------------
#NOTES:
     dance-single:
     :
     Challenge:
     9:
     0.598,0.578,0.318,0.092,0.854:
0000
0000
0000
0000
,
0000
0000
0000
0000
,
0000
0000
0000
0000
,
0000
0000
0000
0000
,
0000
0000
0000
0000
,
1000
0100
0001
0010
,
1001
0000
0001
0010
0000
0010
0100
0000
1000
0100
0010
0001
,
0100
0000
0000
0010
0000
0000
0100
0000
0001
0010
0100
1000
,
0010
0000
0000
0100
0000
0000
0010
0000
1000
0010
0100
0001
,
0010
0000
0010
0001
0000
0001
1000
0000
0000
0010
0000
0000
,
1001
0000
1000
0100
0000
0100
0010
0000
0001
0010
0100
1000
,
0100
0000
0100
1000
0000
1000
0001
0000
0001
0010
0000
1000
,
0001
0000
0001
0100
0010
0100
0001
0000
1000
0010
0000
0001
,
1000
0000
1000
0010
0100
0010
1000
0000
0000
0001
0000
0010
,
0001
0000
0001
0010
0000
0010
0100
0000
1000
0100
0010
0001
,
0100
0000
0100
0010
0000
0010
1000
0000
0001
0001
0000
0000
,
1001
0000
1000
0100
0000
0100
0010
0000
0010
0001
0010
0100
,
1000
0000
1000
0010
0100
0010
1000
0000
0001
0001
0000
0000
,
1001
0000
0010
0100
0000
0100
0010
0000
0010
1000
0010
0100
,
0001
0000
0001
1000
0000
1000
0001
0000
1000
1000
0000
0000
,
1001
0000
0100
0001
0000
0001
1000
0000
1000
0001
0100
0010
,
1000
0000
1000
0010
0100
0010
0100
0000
0000
0010
0000
0000
,
1200
0000
1000
0000
0000
1000
1000
0000
1000
1300
0000
0000
,
0021
0000
0001
0000
0000
0001
0001
0000
0001
0031
0000
0000
,
1020
0000
1000
0000
0000
1000
1000
0000
1000
1030
0000
0000
,
0201
0000
0001
0000
0000
0001
0001
0000
0001
0301
0000
0000
,
1100
0000
0001
0010
0000
0100
0100
0000
0000
0000
0000
0000
,
0011
0000
1000
0100
0000
0010
0010
0000
0000
0000
0000
0000
,
1001
0000
0001
0100
0000
0010
0010
0000
0000
0000
0000
0000
,
1000
0100
0010
0001
,
1001
0000
0010
0001
0000
0010
0001
0000
0000
0100
0000
1000
,
0100
0000
1000
0100
0000
1000
0010
0000
0000
0100
0000
0001
,
0100
0000
0001
0100
0000
0100
0010
0000
0000
0100
0000
0010
,
1000
0010
0100
0010
0000
0100
0010
0000
0000
1000
0000
0100
,
0001
0000
0100
0001
0000
0001
0010
0000
0000
0001
0000
0010
,
1000
0000
0010
1000
0000
1000
0100
0000
0000
1000
0000
0010
,
0100
0000
0010
0100
0000
0100
0001
0000
0000
0010
0000
0001
,
0010
0001
0100
0010
0000
0100
0010
1000
0001
1000
0000
0000
,
1002
0000
0000
0010
0000
0010
0013
0000
0000
0100
0000
0001
,
2000
0000
0000
0100
0000
0100
3100
0000
0010
0010
0000
0000
,
1002
0000
0000
0100
0000
0100
0103
0000
0000
0010
0000
1000
,
0002
0000
0000
0010
0000
0010
0013
0000
0100
0100
0000
0000
,
1001
0000
0010
0010
0000
0100
0100
0000
1000
1000
0100
0010
,
0001
0000
0100
0100
0000
0010
0010
0000
1000
1000
0000
0000
,
1001
0000
0100
0100
0000
0010
0010
0000
0001
0001
0010
0100
,
1000
0000
0010
0100
0010
0100
0010
0000
0000
1001
0000
1000
,
0100
0000
0100
1000
0000
0010
1000
0000
1000
0100
0010
0001
,
0100
0000
0001
0010
0000
0010
0001
0000
0100
0001
0000
0000
,
1001
0000
0010
1000
0000
1000
0010
0000
0100
0010
0100
0001
,
0010
0000
0001
0010
0100
1000
0100
0000
1000
0001
0000
0000
,
1001
0000
0000
0000
0000
0001
1000
0100
1000
0100
0000
0000
,
1100
0000
0000
0110
0000
0000
0011
0000
1000
0001
0010
0001
,
0020
0000
0000
0000
0000
0000
0031
0000
0001
0100
0000
0010
,
1000
0000
0000
0100
0000
0001
1000
0001
1000
0001
0010
0100
,
1000
0000
0010
1000
0000
1000
0100
0000
0000
1001
0000
0001
,
0010
0000
0010
0100
0000
0100
1000
0000
0000
1001
0000
0100
,
0001
0000
0001
0010
0000
0001
0010
0000
0000
0100
0000
1000
,
0010
0000
0010
0100
0000
0100
0001
0000
0000
0001
0010
0100
,
1001
0000
1000
0010
0000
1000
0010
0000
0000
1001
0000
0001
,
0100
0000
0100
0010
0000
0010
1000
0000
0000
1001
0000
0100
,
0001
0000
0001
0010
0000
0010
0100
0000
0000
1000
0000
0100
,
0001
0000
0000
0110
0000
0000
1001
0000
0000
1000
0010
0100
,
1001
0000
0000
0001
0000
0001
1000
0000
0000
0001
0000
0001
,
1000
0000
0000
1000
0000
1000
0001
0000
0000
0001
0000
0001
,
1000
0000
0010
0100
0000
0010
0100
0000
0000
0010
0000
0000
,
0011
0000
0000
0110
0000
0000
1100
0000
0000
0001
0100
0010
,
1002
0000
0100
0100
0000
0100
0100
0000
0000
0013
0000
0000
,
2001
0000
0010
0010
0000
0010
0010
0000
0000
3100
0000
0000
,
0011
0000
0000
0000
0000
0100
0010
1000
0100
1000
0000
0001
,
1001
0000
0000
0000
;

//---------------dance-single - ----------------
#NOTES:
     dance-single:
     :
     Hard:
     8:
     0.462,0.520,0.243,0.327,0.419:
0000
0000
0000
0000
,
0000
0000
0000
0000
,
0000
0000
0000
0000
,
0000
0000
0000
0000
,
0000
0000
0000
0000
,
1000
0010
0001
0100
,
2000
0000
0000
0010
0000
0000
3010
0000
0000
0100
0000
0100
,
0002
0000
0000
0100
0000
0000
0000
0000
0000
0103
0000
0100
,
0020
0000
0000
1000
0000
0000
0000
0000
0000
1030
0000
1000
,
0200
1000
0000
1300
,
0001
0000
0000
1001
0000
0000
0100
0000
0000
0010
0000
0001
,
2000
0000
0000
0010
0000
0000
0000
0000
0000
3010
0000
0010
,
0200
0000
0000
0001
0000
0000
0000
0000
0000
0301
0000
0001
,
0020
0000
0000
0001
0000
0000
0000
0000
0000
0031
0000
0001
,
0100
0000
0000
0010
0000
1000
0100
0000
0010
0001
0000
0001
,
0100
0000
0000
0010
0000
1000
0100
0000
1000
1000
0000
0000
,
0001
0000
1000
0100
0000
0010
0001
0000
0001
0100
0000
0000
,
0010
0000
1000
0010
0000
0100
0001
0000
0010
0010
0000
0000
,
1001
0000
0001
0100
0000
0010
1000
0000
1000
0010
0000
0000
,
0100
0000
0001
0010
0000
0100
1000
0000
0010
0010
0000
0000
,
1001
0000
0001
0010
0000
0100
1000
0000
1000
0010
0000
0000
,
0100
0000
0001
0100
0000
0100
0010
0000
0000
0000
0000
0000
,
0022
0000
0000
0033
,
2200
0000
0000
3300
,
0202
0000
0000
0303
,
2020
0000
0000
3030
,
0011
0000
0001
0100
0000
1000
0010
0000
0000
0000
0000
0000
,
1100
0000
1000
0010
0000
0001
0100
0000
0000
0000
0000
0000
,
0101
0000
0001
0100
0000
1000
0010
0000
0000
0000
0000
0000
,
1000
0100
0010
0001
,
1001
0000
0100
1000
0000
0100
1000
0000
0000
0010
0000
0001
,
0010
0000
0001
0010
0000
0001
0200
0000
0000
0000
0000
0000
,
0310
0000
1000
0010
0000
0010
0100
0000
0000
0010
0000
0100
,
0001
0100
0010
0100
0000
0010
0100
0000
0000
0001
0000
0010
,
1000
0000
0010
1000
0000
1000
0100
0000
0000
1000
0000
0100
,
0001
0000
0100
0001
0000
0001
0020
0000
0000
0000
0000
0000
,
0031
0000
0100
0010
0000
0010
1000
0000
0000
0100
0000
1000
,
0010
0100
0010
0100
0000
0001
0100
0010
0100
0010
0000
0000
,
2001
0000
0010
3010
,
1002
0000
0100
0103
,
0120
0000
1000
1030
,
0210
0000
0001
0301
,
1002
0000
0010
0013
,
2001
0000
0100
3100
,
0210
0000
1000
1300
,
0120
0000
0001
0031
,
0100
0000
0000
1000
0000
0010
1000
0000
0000
0001
0000
0100
,
0001
0000
0000
1000
0000
0001
0010
0000
0001
0010
0000
0000
,
0001
0000
0000
0010
0000
0000
0100
0000
0000
1000
0000
0010
,
1000
0000
0000
0010
0000
0100
0001
0000
0010
0100
0000
0000
,
2001
0000
0001
3000
,
0002
0023
0230
2300
,
0002
0000
0000
3003
,
0001
0010
1000
0100
,
1001
0000
0100
0001
0000
0001
0010
0000
0000
1001
0000
1000
,
0100
0000
0100
0010
0000
0010
0001
0000
0000
1001
0000
0010
,
1000
0000
1000
0100
0000
1000
0100
0000
0000
0010
0000
0001
,
0200
0000
0000
0320
0000
0000
2030
0000
0000
3010
0100
0010
,
0100
0000
0001
0100
0000
0001
0100
0000
0000
1001
0000
1000
,
0010
0000
0010
0100
0000
0100
0001
0000
0000
1001
0000
0100
,
0001
0000
0001
0010
0000
0001
0010
0000
0000
0001
0000
0100
,
0020
0000
0000
2030
0000
0000
3020
0000
0000
1030
0001
1000
,
0002
0000
0013
0100
,
2000
0000
3100
0010
,
0001
1000
0001
1000
,
1010
0000
0000
1010
0000
0000
1001
0000
0000
0100
0010
0100
,
0010
0000
1000
0010
0000
1000
0010
0000
0000
0100
0000
0010
,
0100
0000
0001
0100
0000
0001
0100
0000
0000
0010
0000
0100
,
0010
0000
1000
0010
0000
1000
0010
0000
0100
0010
0000
0000
,
1001
0000
0000
0000
;

//---------------dance-single - ----------------
#NOTES:
     dance-single:
     :
     Medium:
     6:
     0.389,0.491,0.301,0.167,0.234:
0000
0000
0000
0000
,
0000
0000
0000
0000
,
0000
0000
0000
0000
,
0000
0000
0000
0000
,
0000
0000
0000
0000
,
0001
0001
1000
1000
,
1001
0010
0100
0001
,
0001
0100
0100
0010
,
1001
0100
0010
0100
,
0001
1000
1000
0010
,
1001
0100
0010
1000
,
0100
0001
0001
0100
,
1001
0010
0010
1000
,
0010
0001
0001
0100
,
1001
0000
0000
0100
0000
1000
0010
0000
1000
0010
0000
0000
,
0100
0000
0001
0100
0000
0001
0100
0000
0010
0100
0000
0000
,
1001
0000
0010
0001
0000
0010
0001
0000
0000
0010
0000
0100
,
1000
0000
0100
1000
0000
0000
0010
0000
0100
0010
0000
0000
,
1001
0000
0100
1000
0000
0100
1000
0000
0000
0100
0000
0010
,
0001
0000
0010
0001
0000
0000
0100
0000
0010
0100
0000
0000
,
1001
0000
0100
0001
0000
0100
0001
0000
0000
0100
0000
0010
,
1000
0000
0010
1000
0000
0000
0010
0000
0000
0100
0000
0000
,
0002
0000
0000
0000
,
0023
0000
0000
0000
,
0230
0000
0000
0000
,
2300
0000
0000
0000
,
3010
0000
0100
0010
0000
0000
1001
0000
0000
0000
0000
0000
,
0100
0000
0010
0100
0000
0000
1001
0000
0000
0000
0000
0000
,
0010
0000
0100
0010
0000
0000
1001
0000
0000
0000
0000
0000
,
1000
0100
0010
0001
,
1001
0000
0100
1000
0000
0100
1000
0000
0000
0010
0000
0100
,
0010
0000
0100
0010
0000
0000
1001
0000
0000
0000
0000
0000
,
0001
0000
0010
0001
0000
0010
0001
0000
0000
0100
0000
0010
,
0100
0000
0010
0100
0000
0000
1001
0000
0000
0000
0000
0000
,
1000
0000
0010
1000
0000
0010
1000
0000
0000
0010
0000
0100
,
0010
0000
0100
0010
0000
0000
1001
0000
0000
0000
0000
0000
,
0001
0000
0100
0001
0000
0100
0001
0000
0000
0100
0000
0010
,
0100
1001
0110
0110
,
2000
0000
3010
0100
,
0002
0000
0103
0010
,
2000
0000
3100
0010
,
0002
0000
0013
0100
,
1001
0001
1000
0010
,
1001
1000
0001
0010
,
1001
0001
1000
0010
,
1001
1000
0001
0100
,
1001
0010
0100
1000
,
0100
0010
0001
0000
,
1000
0100
0010
0001
,
0010
0100
1000
0001
,
2001
0000
3020
0000
,
2030
3200
0320
0032
,
2000
0000
0000
0000
,
3003
0000
0000
0000
,
0100
0000
0100
0010
0000
0100
0010
0000
0000
1000
0000
1000
,
0001
0000
0001
0100
0000
0001
0100
0000
0000
0001
0000
0001
,
1000
0000
1000
0010
0000
1000
0010
0000
0000
0100
0000
0000
,
1010
1010
0101
0101
,
1000
0000
0010
1000
0000
0010
1000
0000
0000
0001
0000
0001
,
1000
0000
0100
1000
0000
0100
1000
0000
0000
0100
0000
0000
,
1001
0000
0010
0001
0000
0010
0001
0000
0000
0010
0000
0001
,
0100
0000
0000
0110
0000
0000
1001
0000
0000
0110
0000
1000
,
0002
0000
0000
0000
,
0203
0000
0000
0300
,
0120
0000
0000
0000
,
1030
0100
0001
0010
,
2001
0010
0010
3000
,
1002
0100
0100
0003
,
1100
0000
0000
1000
0000
1000
0001
0000
0000
0000
0000
0001
,
1000
0000
0000
0000
;

//---------------dance-single - ----------------
#NOTES:
     dance-single:
     :
     Beginner:
     2:
     0.096,0.202,0.084,0.000,0.000:
0000
0000
0000
0000
,
0000
0000
0000
0000
,
0000
0000
0000
0000
,
0000
0000
0000
0000
,
0000
0000
0000
0000
,
0000
0000
0000
0000
,
1000
0000
0000
0000
,
0000
0000
0000
0000
,
0001
0000
0000
0000
,
1000
0000
0000
0000
,
0010
0000
0000
0000
,
0000
0000
0000
0000
,
1000
0000
0000
0000
,
0001
0000
0000
0000
,
0100
0000
0000
0000
,
0100
0000
0000
0000
,
0010
0000
0000
0000
,
0010
0000
0000
0000
,
1000
0000
0000
0000
,
1000
0000
0000
0000
,
0001
0000
0000
0000
,
0100
0000
0000
0000
,
1001
0000
0000
0000
,
0000
0000
0000
0000
,
0010
0000
0000
0000
,
0000
0000
0000
0000
,
0010
0000
1001
0000
,
0100
0000
1001
0000
,
0010
0000
1001
0000
,
0100
0000
0000
0000
,
0100
0000
0000
0000
,
0010
0000
0000
0000
,
1000
0000
0000
0000
,
1000
0000
0000
0000
,
0001
0000
0000
0000
,
0001
0000
0000
0000
,
0100
0000
0000
0000
,
0001
0000
0000
0000
,
1000
0000
0000
0000
,
0010
0000
0000
0000
,
1000
0000
0000
0000
,
0001
0000
0000
0000
,
0010
0000
0000
0000
,
0001
0000
0000
0000
,
1000
0000
0000
0000
,
0100
0000
0000
0000
,
1001
0000
0000
0000
,
0010
0000
0000
0000
,
0010
0000
0000
0000
,
0100
0000
0000
0000
,
1001
0000
0000
0000
,
0000
0000
0000
0000
,
1000
0000
0000
0000
,
0001
0000
0000
0000
,
1000
0000
1000
0000
,
0001
0000
0001
0000
,
1000
0000
1000
0000
,
0001
0000
0001
0000
,
0100
0000
0100
0000
,
0010
0000
0010
0000
,
1000
0000
1000
0000
,
0100
0000
0100
0000
,
0010
0000
0000
0000
,
0001
0000
0000
0000
,
1000
0000
0000
0000
,
0001
0000
0000
0000
,
1001
0000
0000
0000
,
0110
0000
0000
0000
,
1001
0000
0000
0000
,
1001
0000
0000
0000
;

//---------------dance-double - ----------------
#NOTES:
     dance-double:
     :
     Easy:
     3:
     0.250,0.347,0.260,0.033,0.000: // measure 1
00000000
00000000
00000000
00000000
,  // measure 2
00000000
00000000
00000000
00000000
,  // measure 3
00000000
00000000
00000000
00000000
,  // measure 4
00000000
00000000
00000000
00000000
,  // measure 5
00000000
00000000
00000000
00000000
,  // measure 6
00000000
00000000
00000000
00000000
,  // measure 7
00100000
00000000
00100000
00000000
,  // measure 8
01000000
00000000
01000000
00000000
,  // measure 9
10010000
00000000
00010000
00000000
,  // measure 10
10000000
00000000
10000000
00000000
,  // measure 11
01000000
00100000
00010000
00000000
,  // measure 12
00001000
00000100
00000010
00000001
,  // measure 13
00000001
00001000
00000001
00001000
,  // measure 14
00001000
00000001
00001000
00000100
,  // measure 15
00001001
00000010
00000100
00001000
,  // measure 16
00010000
00100000
01000000
10000000
,  // measure 17
10010000
01000000
00100000
00010000
,  // measure 18
00001000
00000100
00000010
00000001
,  // measure 19
00001001
00000010
00000100
00001000
,  // measure 20
00010000
00100000
01000000
10000000
,  // measure 21
10010000
01000000
00100000
00010000
,  // measure 22
00001000
00000100
00000010
00000001
,  // measure 23
00000011
00000000
00000000
00000000
,  // measure 24
00000100
00000000
00000000
00000000
,  // measure 25
00001000
00000000
00000000
00000000
,  // measure 26
00010000
00000000
00000000
00000000
,  // measure 27
00100000
00100000
01100000
00000000
,  // measure 28
01000000
01000000
01100000
00000000
,  // measure 29
10000000
10000000
10010000
00000000
,  // measure 30
10000000
01000000
00100000
00010000
,  // measure 31
00011000
00001000
00001000
00000010
,  // measure 32
00000010
00000010
00000110
00000000
,  // measure 33
00001001
00000001
00000001
00000010
,  // measure 34
00000010
00000010
00000110
00000000
,  // measure 35
00011000
00001000
00001000
00010000
,  // measure 36
00010000
00100000
01100000
00000000
,  // measure 37
10010000
10000000
01000000
00100000
,  // measure 38
00010000
00100000
01100000
00000000
,  // measure 39
10010000
00000000
00100000
00000000
,  // measure 40
01000000
00000000
00010000
00000000
,  // measure 41
10010000
00000000
00001000
00000000
,  // measure 42
00010000
00000000
00000100
00000000
,  // measure 43
00001001
00000000
00000001
00000000
,  // measure 44
00000010
00000000
00000001
00000000
,  // measure 45
00001000
00000000
00000100
00000000
,  // measure 46
00001000
00000000
00000000
00000000
,  // measure 47
00000002
00000000
00000000
00000000
,  // measure 48
00002003
00000000
00000000
00003000
,  // measure 49
00020000
00000000
00000000
00000000
,  // measure 50
00032000
00000000
00000000
00003000
,  // measure 51
00010000
00000000
10000000
00000000
,  // measure 52
00100000
00100000
00100000
00000000
,  // measure 53
10010000
00000000
00000000
00000000
,  // measure 54
11000000
00000000
00000000
00000000
,  // measure 55
10000000
01000000
00100000
00010000
,  // measure 56
00001000
00000100
00000010
00000001
,  // measure 57
00000010
00000010
00000010
00000001
,  // measure 58
00000010
00000100
00001000
00010000
,  // measure 59
00011000
00100000
01000000
10000000
,  // measure 60
01000000
00100000
00010000
00001000
,  // measure 61
00000100
00000010
00000001
00001000
,  // measure 62
00000010
00000010
00000010
00000010
,  // measure 63
00000110
00000000
00000000
00000000
,  // measure 64
00001000
00000000
00000000
00000000
,  // measure 65
00011000
00000000
00000000
00000000
,  // measure 66
00100000
00100000
00100000
00100000
,  // measure 67
01100000
10000000
10010000
00000000
,  // measure 68
01100000
00010000
10010000
00000000
,  // measure 69
00011000
00000000
00001000
00000000
,  // measure 70
00001001
00000000
00000000
00000000
;
