#TITLE:BIG-BANG STARS;
#SUBTITLE:;
#ARTIST:co-ping;
#TITLETRANSLIT:;
#SUBTITLETRANSLIT:;
#ARTISTTRANSLIT:;
#CREDIT:DMAxel;
#BANNER:BIG-BANG STARS.png;
#BACKGROUND:BIG-BANG STARS-bg.png;
#LYRICSPATH:;
#CDTITLE:pop'n music.png;
#MUSIC:BIG-BANG STARS.mp3;
#OFFSET:-8.060;
#SAMPLESTART:40.200;
#SAMPLELENGTH:12.000;
#SELECTABLE:YES;
#BPMS:0.000=125.000;
#STOPS:;
#BGCHANGES:;

//---------------dance-single - ----------------
#NOTES:
     dance-single:
     :
     Easy:
     3:
     0.187,0.275,0.152,0.063,0.000: // measure 1
0002
0010
0000
0000
,  // measure 2
2003
0100
0000
0000
,  // measure 3
3002
0010
0000
0000
,  // measure 4
2003
0100
0000
0000
,  // measure 5
3001
0000
0010
0000
,  // measure 6
0100
0000
1000
0000
,  // measure 7
0001
1001
0000
1001
,  // measure 8
0000
0000
0000
0000
,  // measure 9
2000
0000
0000
3010
,  // measure 10
0000
0000
0100
0100
,  // measure 11
0000
0001
1000
0001
,  // measure 12
0000
0000
0010
0010
,  // measure 13
0000
0001
0010
0100
,  // measure 14
1000
0000
1000
0001
,  // measure 15
1000
0010
0000
0010
,  // measure 16
0100
0010
0100
0010
,  // measure 17
0000
1000
0000
0001
,  // measure 18
1001
0000
1000
0010
,  // measure 19
0000
0100
0001
0100
,  // measure 20
0000
0000
0010
0100
,  // measure 21
0000
0001
1000
0001
,  // measure 22
0000
0000
1000
0100
,  // measure 23
0000
1000
0001
1000
,  // measure 24
0000
0000
0001
0010
,  // measure 25
0010
0010
0000
1001
,  // measure 26
0000
0000
0000
0110
,  // measure 27
0000
0000
0000
1001
,  // measure 28
0000
0000
0000
0001
,  // measure 29
0000
0000
0000
1001
,  // measure 30
0000
1000
0000
1001
,  // measure 31
0000
0001
0000
0110
,  // measure 32
0000
1000
0000
0110
,  // measure 33
0000
0000
0000
1001
,  // measure 34
0000
1000
0000
1000
,  // measure 35
0000
0100
0000
0100
,  // measure 36
0000
0010
0000
0010
,  // measure 37
0000
0000
0000
0000
,  // measure 38
0002
0000
0000
0000
,  // measure 39
1003
0000
0000
0001
,  // measure 40
1000
0001
1000
0001
,  // measure 41
0010
0001
0010
0001
,  // measure 42
1000
0001
1000
0100
,  // measure 43
1000
0100
1000
0001
,  // measure 44
1000
0001
1000
0010
,  // measure 45
1000
0010
1000
0001
,  // measure 46
1000
0001
1000
0001
,  // measure 47
0100
0001
0100
0000
,  // measure 48
0000
0010
0110
0000
,  // measure 49
1001
0000
0110
0000
,  // measure 50
0110
0010
1010
0100
,  // measure 51
0101
2000
0000
0000
,  // measure 52
0000
3001
0000
0000
;

//---------------dance-single - ----------------
#NOTES:
     dance-single:
     :
     Medium:
     5:
     0.330,0.413,0.412,0.143,0.013: // measure 1
1000
1100
0010
0001
,  // measure 2
1000
0011
0100
1000
,  // measure 3
0001
1100
0010
0001
,  // measure 4
1000
0011
0100
1000
,  // measure 5
0001
1000
0001
0000
1000
0001
1000
0000
,  // measure 6
0001
1000
0001
0000
1000
0001
1000
0000
,  // measure 7
0010
0100
0010
0000
0100
0010
0100
0000
,  // measure 8
0010
0100
0010
0000
0000
0000
0010
0000
,  // measure 9
0220
0000
0330
1002
,  // measure 10
0010
0000
0013
0100
,  // measure 11
0000
0000
1000
0000
0001
1000
0001
0000
,  // measure 12
0001
0001
1000
0100
,  // measure 13
1000
0001
0010
2001
,  // measure 14
0100
0000
3100
0010
,  // measure 15
0000
0000
0001
0000
1000
0001
1000
0000
,  // measure 16
1000
1000
0001
0010
,  // measure 17
0001
1000
0010
1002
,  // measure 18
0100
0000
0103
0010
,  // measure 19
0000
0000
1000
0000
0001
1000
0001
0000
,  // measure 20
0001
0001
1000
0010
,  // measure 21
1000
0001
0100
2001
,  // measure 22
0010
0000
3010
0100
,  // measure 23
0000
0000
0001
0000
1000
0001
1000
0000
,  // measure 24
1000
1000
0010
0220
,  // measure 25
0000
0000
0330
1001
,  // measure 26
0011
0000
0001
1000
0010
0000
1001
0000
,  // measure 27
1100
0000
1000
0001
0010
0000
1001
0000
,  // measure 28
0011
0000
0001
1000
0100
0000
0220
0000
,  // measure 29
0000
0000
0330
1001
,  // measure 30
1010
1001
1001
1001
,  // measure 31
0101
1001
1001
1001
,  // measure 32
1100
1001
1001
0110
,  // measure 33
0000
0000
0000
0000
0000
0001
0000
0001
0000
0001
0000
0000
0110
0000
0000
0000
,  // measure 34
2000
0100
0000
3200
,  // measure 35
0000
0010
0000
0320
,  // measure 36
0000
0001
0000
0031
,  // measure 37
1000
1000
0001
0001
,  // measure 38
0220
0000
0000
0000
,  // measure 39
0330
0000
0000
0000
0000
0000
1000
0010
,  // measure 40
1000
0000
0100
0000
0010
0000
0001
0100
,  // measure 41
0001
0000
0010
0000
0100
0000
1000
0100
,  // measure 42
1000
0000
0010
0000
0100
0000
0001
0010
,  // measure 43
0001
0000
0100
0000
0010
0000
1000
0001
,  // measure 44
1000
0000
0010
0000
0100
0000
0001
1000
,  // measure 45
0001
0000
0100
0000
0010
0000
1000
0100
,  // measure 46
1000
0000
0010
0000
0100
0000
0001
0010
,  // measure 47
0001
1000
0001
0000
,  // measure 48
0000
1001
1100
1001
,  // measure 49
1001
1001
0011
1001
,  // measure 50
1001
1010
0110
0101
,  // measure 51
0110
2001
0000
0001
,  // measure 52
3000
0110
0000
0000
;

//---------------dance-single - ----------------
#NOTES:
     dance-single:
     :
     Hard:
     7:
     0.417,0.391,0.286,0.152,0.031: // measure 1
0001
0000
0012
0000
0000
0013
0100
0000
,  // measure 2
1000
0000
2100
0000
0000
3100
0010
0000
,  // measure 3
0001
0000
0102
0000
0000
0013
0100
0000
,  // measure 4
1000
0000
2010
0000
0000
3100
0010
0000
,  // measure 5
0001
0010
0100
1000
0001
0010
0001
0000
,  // measure 6
1000
0100
0010
0001
1000
0100
1000
0000
,  // measure 7
0001
0010
0100
1000
0001
0010
0100
1000
,  // measure 8
0001
1000
0001
1000
0001
0000
0001
0000
,  // measure 9
0220
0000
0330
1001
,  // measure 10
2100
0000
0000
3001
0010
0100
1000
0000
,  // measure 11
0001
0000
1000
0000
0010
0100
0001
0000
,  // measure 12
0100
0000
0100
0001
0001
1000
0010
0000
,  // measure 13
1000
0010
0001
1001
,  // measure 14
0012
0000
0000
1003
0100
0010
0001
0000
,  // measure 15
1000
0000
0001
0000
0100
0010
1000
0000
,  // measure 16
0010
0000
0010
1000
1000
0001
0100
0000
,  // measure 17
0001
0100
1000
1001
,  // measure 18
2010
0000
0000
3001
0010
0100
1000
0000
,  // measure 19
0001
0000
1000
0000
0010
0100
0001
0000
,  // measure 20
0100
0010
0100
0001
0001
1000
0100
0000
,  // measure 21
1000
0100
0001
1001
,  // measure 22
0102
0000
0000
1003
0100
0010
0001
0000
,  // measure 23
1000
0000
0001
0000
0100
0010
1000
0000
,  // measure 24
0010
0100
0010
1000
1000
0001
0200
0000
,  // measure 25
0010
0010
0300
1001
,  // measure 26
1100
0000
1000
0001
0100
0000
1001
0000
,  // measure 27
0011
0000
0001
1000
0100
0000
1001
0000
,  // measure 28
1100
0000
1000
0001
0010
0000
0220
0000
,  // measure 29
0000
0000
0000
0000
0330
0000
0001
0100
,  // measure 30
0001
0100
1000
0100
1000
0100
1000
0010
,  // measure 31
1000
0010
0001
0010
0001
0010
1000
0010
,  // measure 32
1000
0010
0001
0100
0001
0100
0010
0010
,  // measure 33
0010
0000
0000
0000
0000
1000
0000
0010
0000
0001
0000
0000
1001
0000
0000
0000
,  // measure 34
1100
0010
0001
0010
,  // measure 35
2000
0100
0010
0001
,  // measure 36
3001
0010
0100
1000
,  // measure 37
0100
0000
0001
0000
0100
0010
0100
0000
,  // measure 38
2002
0000
0000
0000
,  // measure 39
3003
0000
0000
0000
0001
0000
0001
0100
,  // measure 40
0001
0100
0001
1000
0100
0010
0001
0000
,  // measure 41
1000
0010
1000
0001
0010
0100
1000
0000
,  // measure 42
0001
0010
0001
1000
0100
0010
0001
0000
,  // measure 43
1000
0100
1000
0001
0010
0100
1000
0001
,  // measure 44
1000
0010
1000
0001
0010
0100
1000
0001
,  // measure 45
1000
0100
1000
0001
0010
0100
1000
0001
,  // measure 46
1000
0010
1000
0001
0010
0100
1000
0010
,  // measure 47
1000
0001
1000
0100
0010
0001
0000
0000
,  // measure 48
0000
0000
0000
0000
1001
0000
0000
0000
0011
0000
0000
0001
1000
0000
0010
0000
,  // measure 49
1000
0000
0000
0000
1001
0000
0000
0000
1100
0000
0000
1000
0001
0000
0010
0000
,  // measure 50
0001
0000
0000
0000
0101
0000
0000
0000
0100
0010
0000
0000
1010
0000
0000
0000
,  // measure 51
0010
0100
0000
0000
1002
0000
0000
0000
0010
0000
0000
0000
0100
0000
0000
0000
,  // measure 52
1003
0000
0110
0110
0000
0000
0000
0000
;

//---------------dance-single - ----------------
#NOTES:
     dance-single:
     :
     Beginner:
     1:
     0.060,0.115,0.009,0.000,0.000: // measure 1
0000
1000
0000
0000
,  // measure 2
0000
1000
0000
0000
,  // measure 3
0000
1000
0000
0000
,  // measure 4
0000
0001
0000
0000
,  // measure 5
0000
0001
0000
0000
,  // measure 6
0000
0001
0000
0000
,  // measure 7
0000
1000
0000
0001
,  // measure 8
0000
1000
0000
0001
,  // measure 9
0000
0000
0000
0000
,  // measure 10
1000
0000
0000
0000
,  // measure 11
0000
0001
0000
0000
,  // measure 12
0000
0000
0000
0000
,  // measure 13
0000
0000
0000
0000
,  // measure 14
0001
0000
0000
0000
,  // measure 15
0000
1000
0000
0000
,  // measure 16
0000
0000
0000
0000
,  // measure 17
0000
0000
0000
0000
,  // measure 18
0010
0000
0000
0000
,  // measure 19
0000
0100
0000
0000
,  // measure 20
0000
0000
0000
0000
,  // measure 21
0000
0000
0000
0000
,  // measure 22
0100
0000
0000
0000
,  // measure 23
0000
0010
0000
0000
,  // measure 24
0000
0000
0000
0000
,  // measure 25
0000
0000
0000
1000
,  // measure 26
0000
0000
0000
0001
,  // measure 27
0000
0000
0000
1000
,  // measure 28
0000
0000
0000
0010
,  // measure 29
0000
0000
0000
0010
,  // measure 30
0000
0000
0000
0010
,  // measure 31
0000
0000
0000
0100
,  // measure 32
0000
0000
0000
0100
,  // measure 33
0000
0000
0000
0000
,  // measure 34
0001
0000
0000
0000
,  // measure 35
0001
0000
0000
0000
,  // measure 36
1000
0000
0000
0000
,  // measure 37
1000
0000
0000
0000
,  // measure 38
0100
0000
0000
0000
,  // measure 39
0000
0000
0000
0010
,  // measure 40
0000
0000
0000
0010
,  // measure 41
0000
0000
0000
0001
,  // measure 42
0000
0000
0000
0001
,  // measure 43
0000
0000
0000
0010
,  // measure 44
0000
0000
0000
0010
,  // measure 45
0000
0000
0000
0100
,  // measure 46
0000
0000
0000
0100
,  // measure 47
0000
0000
0000
0000
,  // measure 48
0000
0000
1000
0000
,  // measure 49
0001
0000
1000
0000
,  // measure 50
0001
0000
1000
0000
,  // measure 51
0001
0000
0000
0000
,  // measure 52
0000
1001
0000
0000
;

//---------------dance-single - ----------------
#NOTES:
     dance-single:
     :
     Challenge:
     8:
     0.551,0.483,0.152,0.098,0.430: // measure 1
1000
0000
0001
0000
1000
0000
0000
1000
0000
0000
1000
0000
0010
0100
0000
0000
,  // measure 2
0001
0000
1000
0000
0001
0000
0000
0001
0000
0000
0001
0000
0100
0010
0000
0000
,  // measure 3
1000
0000
0001
0000
1000
0000
0000
1000
0000
0000
1000
0000
0100
0010
0000
0000
,  // measure 4
0001
0000
1000
0000
0001
0000
0000
0001
0000
0000
0001
0000
0010
0100
0000
0000
,  // measure 5
1000
0000
0100
0000
0010
0000
0001
0000
1000
0000
0100
0000
1000
0001
0000
0001
,  // measure 6
1000
0000
0100
0000
0010
0000
0001
0000
1000
0000
0010
0000
1000
0001
0000
0001
,  // measure 7
1000
0001
0010
0100
1000
0001
0010
0100
,  // measure 8
1000
0000
0100
0000
0001
0000
0100
0000
1000
0001
1000
0001
1000
0001
1000
0001
,  // measure 9
1000
0100
0010
0001
1000
0100
1001
0000
,  // measure 10
0012
0000
1000
1003
0100
0010
0001
1000
,  // measure 11
0001
0000
0010
0000
0001
0000
0001
0100
0000
0010
1000
0000
1000
0000
0100
0000
,  // measure 12
0010
0001
1000
0001
0001
0010
0100
1000
,  // measure 13
0010
0000
1000
0000
0100
0000
1000
0010
0000
0100
0001
0000
1001
0000
0000
0000
,  // measure 14
2100
0000
0001
3001
0010
0100
1000
0001
,  // measure 15
1000
0000
0100
0000
1000
0000
1000
0010
0000
0100
0001
0000
0001
0000
0010
0000
,  // measure 16
0100
1000
0001
1000
1000
0100
0010
0001
,  // measure 17
0100
0000
0001
0000
0010
0000
0001
0100
0000
0010
1000
0000
1001
0000
0000
0000
,  // measure 18
0102
0000
1000
1003
0100
0010
0001
0100
,  // measure 19
0001
0000
1000
0000
0001
0000
0010
0001
0000
1000
0100
0000
1000
0000
0001
0000
,  // measure 20
1000
0100
0010
0001
0001
0010
0100
1000
,  // measure 21
0001
0000
1000
0000
0010
0000
1000
0100
0000
0010
0001
0000
1001
0000
0000
0000
,  // measure 22
2010
0000
0001
3001
0010
0100
1000
0010
,  // measure 23
1000
0000
0001
0000
1000
0000
0100
1000
0000
0001
0010
0000
0001
0000
1000
0000
,  // measure 24
0001
0010
0100
1000
1000
0010
1000
0100
,  // measure 25
0010
0000
0001
0000
0010
0000
1000
0000
0000
0000
0000
0000
0001
1000
0000
0000
,  // measure 26
1000
0010
0000
0010
0100
0000
0001
0000
0001
1000
0000
0000
1000
0001
0000
0000
,  // measure 27
0001
0100
0000
0100
0010
0000
1000
0000
1000
0001
0000
0000
0001
1000
0000
0000
,  // measure 28
1000
0010
0000
0010
0100
0000
0001
0000
0001
1000
0000
0000
0220
0000
0000
0000
,  // measure 29
0000
0000
0000
0000
0000
0000
0000
0000
0330
0000
0000
0000
0001
0100
0000
0100
,  // measure 30
0000
0100
0010
1000
0000
0001
0000
0001
0000
1000
0001
0000
1000
0010
0000
0010
,  // measure 31
0000
0010
0100
0001
0000
1000
0000
1000
0000
0001
1000
0000
0001
0100
0000
0100
,  // measure 32
0000
0100
0010
1000
0000
0001
0000
0001
0000
1000
0001
0000
0100
0010
0000
0010
,  // measure 33
0000
1000
0001
1000
0000
0010
0000
0110
0000
0001
1000
0000
1001
0000
0000
0000
,  // measure 34
1020
0000
1030
0000
0100
0010
0001
0000
,  // measure 35
0201
0000
0301
0000
0010
0100
1000
0000
,  // measure 36
2000
0001
3001
0000
0100
0010
0100
0000
,  // measure 37
1001
0000
0000
0001
1000
0000
0000
0000
0010
0100
0000
0010
0000
0000
0000
0000
,  // measure 38
2002
0000
0000
0000
3000
0010
0010
0000
,  // measure 39
1003
0000
0000
0000
0001
0000
0001
0100
,  // measure 40
0001
0010
0001
1000
0100
0010
0001
0100
,  // measure 41
0001
0000
0010
0000
0001
0000
1000
0010
0000
0100
0001
0000
1000
0000
0010
0000
,  // measure 42
1000
0100
1000
0001
0010
0100
1000
0010
,  // measure 43
1000
0000
0100
0000
1000
0000
0001
0100
0000
0010
1000
0000
0001
0000
0010
0000
,  // measure 44
0001
0100
0001
1000
0100
0010
0001
0100
,  // measure 45
0001
0000
0010
0000
0001
0000
1000
0100
0000
0010
0001
0000
1000
0000
0100
0000
,  // measure 46
1000
0010
1000
0001
0010
0100
1000
0010
,  // measure 47
1000
0000
0100
1000
0100
0000
1000
0010
0000
0100
0001
0000
0000
0000
0010
0001
,  // measure 48
0010
0001
0000
0000
0001
1000
0000
0000
1000
0100
0000
0100
0010
0000
0001
0000
,  // measure 49
0001
1000
0000
0000
1000
0001
0000
0000
0001
0010
0000
0010
0100
0000
1000
0000
,  // measure 50
1000
0001
0000
0000
0001
1000
0000
0000
1000
0100
0000
0100
0010
0000
0001
0000
,  // measure 51
0001
1000
0000
0000
1000
0000
0100
0000
0010
0000
0001
0000
0100
0000
1000
0000
,  // measure 52
0100
0010
1001
1001
0000
0000
0000
0000
;
