#TITLE:BEMANI HIT TRACKS;
#SUBTITLE:;
#ARTIST:K.M.D.J. team feat. Seigo "M" Takei;
#TITLETRANSLIT:;
#SUBTITLETRANSLIT:;
#ARTISTTRANSLIT:;
#CREDIT:DMAxel;
#BANNER:BEMANI HIT TRACKS.png;
#BACKGROUND:BEMANI HIT TRACKS-bg.png;
#LYRICSPATH:;
#CDTITLE:beatmania.png;
#MUSIC:BEMANI HIT TRACKS.mp3;
#OFFSET:0.660;
#SAMPLESTART:51.599;
#SAMPLELENGTH:12.000;
#SELECTABLE:YES;
#BPMS:0.000=137.000,212.000=143.000,316.000=137.000;
#STOPS:142.500=0.440
,157.500=0.440
,210.000=0.880
;
#BGCHANGES:3.000=A e-motion.png=1.000=1=0=1,
120.000=B LOVE SO GROOVY.png=1.000=1=0=1,
210.000=C La Bossanova de Fabienne.png=1.000=1=0=1,
316.000=D 20 november.png=1.000=1=0=1,
405.000=BEMANI HIT TRACKS-bg.png=1.000=1=0=1,
99999=-nosongbg-=1.000=0=0=0 // don't automatically add -songbackground-
;

//---------------dance-single - ----------------
#NOTES:
     dance-single:
     :
     Easy:
     4:
     0.206,0.308,0.139,0.033,0.000:
0000
0000
0000
0000
,
0000
0000
0000
0000
,
0000
0000
0000
0000
,
1001
0000
0000
0000
,
0000
0000
0000
0000
,
0010
0000
0000
1000
,
0100
0000
0000
0010
,
0100
1000
0001
1000
,
0000
0001
1000
0001
,
1001
0000
0000
0010
,
1001
0000
0000
0100
,
1001
0000
0000
0001
,
0110
0000
0000
1000
,
0010
0100
0001
0000
,
0000
0000
0000
0000
,
1000
0001
0010
0000
,
0000
0000
0110
0000
,
0001
0010
0010
0001
,
1000
0100
0100
1000
,
0100
0001
0010
1000
,
1000
0001
0010
0110
,
0000
1000
0000
1000
,
0000
0001
0000
0001
,
0000
0010
0000
0010
,
0000
0100
0000
0100
,
0010
0100
0000
1001
,
0100
0010
1001
0000
,
1001
0010
0100
0010
,
0100
0010
1001
0000
,
0000
0000
0000
0000
,
0010
0000
0000
0010
,
0000
0000
0010
0100
,
0100
0000
0000
0100
,
0000
0000
0100
0010
,
1000
0010
0100
0001
,
0001
0010
0100
1000
,
0010
0100
0001
0001
,
0010
0100
1000
0001
,
0100
0010
1000
1000
,
0100
0010
0001
0100
,
0010
1000
1000
0100
,
0010
0001
0010
0000
,
0001
0100
0000
0000
,
0010
1000
0000
1000
,
0100
0000
0000
0000
,
0010
0001
0000
0001
,
0010
0000
0000
0000
,
0100
1000
0000
0000
,
1000
0010
0000
0000
,
0100
0001
0100
0000
,
0000
0000
0000
0100
,
0000
0000
0001
0000
,
0000
0000
1000
0000
,
1000
0000
1000
0000
,
0100
0000
0010
0000
,
0001
0000
0001
0000
,
0000
0000
0000
0000
,
0001
0000
0010
0000
,
0100
0000
0100
0000
,
1000
0000
0100
0000
,
0010
0000
0000
0000
,
0001
0000
1000
0000
,
0001
0000
0010
0000
,
0200
0000
0000
0000
,
0000
0000
2300
0000
,
0000
0000
0000
0000
,
3001
0000
0000
0000
,
1001
0000
0001
0000
,
0010
0000
0001
0000
,
1000
0000
0100
0000
,
1000
0000
0100
0000
,
1000
0000
0010
0000
,
0110
0000
0000
0000
,
1001
0000
0001
0000
,
0100
0000
0000
0000
,
0220
0000
0000
0000
,
0000
0000
0000
0000
,
0330
0000
0000
0000
,
0000
0000
0000
0000
,
1001
0100
0001
0100
,
1001
0100
1000
0100
,
1001
0100
0001
0100
,
0100
0100
0010
1001
,
1001
0100
1000
0100
,
0001
1000
1000
0100
,
0001
1000
0100
0001
,
0110
0000
0100
0000
,
1001
0000
0010
0000
,
0110
0000
0100
0000
,
1001
0000
0100
0100
,
1000
0001
0100
0100
,
0001
1000
0100
0100
,
1000
0001
0010
0010
,
1000
0001
0010
0010
,
1000
0100
0001
0001
,
1000
1000
1000
1000
,
0001
0001
0001
0001
,
1000
1000
0010
0010
,
0100
0000
0000
0000
,
2002
0000
0000
0000
,
0000
0000
0000
0000
,
3003
0000
0000
0000
;

//---------------dance-single - ----------------
#NOTES:
     dance-single:
     :
     Hard:
     7:
     0.398,0.476,0.327,0.022,0.058:
0000
0000
0000
0000
,
0000
0000
0000
0000
,
0010
0000
0000
0000
,
0110
0000
0000
0000
,
0001
0000
0000
0000
,
0010
0100
1000
0001
,
0100
0010
0001
1000
,
0010
0100
0011
1100
,
0110
0000
0000
0000
0010
0000
0000
0010
,
0100
0000
0000
1100
0000
0000
0000
0100
,
0010
0000
0000
0011
0000
0000
0000
1001
,
0010
0000
0000
1001
0000
0000
0000
0000
,
0110
0000
1000
0000
0001
0000
0010
0001
,
1000
0000
1000
0000
0001
0000
0010
1000
,
0001
0000
0010
0001
1000
0000
0000
0000
,
1001
0010
0100
0000
,
0000
0000
0000
0000
0100
0000
0000
0000
0010
0000
0000
0010
0000
0000
0001
0000
,
1000
0101
1100
0011
,
1010
0000
0000
0000
0100
0000
0000
0000
0010
0000
0000
0001
0000
0000
0001
0000
,
1000
0000
1001
0000
0001
0000
0000
1000
,
0001
0000
0000
0001
1000
0010
0100
0001
,
1000
0010
1000
0001
,
0100
0010
0001
1000
,
0100
0000
0010
0000
1000
0000
0010
0100
,
1001
0000
0000
0000
1000
0000
0001
0010
,
0100
0000
1000
0000
0001
0000
1000
0100
,
0010
0000
0000
0001
0000
0000
0100
0000
0100
0000
0001
0000
,
1000
0001
0100
0001
,
1000
0000
0000
0100
0000
0000
0010
0000
0010
0000
1000
0000
,
0001
0000
0001
0000
0001
0000
1000
0000
1000
0000
0000
0000
,
0010
0000
0000
0010
0000
0000
0010
0000
,
0000
0010
0000
0000
0010
0100
0001
0000
,
0100
0000
0000
0100
0000
0000
0100
0000
,
0000
0100
0000
0000
0100
0010
1000
0000
,
1001
0000
0010
1000
0010
0001
0010
0100
,
0011
0000
1000
0001
1000
0100
1001
0000
,
0100
0010
0100
1000
0100
0001
1100
0000
,
0001
1000
0001
0010
0001
0100
0001
0000
,
1001
0000
0100
0001
0100
1000
0100
0010
,
1100
0000
0001
1000
1001
0000
0010
0100
,
0010
0001
0010
1000
0011
0000
1000
0001
,
1000
0100
1000
0010
1000
0000
0000
0010
,
1000
0100
0001
0000
1000
0000
0100
0000
,
0000
1100
0000
0011
0000
0000
0000
0010
,
0001
0100
1000
0000
0001
0000
0100
0000
,
0000
1010
0000
0101
0000
0000
0000
1000
,
0100
0001
0010
0000
1000
0000
0100
0000
,
0000
0011
0000
1100
0000
0000
0000
0100
,
1000
0010
0001
0000
1000
0000
0100
0000
,
0000
0110
0000
1001
0000
0000
0000
0001
,
0000
1000
0000
0001
,
0000
0000
0001
0000
0000
0000
0000
0000
1000
0001
1000
0001
1000
0000
0001
1000
,
0000
0001
1000
0000
0000
0000
0000
0000
1001
0000
0000
0000
0000
0000
0000
0000
,
0001
0000
0010
0000
0001
1000
0100
0010
,
0000
0000
0000
0001
,
1000
0000
0100
0000
1000
0001
0010
0100
,
0000
0000
0000
0000
0000
1000
1000
0000
,
0001
0000
0010
0000
1000
0000
0100
0010
,
0000
0001
1000
0001
,
1000
0000
0100
0000
0001
0000
0010
0100
,
0000
0000
1000
0000
0000
0001
0001
0000
,
1000
0000
0100
0000
0001
0000
0010
0100
,
0000
1000
0000
1000
0001
0000
0100
0000
,
1001
0000
0010
0000
1000
0000
0100
0010
,
0000
0001
0000
0001
1000
0000
0010
0000
,
1001
0000
0100
0000
0001
0000
0010
0100
,
0000
1000
0000
1000
0000
0000
0000
0000
,
1001
0000
0010
1000
0010
0000
0100
0001
,
0100
0000
0010
1000
0010
0000
0100
0001
,
0100
0000
0001
0010
0001
0000
1000
0100
,
1000
0000
0001
0010
0001
0000
1000
0100
,
1000
0000
0001
0100
0001
1000
0100
0010
,
0001
1001
0000
0000
,
0010
0000
1000
0000
0100
0001
0000
1001
,
0000
1000
0100
0001
,
0110
0000
1000
0001
1000
0000
0001
1000
,
0001
0010
0100
2002
,
0000
0000
0000
0000
,
0000
0000
0000
3003
,
1001
0000
1000
0000
0001
0000
1000
0001
,
1001
0000
1000
0000
0001
0000
1000
0001
,
1001
0000
0001
0000
1000
0000
0001
1000
,
1001
0000
1000
0000
1000
0000
1000
1000
,
1001
0000
0000
1000
0000
0000
1000
0000
0000
1000
0000
0000
0100
0000
0010
0000
,
0001
0000
0000
0001
0000
0000
0001
0000
0000
0001
0000
0000
0100
0000
0010
0000
,
1000
0000
0000
1000
0000
0000
1000
0000
0000
1000
0000
0000
0100
0000
0010
0000
,
0001
0000
0000
0001
0000
0000
0001
0000
0000
0001
0000
0000
0100
0000
0010
0000
,
1000
0100
1000
0100
1000
0100
1000
0100
,
1000
0001
1000
0001
1000
0010
1000
0010
,
1000
0100
1000
0100
1000
0010
1000
0100
,
1000
0001
1000
0001
,
1000
0000
1000
0000
0001
0000
0011
1000
,
0100
0000
1000
0000
0001
0000
1010
0001
,
0100
0000
0001
0000
1000
0000
0011
1000
,
0101
0000
0010
0000
1000
0000
1100
0001
,
0101
0000
0010
0000
1000
0000
0101
0010
,
1100
0000
0001
0000
0100
0000
1010
0001
,
1100
0000
0001
0000
0100
0000
0011
0100
,
1001
0000
0100
0000
0100
0000
1001
0010
,
2200
0000
0000
0000
,
0000
0000
0000
0000
,
3300
0000
0000
0000
;

//---------------dance-single - ----------------
#NOTES:
     dance-single:
     :
     Medium:
     5:
     0.279,0.336,0.283,0.056,0.000:
0000
0000
0000
0000
,
0000
0000
0000
0000
,
0000
0000
0000
0000
,
1001
0000
0000
0000
,
0000
0000
0000
0000
,
0010
0100
1000
0001
,
0100
0010
0001
1000
,
1000
0100
1000
0000
0001
0010
0001
0000
,
1001
0000
0010
0000
,
0011
0000
1100
0000
,
0010
1000
0010
0001
,
0011
0000
1100
0000
,
0100
1000
0100
0001
,
1000
0000
1000
0000
0001
0010
0001
0000
,
1000
0000
1000
0000
0001
0100
0001
0000
,
0010
0010
1001
0000
,
1000
0001
1000
0000
0110
0000
0000
0000
,
1000
1000
0001
0001
,
1000
0100
0010
0001
,
0001
0010
0100
1000
,
0010
0010
0100
0100
,
1001
0010
1000
0001
,
0001
0010
0001
0010
,
1000
0010
1000
0010
,
1001
0000
1000
0000
,
0010
0000
0100
0000
0010
0100
0010
0000
,
0100
0010
1001
0000
,
0010
0000
0010
0000
0001
1000
0001
0000
,
0100
0010
2002
0000
,
0000
0000
0000
3003
,
0010
0000
0000
0010
0000
0000
0010
0000
,
0000
0000
0010
0100
,
0100
0000
0000
0100
0000
0000
0100
0000
,
0000
0000
0100
0010
,
1001
0010
0010
0010
,
0011
1000
1000
1001
,
0100
0100
0100
1100
,
0001
0001
1001
1001
,
0100
0100
0100
0100
,
1100
0001
1001
0010
,
0010
0010
0011
1000
,
1000
0000
1001
0000
0000
0000
0000
0010
,
1000
0100
0001
0000
0000
0000
0000
0000
,
0000
1100
0000
0011
0000
0000
0000
0010
,
0001
0100
1000
0000
0000
0000
0000
0000
,
0000
1010
0000
0101
0000
0000
0000
0000
,
0000
1000
0100
0001
0010
0000
0000
0000
,
0000
0011
0000
1100
0000
0000
0000
0100
,
1000
0010
0001
0000
0000
0000
0000
0000
,
0000
0110
0000
2002
0000
0000
0000
0000
,
0000
3003
0000
0220
,
0000
0330
0011
0000
,
1100
0000
1001
0000
,
0001
0000
0010
0000
,
0001
0000
0010
0000
,
0100
0000
1000
0000
,
0100
0000
0000
0000
,
1000
0100
0010
0001
,
0001
0001
0000
0010
,
0001
0010
0100
1000
,
1000
1000
0000
0000
,
1000
0010
1000
0100
,
0010
0001
0000
0000
,
0001
0010
0001
0010
,
0100
1000
0000
0000
,
1000
0010
1000
0100
,
0010
0000
0000
0000
,
1001
0000
0001
0000
,
0010
0000
0100
0000
,
1001
0000
1000
0000
,
0100
0000
0010
0000
,
1001
0000
0001
0000
,
1100
1100
0000
0000
,
1001
0000
0000
0000
0010
0000
0000
0001
,
0000
0000
0000
0000
,
2002
0000
0000
0000
,
0000
0000
0000
0000
,
3003
0000
0000
0000
,
0000
0000
0000
0000
,
1001
0100
0001
0100
,
1001
0100
1000
0100
,
1001
0100
0001
0100
,
0100
0100
0010
1001
,
1001
0100
1000
0100
,
0001
0100
1000
0000
1000
0000
0100
0000
,
0001
0100
1000
0000
1000
0000
0100
0000
,
0001
0100
1000
0000
0100
0000
0001
0000
,
0110
0000
0100
0000
,
1001
0000
0010
0000
,
0110
0000
0100
0000
,
1001
0000
0100
0100
,
1000
0001
0100
0100
,
0001
1000
0100
0100
,
1000
0001
0010
0010
,
1000
0000
0100
0000
0001
0000
0001
0100
,
1000
0000
1000
0000
1000
0000
1000
0100
,
0001
0000
0001
0000
0001
0000
0001
0010
,
1000
0000
1000
0000
0010
0000
0010
1000
,
0100
0000
0000
0000
,
2002
0000
0000
0000
,
0000
0000
0000
0000
,
3003
0000
0000
0000
;

//---------------dance-single - ----------------
#NOTES:
     dance-single:
     :
     Challenge:
     8:
     0.546,0.645,0.361,0.128,0.225: // measure 1
0000
0000
0000
0000
,  // measure 2
0000
0000
0000
0000
,  // measure 3
1000
0000
0000
0010
0000
0000
0001
0000
,  // measure 4
0220
0000
0000
0330
,  // measure 5
0001
0000
0000
0100
0000
0000
1000
0000
,  // measure 6
1001
0100
0010
0001
,  // measure 7
0010
0000
0000
0000
0001
0000
0000
0000
1000
0000
0000
0010
0000
0000
1000
0000
,  // measure 8
1000
0000
0010
0000
0110
0000
0001
0001
,  // measure 9
0001
0000
0100
0000
1010
0000
0010
1000
,  // measure 10
1100
0000
0000
0101
0000
0000
0100
0001
,  // measure 11
0011
0000
0000
1010
0000
0000
0010
1000
,  // measure 12
1100
0000
0000
1001
0000
0000
0000
0000
,  // measure 13
0110
0000
0101
0000
1010
0000
0100
1000
,  // measure 14
1001
0000
0100
0000
0110
0000
0100
0001
,  // measure 15
1000
0000
0010
1000
0001
0000
0010
0001
,  // measure 16
1001
0000
1010
0000
0101
0000
0000
0100
,  // measure 17
0001
0000
0000
0000
0000
0000
0100
0010
0100
0000
0000
0101
0000
0000
0001
0000
,  // measure 18
1000
0000
0000
1000
0010
0000
0000
0010
0100
0000
0000
0100
0001
0000
0000
0001
,  // measure 19
1000
0000
0000
1000
0010
0000
0000
0010
0100
0000
0000
0100
0001
0000
1000
0000
,  // measure 20
1000
0000
0000
0001
0100
0000
0000
0100
0010
0000
0000
0010
1000
0000
0001
0000
,  // measure 21
0001
0000
0000
1000
0010
0000
1000
0000
1000
0000
0010
0100
0010
0000
1000
0000
,  // measure 22
0001
0000
0000
0000
0101
0000
0000
0001
0000
0000
1000
0000
0100
0000
1000
0000
,  // measure 23
0010
0000
0000
0000
1010
0000
0000
1000
0000
0000
0001
0000
0010
0000
0001
0000
,  // measure 24
0100
0000
0000
0000
0101
0000
0000
0001
0000
0000
1000
0000
0010
0000
1000
0000
,  // measure 25
0100
0000
0000
0000
1010
0000
0000
1000
0000
0000
0001
0000
0100
0000
0001
0000
,  // measure 26
1001
0000
0000
0000
0011
0000
0000
0001
0000
0000
1000
0000
0100
0000
1000
0000
,  // measure 27
0010
0000
0000
1100
0000
0000
1001
0000
1001
0000
1000
0000
,  // measure 28
0001
0000
0000
0000
1100
0000
0000
1000
0000
0000
0001
0000
0010
0000
0001
0000
,  // measure 29
0100
0000
0000
0011
0000
0000
1001
0000
1001
0000
0001
0000
,  // measure 30
0100
0000
0110
0000
0010
0000
1000
0000
1001
0000
0000
0000
,  // measure 31
0110
0000
0000
0101
0000
0000
0110
0000
,  // measure 32
0000
1010
0000
0000
0100
0010
1000
0000
,  // measure 33
0110
0000
0000
0101
0000
0000
0110
0000
,  // measure 34
0000
1010
0000
0000
0010
0100
0001
0000
,  // measure 35
1000
0100
0010
0001
0100
1000
0100
0010
,  // measure 36
0001
0100
0001
1000
0001
0010
0001
0010
,  // measure 37
0100
1000
0010
0001
0010
0100
1000
0010
,  // measure 38
1000
0001
1000
0100
1000
0010
1000
0000
,  // measure 39
0001
0010
0100
1000
0010
0001
0010
0100
,  // measure 40
1000
0010
1000
0001
1000
0100
0010
0001
,  // measure 41
0100
1000
0100
0001
0100
1000
0001
0100
,  // measure 42
0001
0010
0001
0100
0001
0000
0010
0001
,  // measure 43
0010
1000
0100
0010
0001
0000
0001
1000
,  // measure 44
0000
1010
0000
0011
0000
0000
0100
1000
,  // measure 45
0100
0001
0010
0100
0000
0100
0010
0001
,  // measure 46
0010
0100
0000
1001
0000
0000
0010
0001
,  // measure 47
0010
1000
0100
0010
0001
0000
0001
1000
,  // measure 48
0000
1100
0000
0101
0000
0000
0010
1000
,  // measure 49
0010
0001
0100
0010
0000
0010
0100
0001
,  // measure 50
0010
0100
0000
1001
2000
0000
0000
3020
,  // measure 51
0000
0230
0000
0301
,  // measure 52
0100
0000
0010
0000
0000
0000
0010
0000
1000
0001
1000
0001
1000
0000
0001
0100
,  // measure 53
0000
0010
0100
0000
0000
0000
0000
0000
1001
0000
0000
0000
0000
0000
0000
0000
,  // measure 54
1100
0000
1000
0010
1000
0001
0010
0100
,  // measure 55
1000
0000
0010
1000
0000
1000
0001
0000
,  // measure 56
0011
0000
0001
0100
0001
1000
0100
0020
,  // measure 57
0000
0000
0000
0000
0000
0001
0031
0000
,  // measure 58
0001
0100
0010
0100
0010
0100
0001
0100
,  // measure 59
0000
1000
0010
0000
0100
0000
0101
0000
,  // measure 60
1000
0010
0100
0010
0100
0010
1000
0010
,  // measure 61
0000
0000
0002
0000
0000
1000
1003
0000
,  // measure 62
0001
0010
0100
0010
0100
0010
0001
0010
,  // measure 63
0000
1000
0010
0000
0100
0000
0101
0000
,  // measure 64
1000
0100
0010
0100
0010
0100
1000
0100
,  // measure 65
0000
0001
0000
0100
1000
0100
0010
0000
,  // measure 66
0001
0010
0100
0010
0100
0010
0001
0010
,  // measure 67
0000
1000
0000
0010
0001
0000
0000
0000
,  // measure 68
1001
0000
0100
0001
0020
0000
0031
1000
,  // measure 69
0020
0000
0130
0001
0020
0000
0031
1000
,  // measure 70
0200
0000
1300
0001
0200
0000
0301
1000
,  // measure 71
0200
0000
1300
0100
0010
0001
0001
0010
,  // measure 72
0200
0000
1300
0010
1000
0001
0010
1000
,  // measure 73
0010
0000
2001
0000
0000
0001
3001
0000
,  // measure 74
0010
0100
1000
0100
0001
0010
0000
2001
,  // measure 75
0000
0001
0010
3100
,  // measure 76
1100
0000
0010
0001
0200
0000
0301
1000
,  // measure 77
0020
0000
1030
0001
0200
0000
0301
0010
,  // measure 78
0220
0000
0000
0000
,  // measure 79
0000
0000
0000
0330
,  // measure 80
1000
0000
0100
0000
0010
0000
0001
0000
0100
0001
0100
0000
0001
0000
1000
0000
,  // measure 81
0001
0000
0010
0000
0100
0000
1000
0000
0010
1000
0010
0000
1000
0000
0001
0000
,  // measure 82
1000
0000
0100
0000
0010
0000
0001
0000
0100
0001
0100
0000
0001
0000
1000
0000
,  // measure 83
1100
0000
0101
0000
1010
0000
0101
0001
,  // measure 84
1001
0000
0000
0100
0001
0000
0010
0000
0000
0010
0000
0000
0001
0000
0010
0000
,  // measure 85
1000
0000
0000
0010
1000
0000
0100
0000
0000
0100
0000
0000
1000
0000
0100
0000
,  // measure 86
0001
0000
0000
0010
0001
0000
0100
0000
0000
0100
0000
0000
0001
0000
0100
0000
,  // measure 87
1000
0000
0000
0010
1000
0000
0100
0000
0000
0100
0000
0000
0100
0000
1000
0000
,  // measure 88
0100
0000
0010
0000
0001
0000
0100
0001
0100
0000
0001
0000
0010
0000
0100
0000
,  // measure 89
0010
0000
0001
0000
1000
0000
0010
0000
1000
0000
0001
0000
0100
0000
0010
1000
,  // measure 90
0010
1000
0100
0010
0100
1000
0001
0100
,  // measure 91
0001
0100
0001
0000
1000
0010
1000
0000
0010
0100
0010
0000
1001
0000
0000
0000
,  // measure 92
0001
0000
0010
0000
0100
0000
1000
0010
0000
0010
0000
0100
0001
0000
0100
0000
,  // measure 93
1000
0000
0100
0000
0010
0000
0001
0100
0000
0100
0000
0010
1000
0000
0010
0000
,  // measure 94
0001
0000
0010
0000
0100
0000
1000
0010
0000
0010
0000
0100
0001
0000
0010
0000
,  // measure 95
0100
0000
1000
0001
1000
0000
0010
0100
0010
0100
0010
0100
0010
0100
0010
0000
,  // measure 96
1000
0001
0000
0000
0010
0000
0100
1000
0000
1000
0000
0010
0100
0000
0001
0000
,  // measure 97
1000
0100
0000
0000
0010
0000
0001
0100
0000
0010
0000
0100
0001
0100
0001
0000
,  // measure 98
0010
0100
0000
0000
1000
0000
0010
1000
0000
1000
0000
0100
1000
0100
1000
0000
,  // measure 99
0100
0000
0010
0001
0010
0000
0001
1000
0001
1000
0001
1000
0001
1000
0001
0000
,  // measure 100
0220
0000
0000
0000
,  // measure 101
0000
0000
0000
0000
,  // measure 102
0330
0000
0000
0000
;

//---------------dance-double - ----------------
#NOTES:
     dance-double:
     :
     Easy:
     5:
     0.263,0.365,0.250,0.011,0.000:
00000000
00000000
00000000
00000000
,
00000000
00000000
00000000
00000000
,
00000000
00000000
00000000
00000000
,
10010000
00000000
00000000
00000000
,
00000000
00000000
00000000
00000000
,
10000000
01000000
00100000
00010000
,
00010000
00100000
01000000
10000000
,
00010000
00001000
00011000
00010000
,
01100000
00000000
10010000
00000000
,
00100000
00000000
00000000
10000000
00000000
00000000
00000000
00000000
,
01000000
00000000
00000000
00010000
00000000
00000000
00000000
00000000
,
00001000
00000000
00000000
00001001
00000000
00000000
00000000
00000000
,
00000010
00000000
00000001
00000000
00000100
00000000
00000001
00000001
,
00001000
00001000
00000010
00000000
,
00001001
00000100
00001000
00000000
,
00001001
00000100
00000001
00000000
,
00000000
00000000
00000100
00000010
,
00001000
00011000
10000000
00010000
,
10000000
00100000
00010000
01000000
,
00010000
10000000
10000000
01000000
,
00010000
10000000
00100000
00011000
,
00001000
00000010
00001000
00000001
,
00000100
00000010
00001000
00000001
,
00000001
00000010
00000100
00001000
,
00010000
00100000
01000000
10000000
,
10000000
01000000
00100000
00010000
,
00001000
00000100
00000011
00000000
,
00000001
00000010
00000100
00001000
,
00010000
00100000
11000000
00000000
,
00000000
00000000
00000000
00000000
,
00010000
00000000
00000000
00001000
00000000
00000000
00010000
00000000
,
00000000
00000000
00001000
00010000
,
00001000
00000000
00000000
00010000
00000000
00000000
00001000
00000000
,
00000000
00000000
00010000
00001000
,
00011000
00100000
01000000
10000000
,
00110000
10000000
00100000
00011000
,
00100000
01000000
10000000
00110000
,
10000000
01000000
00100000
00011000
,
00000010
00000100
00000001
00001010
,
00000001
00000100
00011000
00000010
,
00000100
00000001
00001010
00000001
,
00000100
00000000
00011000
00000000
00001000
00000000
00000000
00000001
,
00000010
00000100
00001000
00000000
00000000
00000000
00000000
00000000
,
00000000
00001100
00000000
00101000
00000000
00000000
00000000
10000000
,
01000000
00100000
00010000
00000000
00000000
00000000
00000000
00000000
,
00000000
00011000
00000000
00001100
00000000
00000000
00000000
00000001
,
00000010
00000100
00001000
00000000
00000000
00000000
00000000
00000000
,
00000000
00011000
00000000
01010000
00000000
00000000
00000000
10000000
,
01000000
00100000
00010000
00000000
00000000
00000000
00000000
00000000
,
00000000
00011000
00000000
00011000
00000000
00000000
00000000
00000000
,
00000000
00000000
00000000
00000000
,
00000000
00000000
00000011
00000000
,
00001100
00000000
00011000
00000000
,
00010000
00000000
00010000
00000000
,
00010000
00000000
00100000
00000000
,
00100000
00000000
01000000
00000000
,
01000000
00000000
00000000
00000000
,
10010000
00000000
10000000
00000000
,
00100000
00000000
10000000
00000000
,
00010000
00000000
01000000
00000000
,
00000000
00011000
00000000
00000000
,
00001000
00000000
00000010
00000000
,
00001000
00000000
00000100
00000000
,
00000010
00000000
00000001
00000000
,
00001000
00000000
00000001
00000000
,
00000010
00000000
00000001
00000000
,
00000100
00000000
00000000
00000000
,
00011000
00000000
00010000
00000000
,
00100000
00000000
00010000
00000000
,
00011000
00000000
00001000
00000000
,
00000100
00000000
00001000
00000000
,
00011000
00000000
00010000
00000000
,
01000000
00000000
00010000
00000000
,
00011000
00000000
00000000
00000000
00011000
00000000
00000000
00000100
,
00000000
00000000
00000000
00000000
,
00001000
00000000
00010000
00000000
,
00100000
00000000
00000000
00000000
,
00000000
00000000
00000000
00000000
,
00000000
00000000
00000000
00000000
,
10010000
01000000
00010000
01000000
,
00011000
00010000
00001000
00000100
,
00001001
00001000
00000001
00001000
,
00000110
00001000
00000010
00000110
,
00001001
00000100
00010000
01000000
,
10000000
01000000
00010000
00000000
00001000
00000000
00000100
00000000
,
00000001
00000100
00001000
00000000
00010000
00000000
01000000
00000000
,
10000000
01000000
00010000
00000000
00001000
00000000
00000100
00000000
,
00000001
00000010
00001000
00000100
,
00000001
00000010
00001000
00000100
,
00000001
00000010
00001000
00000100
,
00000001
00000100
00001000
00001000
,
00000001
00000001
00001000
00001000
,
00100000
00100000
10000000
10000000
,
01000000
01000000
00010000
00010000
,
00001000
00010000
00001000
00010000
00001000
00010000
00001000
00000000
,
00000100
00000000
00000001
00000000
00000001
00000100
00001000
00000000
,
00010000
00000000
00010000
00000000
00010000
01000000
10000000
00000000
,
10000000
00000000
10000000
00000000
10000000
01000000
00010000
00000000
,
00010000
00000000
00001000
00000000
00001000
00000001
00000100
00000000
,
00000220
00000000
00000000
00000000
,
00000000
00000000
00000000
00000000
,
00000000
00000330
00000000
00000000
;
