#TITLE:BE LOVIN;
#SUBTITLE:[LONG VERSION];
#ARTIST:D-crew;
#TITLETRANSLIT:;
#SUBTITLETRANSLIT:;
#ARTISTTRANSLIT:;
#CREDIT:DMAxel;
#BANNER:BE LOVIN [LONG VERSION].png;
#BACKGROUND:BE LOVIN [LONG VERSION]-bg.png;
#LYRICSPATH:;
#CDTITLE:beatmania.png;
#MUSIC:BE LOVIN [LONG VERSION].mp3;
#OFFSET:-0.160;
#SAMPLESTART:31.592;
#SAMPLELENGTH:12.000;
#SELECTABLE:YES;
#BPMS:0.000=185.000;
#STOPS:;
#BGCHANGES:;

//---------------dance-single - ----------------
#NOTES:
     dance-single:
     :
     Easy:
     4:
     0.304,0.341,0.069,0.108,0.000:
0000
0000
0000
0000
,
0000
0000
0000
0000
,
0000
0000
0000
0000
,
0000
0000
0000
0000
,
0000
0000
0000
0000
,
0000
0000
0000
0000
,
0000
0000
0000
0000
,
0000
0000
0000
0000
,
0000
1000
0000
0000
,
0000
1000
0000
0000
,
0000
0001
0000
0000
,
0000
0001
0000
0000
,
1001
0000
0001
0000
,
1000
0000
0001
0000
,
1000
0000
0010
0000
,
0100
0000
0010
0000
,
0100
0000
0001
0000
,
0010
0000
0001
0000
,
0010
0000
0100
0000
,
1000
0002
0000
0000
,
0000
0103
0000
0000
,
0000
0100
0000
0000
,
0000
0100
0000
0000
,
0000
0010
0000
0000
,
0000
0110
0000
0001
,
0000
1000
0000
1000
,
0000
0010
0000
0010
,
0000
1001
0000
0000
,
0000
0100
0010
0100
,
0010
1000
0100
1000
,
0100
1000
0001
0100
,
0001
0010
0001
0100
,
0010
1000
0100
1000
,
1000
1000
1000
1000
,
1000
0001
0001
0001
,
0001
0001
0001
1000
,
0001
0100
0010
1000
,
0010
1000
0100
1000
,
0010
0100
0001
0010
,
0001
1000
0100
0010
,
0001
0100
0010
1000
,
0100
1000
0010
0100
,
0001
0010
0001
0010
,
0100
1000
0100
1000
,
0010
2000
0000
3002
,
0000
1003
0010
2000
,
0000
3001
0100
0020
,
0000
0130
0001
0020
,
0000
0031
0100
0020
,
0000
1030
0010
0200
,
0000
0301
0100
0020
,
0000
1030
0100
0010
,
0001
0010
0000
0010
,
0000
0010
0000
0000
,
0000
0100
0000
0100
,
0000
0100
0000
0000
,
0000
1000
0000
1000
,
0000
1000
0000
1001
,
0000
0001
1000
0001
,
1000
0001
0000
0000
,
0000
1000
0100
0010
,
0001
0100
0010
1000
,
0100
1000
0010
0100
,
0001
0010
0001
1000
,
0100
1000
0010
1000
,
0100
0010
0001
0010
,
0100
1000
0100
0010
,
0001
2002
0000
0000
,
3003
0001
0010
0100
,
1000
0100
0010
0001
,
1000
0100
0010
0001
,
0100
0010
1000
0001
,
0010
0100
1000
0100
,
0010
0001
0010
0100
,
1000
0010
0100
0001
,
0010
0001
1000
0001
,
1000
0000
1001
0000
0000
0000
0000
0010
,
0000
0100
0000
1001
0000
0000
0000
0000
;

//---------------dance-single - ----------------
#NOTES:
     dance-single:
     :
     Hard:
     8:
     0.595,0.644,0.215,0.049,0.000:
0000
0000
0000
0000
,
0000
0000
0000
0000
,
0000
0000
0000
0000
,
0000
0000
0000
0000
,
0000
0011
0000
0000
,
0001
0000
0001
0000
,
1000
0000
1000
0000
,
0001
0000
0001
0000
,
1000
1100
0000
0010
,
0000
1001
0000
0100
,
0000
1010
0000
0110
,
0000
0101
0001
0001
,
1001
0000
0001
0100
0001
0000
1000
0010
,
1000
0000
0001
0010
0001
0000
1000
0100
,
1000
0000
0001
1000
0001
0000
1000
0001
,
1000
0000
0001
0100
0010
0000
1000
0010
,
0100
0000
0001
0010
0100
0000
1000
0100
,
0010
0000
0001
0100
0010
0000
1000
0100
,
0010
0000
0001
0010
0100
0000
1000
0010
,
0100
0000
0001
0001
0010
0100
1000
0000
,
0110
1001
0010
0001
,
0010
0100
1000
0100
,
1000
0000
0001
0000
0100
0000
0010
0100
,
0010
0100
0010
0000
1000
0000
0100
0000
,
0010
1001
1000
1001
,
0001
0101
1000
1010
,
1001
0000
0010
0100
0010
0100
0010
0100
,
0010
2002
0000
0000
,
3003
0000
0010
0000
0100
0001
0000
0010
,
0000
0001
0010
0000
0001
1000
0000
0100
,
0000
1000
0100
0000
1000
0001
0000
0010
,
0000
0001
0100
0000
0100
0010
0000
1000
,
0000
1001
0000
0010
0100
0000
0001
0100
,
0001
0100
0001
1000
0010
1000
0010
1000
,
0010
0000
1000
0100
1000
0100
1000
0100
,
0010
0001
0010
0001
0010
0000
0101
0000
,
1001
0000
0100
0000
0010
0100
0000
0001
,
0000
0010
0000
0001
0010
0000
0010
0001
,
0000
1000
0000
0100
1000
0000
0001
0100
,
0010
0100
0020
0000
1000
0000
0001
0000
,
1030
0000
0001
0100
0010
0000
0100
0010
,
0100
0010
0000
0010
1000
0000
0001
0100
,
0010
1000
0000
1000
0010
0000
0010
0100
,
0010
0100
0001
0000
0010
0000
0100
0000
,
1000
0000
0001
0000
0100
0001
0100
1000
,
0000
0000
0010
0000
0010
1000
0010
0001
,
0000
0000
0100
0000
0100
0001
0100
1000
,
0000
0001
0100
0010
,
1000
0000
0001
0000
0010
0100
1000
0100
,
1000
0010
1000
0100
1000
0010
1000
0001
,
1000
0010
1000
0100
1000
0001
0100
0001
,
0100
0010
0100
1000
0100
0010
0100
0001
,
0100
0000
1001
0000
0001
0010
0100
1000
,
0000
0001
0000
1000
0000
0010
0000
0100
,
0000
0000
1001
0000
1000
0100
0010
0001
,
0000
1000
0000
0001
0000
0100
0000
0010
,
0000
0000
1001
0000
0010
0100
0010
0000
,
0100
0001
0100
0000
0010
1000
0010
0000
,
1000
0001
1000
0100
0010
0001
1000
0010
,
1000
0001
1000
0000
0000
0000
0000
0000
,
0000
0000
0001
0010
0001
0100
0001
1000
,
0001
0000
1000
0100
1000
0010
1000
0001
,
1000
0000
0001
0010
0100
1000
0010
1000
,
0010
0100
0010
0000
1000
0010
0000
0100
,
0001
0010
0100
1000
0001
0000
1000
0010
,
1000
0100
1000
0001
0100
0010
0100
1000
,
0100
0010
0100
0001
0100
0010
0100
1000
,
0100
0010
2002
0000
0000
0000
0000
0000
,
3003
0000
1000
0100
0010
0001
0010
0100
,
1000
0010
0100
0001
0010
0100
1000
0100
,
0010
0100
1000
0100
0010
0001
0010
0100
,
0010
0001
0010
0100
1000
0001
0100
0010
,
0100
0000
0001
0100
0010
0100
0001
0010
,
0100
1000
0001
0100
0010
0100
0001
0010
,
0100
1000
0001
0010
0001
0100
0001
1000
,
0001
0100
0001
0010
0100
1000
0100
0010
,
0001
0100
0010
0000
0000
0000
0000
1000
,
0001
0010
0100
1000
0000
0000
0000
0000
;

//---------------dance-single - ----------------
#NOTES:
     dance-single:
     :
     Challenge:
     9:
     0.692,0.682,0.108,0.049,0.000:
0000
0000
0000
0000
,
0000
0000
0000
0000
,
0000
0000
0000
0000
,
0000
0000
0000
0000
,
0000
0011
0100
1000
,
0100
0010
0001
0010
,
0100
1000
0010
0100
,
0001
0100
0010
1000
,
0010
0000
0100
0001
0000
0000
0010
1000
,
0000
0000
0100
0001
0000
0000
0010
1000
,
0000
0000
0100
0001
0000
0000
0010
1000
,
0000
0000
0100
0001
0010
0001
0010
0000
,
1001
0000
0100
1000
0100
0000
1000
0100
,
0001
0000
0010
0001
0010
0000
0001
0010
,
1000
0000
0010
1000
0010
0000
1000
0010
,
0001
0000
0100
0001
0100
0000
0001
0100
,
1000
0000
0100
1000
0100
1000
0000
0100
,
0010
0000
0001
0010
0001
0010
0000
0001
,
1000
0000
0010
1000
0010
1000
0000
0100
,
0001
0010
0010
0001
0010
0100
1000
0010
,
1000
0000
0001
0010
0100
1000
0001
0010
,
0100
1000
0100
0010
0001
1000
0100
0010
,
0001
0010
0100
1000
0001
0010
0100
1000
,
0100
1000
0100
1000
0100
0010
0001
0010
,
1000
0000
0100
0010
0100
0010
0100
0010
,
0100
0010
0001
1000
0001
1000
0001
1000
,
0001
1000
0100
0010
0100
0010
1000
0001
,
1000
0001
2002
0000
0000
0000
0000
0000
,
3003
0000
1000
0000
0010
0100
0000
0100
,
0010
1000
0100
1000
0010
0100
0000
0100
,
0010
0100
0001
0010
0001
0100
0000
0100
,
0001
0010
0001
1000
0010
0100
0000
0011
,
0000
1100
0000
0010
0100
0000
0001
0100
,
0001
0010
0001
0100
0001
1000
0001
0100
,
0001
0010
0001
0100
0010
1000
0010
1000
,
0010
0100
0010
1000
0010
0100
0011
0000
,
1010
0000
0010
0000
0100
0010
0000
0100
,
0000
0100
0010
1000
0100
1000
0001
1000
,
0010
0100
0000
0100
0010
0000
0010
0100
,
0001
1000
0001
0010
0100
0000
1000
0000
,
0010
0001
0000
0001
0100
0001
0100
0010
,
1000
0010
0000
0010
1000
0000
1000
0010
,
1000
0100
1000
0010
1000
0001
1000
0010
,
1000
0100
1000
0001
1000
0000
0010
0000
,
1000
0100
0010
0000
0001
1000
0100
0001
,
0000
0100
0010
1000
0100
1000
0010
0001
,
0000
0010
0100
1000
0010
1000
0010
0001
,
0000
0100
0001
0010
0100
1000
0100
0010
,
0001
0010
0001
0000
0100
0010
1000
0001
,
0100
1000
0100
1000
0001
0100
0001
0010
,
0001
0100
0001
1000
0001
0100
0001
0010
,
0001
0100
0001
0100
0010
1000
0010
1000
,
0010
0100
0002
0000
1003
0100
0010
0001
,
0000
0100
1000
0000
0010
0001
0000
0110
,
0000
0000
2000
0000
3001
0010
0100
1000
,
0000
0100
0001
0000
0010
1000
0000
0110
,
0000
0000
1001
0000
1000
0100
0010
0000
,
0001
0010
0100
0000
1000
0010
0100
0000
,
0001
0100
0010
1000
0100
1000
0100
0010
,
0001
0100
0020
0000
0000
0000
0000
0000
,
0030
0000
1000
0010
1000
0100
1000
0010
,
1000
0001
1000
0010
1000
0100
1000
0010
,
0100
0001
0100
0001
0100
0010
0100
1000
,
0100
0010
0100
0001
0100
0010
0100
1000
,
0100
0010
0001
0100
0001
0010
0001
0100
,
0001
1000
0001
0100
0001
0100
0010
1000
,
0010
0100
0010
0001
0010
0100
0010
1000
,
0010
0100
0001
0100
1000
0100
0001
0100
,
1000
0100
0010
0001
0010
0100
0010
0001
,
0010
0100
1000
0100
0010
0100
1000
0100
,
0010
0001
0010
0100
0010
0001
0010
1000
,
0010
0100
0001
1000
0100
0001
0100
0010
,
1000
0000
0001
0100
0010
0100
0001
0010
,
0100
1000
0001
0100
0010
0100
0001
0010
,
0100
1000
0001
0100
0010
0100
0001
0010
,
0100
1000
0100
0001
0010
1000
0100
1000
,
0001
1000
0001
0000
0000
0000
0000
1001
,
1000
0010
0100
0001
0000
0000
0000
0000
;

//---------------dance-single - ----------------
#NOTES:
     dance-single:
     :
     Medium:
     7:
     0.427,0.606,0.176,0.010,0.000:
0000
0000
0000
0000
,
0000
0000
0000
0000
,
0000
0000
0000
0000
,
0000
0000
0000
0000
,
0000
0000
0000
0000
,
0000
0000
0000
0000
,
0000
0000
0000
0000
,
0000
0000
0000
0000
,
0000
0001
0000
0000
,
0000
0001
0000
0000
,
0000
0001
0000
1000
,
0000
0001
0000
0000
,
0000
1001
1000
0000
,
0100
0000
1000
0000
,
0100
0000
1000
0000
,
0001
0000
0100
0000
,
0001
0000
0010
0000
,
0001
0000
1000
0000
,
0100
0000
1000
0000
,
0001
0000
0000
0000
0100
0000
0000
0010
,
0100
0001
0001
0001
,
0001
1000
1000
1000
,
1000
0010
0010
0010
,
0010
0100
0100
0100
,
0100
1001
0000
0011
,
0000
1100
0000
0110
,
0001
0100
0010
1000
,
0001
2000
0000
0000
,
0000
0000
3001
0000
0100
0010
0000
1000
,
0000
0010
0100
0000
0001
0010
0000
0001
,
0000
1000
0010
0000
0010
0100
0000
0010
,
0000
1000
0010
0000
0010
0100
0000
0001
,
0000
0010
0000
0001
0010
0000
0001
0000
,
0010
0100
1000
0100
,
0010
0001
0010
0100
,
1000
0100
0010
0001
,
1001
0000
1000
0000
0010
0100
0000
0001
,
0000
0010
0000
0001
0100
0000
0010
0000
,
1000
0100
0000
0100
1000
0000
0010
0100
,
0010
0100
0001
0000
0010
0000
0100
0000
,
1000
0000
0100
1000
0010
0000
0100
0000
,
0001
0100
0000
0100
0001
0000
0010
0000
,
0001
0100
0000
0010
1000
0000
0100
0000
,
1000
0010
0100
0000
0001
0000
0010
0000
,
0001
0000
1000
0000
0001
0100
0010
0100
,
0000
0000
0010
0000
1000
0010
0100
0010
,
0000
0000
0100
0000
0001
0100
0010
0100
,
0000
0001
0010
0100
,
1000
0100
0010
0001
,
0010
0001
0010
0100
,
1000
0100
1000
0100
,
1000
0100
1000
0100
,
0010
0000
0001
0000
1000
0000
0001
1000
,
0000
0010
0000
0010
0000
0010
0000
0010
,
0000
0000
1000
0000
0001
0000
1000
0001
,
0000
0100
0000
0100
0000
0100
0000
0100
,
0000
0001
0010
0100
,
1000
1001
0100
1001
,
0100
0001
0100
0000
0010
1000
0010
0000
,
0100
0010
0100
0000
0000
0000
0000
0000
,
0000
0000
0001
0000
0010
0100
0000
0010
,
0000
0001
1000
0000
0001
0100
0000
0010
,
0000
0100
0001
0000
0001
1000
0000
0100
,
0000
1000
0010
0000
0010
0100
0000
1001
,
0000
1001
0000
0010
0100
0000
1000
0000
,
0100
0010
0001
0010
,
0001
0010
0100
1000
,
0010
0000
1000
0001
1000
0001
1000
0001
,
1000
0000
0001
0010
0001
0000
0011
0000
,
1001
0000
1000
0100
1000
0000
1100
0000
,
1001
0000
0001
0100
0001
0000
0101
0000
,
1001
0000
1000
0010
1000
0000
1010
0000
,
1001
0000
0001
0010
0001
1000
0100
0010
,
0001
0000
1000
0100
1000
0001
0010
0100
,
1000
0000
0001
0100
0001
1000
0100
0010
,
0001
0000
1000
0010
1000
0001
0010
0100
,
1000
0001
1000
0000
0000
0000
0000
0010
,
0100
0010
0100
0010
0000
0000
0000
0000
;

//---------------dance-single - ----------------
#NOTES:
     dance-single:
     :
     Beginner:
     2:
     0.119,0.187,0.020,0.000,0.000:
0000
0000
0000
0000
,
0000
0000
0000
0000
,
0000
0000
0000
0000
,
0000
0000
0000
0000
,
0000
0000
0000
0000
,
0000
0000
0000
0000
,
0000
0000
0000
0000
,
0000
0000
0000
0000
,
0000
1000
0000
0000
,
0000
0000
0000
0000
,
0000
0001
0000
0000
,
0000
0000
0000
0000
,
1000
0000
0001
0000
,
1000
0000
0001
0000
,
1000
0000
0001
0000
,
1000
0000
0001
0000
,
0001
0000
1000
0000
,
1000
0000
0001
0000
,
0001
0000
1000
0000
,
1000
0000
0001
0000
,
0001
0000
0000
0000
,
0000
0000
0000
0000
,
0000
0000
0000
0000
,
0000
0000
0000
0000
,
0000
0010
0000
0000
,
0000
0010
0000
0000
,
0000
0100
0000
0000
,
0000
1001
0000
0000
,
0000
0001
0000
0000
,
0000
0000
0000
0000
,
0000
1000
0000
0000
,
0000
0000
0000
0000
,
0000
0001
0000
0000
,
0000
0000
0000
0000
,
0000
1000
0000
0000
,
0000
0000
0000
0000
,
0000
0010
0000
0000
,
0000
0000
0000
0000
,
0000
0100
0000
0000
,
0000
0000
0000
0000
,
0000
0010
0000
0000
,
0000
0000
0000
0000
,
0000
1000
0000
0000
,
0000
0000
0000
0000
,
0000
0001
0000
1000
,
0000
0001
0000
1000
,
0000
0001
0000
0100
,
0000
0010
0000
0000
,
0000
0100
0000
0010
,
0000
1000
0000
0001
,
0000
1000
0000
0010
,
0000
0100
0000
0010
,
0000
1001
0000
0000
,
0000
0000
0000
0000
,
0000
1000
0000
0000
,
0000
0000
0000
0000
,
0000
0001
0000
0000
,
0000
0000
0000
0000
,
0000
1000
0000
0000
,
0000
0001
0000
0000
,
0000
1000
0000
1000
,
0000
1000
0000
1000
,
0000
0001
0000
0001
,
0000
0001
0000
0001
,
0000
1000
0000
1000
,
0000
1000
0000
1000
,
0000
0001
0000
0001
,
0000
0001
0000
0000
,
0000
1000
0000
0001
,
0000
1000
0000
0001
,
0000
1000
0000
0001
,
0000
1000
0000
0001
,
0000
0100
0000
0010
,
0000
0100
0000
0010
,
0000
1000
0000
0001
,
0000
1000
0000
0001
,
0000
1000
0000
0000
;

//---------------dance-double - ----------------
#NOTES:
     dance-double:
     :
     Easy:
     4:
     0.274,0.341,0.069,0.166,0.000: // measure 1
00000000
00000000
00000000
00000000
,  // measure 2
00000000
00000000
00000000
00000000
,  // measure 3
00000000
00000000
00000000
00000000
,  // measure 4
00000000
00000000
00000000
00000000
,  // measure 5
00000000
00000000
00000000
00000000
,  // measure 6
00000000
00000000
00000000
00000000
,  // measure 7
00000000
00000000
00000000
00000000
,  // measure 8
00000000
00000000
00000000
00000000
,  // measure 9
00000000
10000000
00000000
00000000
,  // measure 10
00000000
10000000
00000000
00000000
,  // measure 11
00000000
00010000
00000000
00000000
,  // measure 12
00000000
00010000
00000000
00000000
,  // measure 13
10010000
00000000
00010000
00000000
,  // measure 14
10000000
00000000
00010000
00000000
,  // measure 15
10000000
00000000
00010000
00000000
,  // measure 16
00001000
00000000
00000001
00000000
,  // measure 17
00001000
00000000
00000001
00000000
,  // measure 18
00001000
00000000
00010000
00000000
,  // measure 19
10000000
00000000
00010000
00000000
,  // measure 20
10000000
00020000
00000000
00000000
,  // measure 21
00000000
20030000
00000000
00000000
,  // measure 22
00000000
32000000
00000000
00000000
,  // measure 23
00000000
03200000
00000000
00000000
,  // measure 24
00000000
00320000
00000000
00000000
,  // measure 25
00000000
00031000
00000000
00001000
,  // measure 26
00000000
00000001
00000000
00000001
,  // measure 27
00001000
00010000
00010000
10000000
,  // measure 28
10000000
10010000
00000000
00000000
,  // measure 29
00000000
00100000
00000000
00100000
,  // measure 30
00000000
00010000
00000000
00010000
,  // measure 31
00000000
00001000
00000000
00001000
,  // measure 32
00000000
00000010
00000000
00000010
,  // measure 33
00000100
00000020
00000000
00000000
,  // measure 34
00000000
00000000
00000000
00000000
,  // measure 35
00000000
00000230
00000000
00000000
,  // measure 36
00000000
00000000
00000000
00000310
,  // measure 37
00001001
00010000
00000000
00010000
,  // measure 38
00000000
10000000
00000000
10000000
,  // measure 39
00100000
00000000
00100000
00000000
,  // measure 40
00100000
10000000
01000000
00100000
,  // measure 41
00010000
00001000
00000000
00001000
,  // measure 42
00000000
00000010
00000000
00000010
,  // measure 43
00000000
00000100
00000000
00000100
,  // measure 44
00000000
00000001
00000010
00000100
,  // measure 45
00001000
00020000
00000000
20030000
,  // measure 46
00000000
30010000
01000000
00200000
,  // measure 47
00000000
01300000
00010000
20000000
,  // measure 48
00000000
31000000
00100000
00020000
,  // measure 49
00000000
00031000
00000010
00000200
,  // measure 50
00000000
00000301
00000100
00000020
,  // measure 51
00000000
00001030
00010000
00200000
,  // measure 52
00000000
10300000
01000000
00100000
,  // measure 53
00010000
00100000
00000000
00100000
,  // measure 54
00000000
00100000
00000000
00000000
,  // measure 55
00000000
01000000
00000000
01000000
,  // measure 56
00000000
01000000
00000000
00000000
,  // measure 57
00000000
10000000
00000000
10000000
,  // measure 58
00000000
10000000
00000000
00011000
,  // measure 59
00000000
00000001
00001000
00000001
,  // measure 60
00001000
00000001
00000000
00000000
,  // measure 61
00000000
00000001
00000010
00000100
,  // measure 62
00001000
00000010
00000100
00000001
,  // measure 63
00000010
00000001
00000100
00000010
,  // measure 64
00001000
00010000
01000000
00100000
,  // measure 65
10000000
00100000
10000000
01000000
,  // measure 66
00100000
00010000
00001000
00000100
,  // measure 67
00000010
00000001
00000010
00000100
,  // measure 68
00001000
00022000
00000000
00000000
,  // measure 69
00033000
00010000
00100000
01000000
,  // measure 70
10000000
01000000
00100000
00010000
,  // measure 71
00001000
00000100
00000010
00000001
,  // measure 72
00000100
00000010
00001000
00010000
,  // measure 73
00100000
01000000
10000000
01000000
,  // measure 74
00100000
00010000
00001000
00000010
,  // measure 75
00000100
00000001
00000100
00000010
,  // measure 76
00001000
00010000
00100000
00010000
,  // measure 77
00001000
00000000
00000110
00000000
00000000
00000000
00000000
00001000
,  // measure 78
00000000
00010000
00000000
01100000
00000000
00000000
00000000
00000000
;
