#TITLE:BANYA-P CLASSICAL MIX;
#SUBTITLE:;
#ARTIST:BanYa Production;
#TITLETRANSLIT:;
#SUBTITLETRANSLIT:;
#ARTISTTRANSLIT:;
#CREDIT:DMAxel;
#BANNER:BANYA-P CLASSICAL MIX.png;
#BACKGROUND:BANYA-P CLASSICAL MIX-bg.png;
#LYRICSPATH:;
#CDTITLE:PUMP IT UP.png;
#MUSIC:BANYA-P CLASSICAL MIX.mp3;
#OFFSET:-2.060;
#SAMPLESTART:87.600;
#SAMPLELENGTH:15.000;
#SELECTABLE:YES;
#DISPLAYBPM:92.000:180.000;
#BPMS:0.000=92.000,90.313=168.000,209.000=45.000,227.000=90.000,231.000=180.000;
#STOPS:;
#BGCHANGES:-2.500=BANYA-P CLASSICAL MIX.avi=1.000=1=1=0,
99999=-nosongbg-=1.000=0=0=0 // don't automatically add -songbackground-
;

//---------------dance-single - ----------------
#NOTES:
     dance-single:
     :
     Easy:
     3:
     0.234,0.320,0.152,0.061,0.000: // measure 1
0000
0000
0000
0000
,  // measure 2
0000
0000
0000
0000
,  // measure 3
1001
0000
0000
0000
,  // measure 4
1000
1000
1000
0001
,  // measure 5
0010
0000
0010
0001
,  // measure 6
0010
0000
0100
0000
,  // measure 7
0100
0000
0100
1000
,  // measure 8
0100
0000
0000
0000
,  // measure 9
1001
0000
1000
0010
,  // measure 10
1001
0000
0011
0000
,  // measure 11
0001
0000
0001
1000
,  // measure 12
0001
0001
0001
0001
,  // measure 13
0100
0010
0100
0001
,  // measure 14
2000
0000
3001
0000
,  // measure 15
0020
0000
0001
0000
,  // measure 16
0032
0000
1003
0010
,  // measure 17
1001
0001
0010
0100
,  // measure 18
2000
0000
3001
0010
,  // measure 19
0002
0000
0203
0000
,  // measure 20
0320
0000
1030
0000
,  // measure 21
1000
0001
1000
0000
,  // measure 22
1100
0000
1001
0000
,  // measure 23
0011
0000
0000
0000
,  // measure 24
0000
1000
0000
0010
,  // measure 25
1000
0010
1000
0000
,  // measure 26
1000
0001
1000
0000
,  // measure 27
0001
0010
0001
0000
,  // measure 28
0000
1001
0000
0010
,  // measure 29
0001
1001
0000
0100
,  // measure 30
1000
0100
0100
0100
,  // measure 31
0100
1000
0001
0000
,  // measure 32
0000
0001
0010
0000
,  // measure 33
0010
0001
0010
0000
,  // measure 34
0001
1000
0100
0000
,  // measure 35
0100
1000
1000
0000
,  // measure 36
0000
1001
0000
1000
,  // measure 37
0010
0110
0000
0001
,  // measure 38
0100
0110
1000
0001
,  // measure 39
1000
0010
0110
0000
,  // measure 40
0000
1000
0000
0000
,  // measure 41
0000
0002
0000
0000
,  // measure 42
0000
1003
1000
0000
,  // measure 43
0010
0100
0010
0000
,  // measure 44
1000
0001
1000
0000
,  // measure 45
0001
0100
0001
0000
,  // measure 46
1000
1000
0100
0000
,  // measure 47
1000
0010
1000
0000
,  // measure 48
0100
1000
0100
0000
,  // measure 49
1000
0001
0001
0010
,  // measure 50
0010
0001
0001
1000
,  // measure 51
1000
0100
1000
0100
,  // measure 52
1000
0001
1000
0001
,  // measure 53
0000
0001
0000
1000
,  // measure 54
0000
0001
0001
1000
,  // measure 55
1000
1100
0010
0011
,  // measure 56
0100
1001
0010
1001
,  // measure 57
1000
0100
0010
0001
,  // measure 58
0001
1000
1000
1000
,  // measure 59
0000
0001
0000
1000
,  // measure 60
0000
0010
0110
0001
,  // measure 61
0000
1000
0000
0001
,  // measure 62
0000
0100
0110
1000
,  // measure 63
0001
1000
0001
1000
,  // measure 64
0001
0100
0110
0001
,  // measure 65
1000
0001
0000
1000
,  // measure 66
0001
1000
0000
0010
,  // measure 67
0100
0010
0100
0010
,  // measure 68
0100
0010
1000
0100
,  // measure 69
1000
0100
1000
0100
,  // measure 70
1000
0001
0010
0001
,  // measure 71
0010
0001
0010
0001
,  // measure 72
0010
0001
1000
0010
,  // measure 73
1000
0010
1000
0010
,  // measure 74
1000
0010
0100
0001
,  // measure 75
0100
0001
0100
0010
,  // measure 76
0100
0010
0100
0010
,  // measure 77
1000
0010
1000
0001
,  // measure 78
1000
0001
0010
1100
,  // measure 79
0000
0000
0000
1100
,  // measure 80
0000
0101
0000
2002
,  // measure 81
0000
0000
0000
3003
;

//---------------dance-single - ----------------
#NOTES:
     dance-single:
     :
     Medium:
     6:
     0.369,0.418,0.317,0.171,0.009:
0000
0000
0000
0000
,
0000
0000
0000
0000
,
1000
0000
0000
1001
0000
0000
0000
0000
0100
0000
0010
0000
0001
0000
0010
0000
,
1000
1100
0101
1100
,
0002
0000
0000
0000
0103
0001
1000
0100
,
0020
0000
0000
0031
2000
0000
0000
0000
,
3020
0000
1030
0100
,
0020
0000
0000
0000
0000
0000
0031
1000
,
0001
0000
0000
1001
0000
0000
0000
0000
1000
0000
0100
0000
0010
0000
0001
0000
,
0100
0000
0000
0001
1100
1100
0000
0000
,
2000
0000
0000
3010
0100
0001
0010
0100
,
2000
0000
3002
0000
,
1003
0000
0100
0000
0010
0000
0001
0100
,
0020
0000
0000
1030
0001
0000
0010
0100
,
2000
0000
0000
3001
0100
0000
0010
0000
,
2000
0000
0000
3001
0100
0010
0100
0000
,
1001
0000
0010
0000
0100
0000
1000
0010
,
0200
0000
0000
0301
1000
0000
0100
1000
,
0020
0000
0000
1030
0001
0000
0010
0100
,
1000
1010
1001
0000
,
0000
0001
0000
0000
0001
0000
0100
0000
0010
0000
0100
0000
0100
0000
0100
0000
,
0101
0000
0000
1010
1001
0000
0011
0000
,
1001
0000
0000
1100
1001
0000
0000
0000
,
0000
0000
1000
0000
0001
0000
0000
0100
,
0001
0000
1000
0000
1000
0000
0000
0010
,
1000
0000
0001
0000
0001
0000
0000
0100
,
0001
0000
0011
0000
1001
0000
0000
0001
,
1000
0000
1000
0010
0000
0010
0100
0000
,
0101
0000
0001
0100
0000
0100
0010
0000
,
1010
0000
1000
0001
1000
0000
0010
0100
,
0010
1010
1000
1001
,
0000
0000
0001
0100
0001
0000
0100
0000
,
0010
0000
0100
0010
0100
0000
0001
0000
,
1000
0000
0010
1000
0010
0000
1000
0000
,
0001
0000
0101
0000
1001
0000
0000
1000
,
0001
0000
0001
0100
0000
0100
0010
0000
,
1010
0000
1000
0010
0000
0010
0100
0000
,
0101
1001
0010
1000
,
0100
0101
0001
1001
,
0000
0000
1000
0000
1000
0100
0000
0010
,
0001
0202
0000
0000
,
0303
0000
0001
0010
0001
0000
1000
0000
,
0010
0000
0100
0000
0101
0000
0000
0010
,
1000
0000
1000
0100
1000
0000
0010
0000
,
0100
0000
0101
0000
1001
0000
0000
0100
,
0001
0000
0001
0010
0001
0000
0100
0000
,
0010
0000
1010
0000
1001
0000
0000
0100
,
1000
0000
1000
0010
1000
0000
0100
0000
,
0010
1001
0000
0011
,
0000
1010
0000
0101
,
0000
1001
0100
0001
,
0010
0000
1000
0000
0100
0000
0001
1000
,
0001
1000
0001
0100
0100
0010
0100
0001
,
0000
0001
1000
0100
1000
0010
0200
0000
,
0320
0000
1030
0100
0010
0001
0200
0000
,
0320
0000
0130
0001
0010
0100
2000
0000
,
3002
0000
2003
0000
3020
0000
0130
0010
,
0100
0010
0200
0000
0000
0000
0310
0000
,
1000
0001
1000
0001
,
1000
0010
0110
0001
,
1000
0001
1000
0001
,
1000
0010
0110
0001
,
1000
0100
0010
0001
,
0010
0100
1001
0010
,
0100
1001
1001
0100
,
0010
0000
1001
0000
1001
0000
0001
0100
,
0001
0010
0100
1000
,
0100
0000
0001
0000
0100
0000
1000
0010
,
1000
0100
0010
0001
,
0010
0000
1000
0000
0010
0000
0001
1000
,
0001
0010
0100
1000
,
0010
0000
0001
0000
0010
0000
1000
0001
,
1000
0100
0010
0001
,
0100
0000
1000
0000
0100
0000
0001
1000
,
0001
0000
1000
0010
1000
0000
0001
1000
,
0001
0000
0100
0001
0100
0000
0010
0100
,
0010
0000
1000
0001
1000
0000
0001
1000
,
0001
0000
0100
0010
0100
0000
0202
0000
,
0000
0000
0303
0011
,
0000
1010
0000
2002
,
0000
0000
0000
3003
;

//---------------dance-single - ----------------
#NOTES:
     dance-single:
     :
     Hard:
     8:
     0.489,0.590,0.396,0.152,0.104:
0000
0000
0000
0000
,
0000
0000
0000
0000
,
0101
0000
0000
0101
0000
0000
0000
0001
1000
0000
0100
0000
1000
0000
0100
0010
,
0000
0011
1010
0011
,
1002
0000
0000
0000
0013
0100
1000
0010
,
0200
0000
0000
0301
2000
0000
0000
3001
,
2000
0000
0000
0000
3100
0010
0001
0100
,
0020
0000
0000
1030
0001
0010
1000
0001
,
1100
0000
0000
1010
0000
0000
0000
0000
1000
0010
1000
0000
0010
0100
0001
0000
,
0101
0000
0000
0000
0000
0000
0101
0000
1000
0100
1000
0000
0000
0000
0000
0000
,
0002
0000
0000
0103
0010
1000
0100
0010
,
0001
0010
1000
0100
0002
0000
0000
0003
,
1001
0000
0101
0000
1100
0000
0100
0001
,
0020
0000
0000
0031
1000
0000
0100
0010
,
0002
0000
0000
1003
0010
0000
0100
0001
,
0020
0000
0000
0000
0000
0000
0031
0000
0010
0000
1000
0000
0010
0000
1000
0001
,
1000
0000
1010
0000
0011
0000
0010
1000
,
0200
0000
0000
1300
0001
0000
0010
0001
,
0200
0000
0000
0000
0000
0000
0301
0000
1000
0000
0100
0000
0010
0000
0001
1000
,
0001
0000
0000
0000
0101
0000
0000
0000
1000
0001
0000
0001
0100
0000
0100
0000
,
0000
1010
0000
0001
1000
0000
0010
0000
0100
0000
0010
0100
0010
0100
0010
0100
,
0010
1010
0000
0000
0000
0000
1000
0010
0100
0101
0000
0000
0001
1000
0001
0000
,
0010
0011
0000
0000
0000
0000
1000
0001
1000
0000
0000
0000
1100
0000
0000
0000
,
1001
0000
0001
0100
0001
0000
0000
0010
,
0001
0100
0001
0010
0100
0000
0000
0100
,
1000
0010
1000
0100
0010
0000
0000
0010
,
0001
0100
0110
0000
1001
0000
0000
0010
,
1000
0010
1000
1001
0000
0010
0001
0000
,
0101
0000
0010
1001
0000
0100
1000
0000
,
1001
0000
1000
0100
1000
0010
0100
0001
,
0010
1000
0100
0000
0101
0000
1001
0000
,
0000
0000
1000
0100
1000
0000
0100
0010
,
0001
0100
0010
0100
0001
0000
0010
0100
,
1000
0010
0100
0010
1000
0000
0010
0100
,
0001
0100
0110
0000
1001
0000
0010
0001
,
0010
0001
1000
1001
0000
0100
1000
0000
,
1010
0000
0100
1001
0000
0010
0001
0000
,
1001
0000
0001
0010
0001
0100
0010
1000
,
0100
0001
0100
0000
0101
0000
1001
0000
,
0000
0000
1000
0000
0001
0010
0000
0010
,
1000
2002
0000
0000
,
3003
0000
0001
0100
0001
0000
0100
0010
,
1000
0001
0010
0001
1000
0000
0010
0100
,
0001
1000
0100
1000
0001
0000
0010
0100
,
1000
0010
0110
0000
1001
0000
0000
0010
,
1000
0010
1000
0100
0001
0000
0010
0100
,
1000
0001
0101
0000
1001
0000
0000
0100
,
0001
0100
0001
0010
1000
0000
0100
0010
,
0001
1000
1010
0000
1000
0000
0101
0000
,
0001
1010
1000
1001
,
0001
0000
1000
0100
1000
0010
0100
0001
,
0010
1000
0100
0010
0001
0010
2000
0000
,
0000
0000
0000
0000
0000
0000
0000
0000
3001
0000
0000
0000
0100
0000
0000
0001
0000
0000
0000
0000
0010
0000
0100
0000
1000
0000
0000
0000
1000
0000
0000
0000
,
0000
0000
0100
0010
0001
0000
0001
0000
0010
0000
0100
1000
0200
0000
0000
1300
,
0002
0000
0000
0000
1003
0000
0100
0000
0010
0000
0100
0000
2000
0000
0000
3001
,
0200
0000
0000
0000
0301
0000
0010
0000
0100
0000
0010
0000
0001
1000
0001
0000
,
1000
0010
1000
0000
0002
0000
0000
0000
2003
0000
0001
0001
3001
0000
0010
0000
,
0100
0000
1000
0000
0001
0010
0001
0000
0100
0010
0100
0010
0100
0000
0000
0000
,
0001
0010
1000
0000
0100
0010
0001
0000
,
0010
0100
1000
0001
1001
0000
0010
0000
,
1000
0100
0001
0000
0010
0100
1000
0000
,
0100
0010
0001
1000
1001
0000
0010
1000
,
0100
1000
0010
0100
0001
0010
0100
1000
,
0100
0001
0100
1000
1001
0000
0100
0001
,
0010
0001
0100
0100
0100
0000
0010
1000
,
0100
1000
0010
0010
0010
1000
0001
0010
,
0001
0000
0100
0010
1000
0100
0010
0001
,
0010
0100
1000
0000
1001
0000
1000
0100
,
1000
0000
0010
0100
0001
0010
0100
1000
,
0100
0010
0001
1000
0100
0000
1001
0000
,
0001
0100
0001
0000
0010
0100
1000
0010
,
0100
0001
0100
0010
1000
0000
1001
0000
,
1000
0010
1000
0000
0100
0010
0001
0100
,
0010
1000
0010
0100
0001
0000
1001
0000
,
0101
0000
0100
0001
1000
0000
1001
0000
,
1010
0000
0010
1000
0001
0000
1001
0000
,
1100
0000
0100
1000
0001
0000
1001
0000
,
0011
0000
0010
0001
1000
0000
2200
0000
,
0000
0000
3300
0011
,
0000
1010
0000
2002
,
0000
0000
0000
3003
;

//---------------dance-single - ----------------
#NOTES:
     dance-single:
     :
     Challenge:
     9:
     0.594,0.738,0.353,0.152,0.283:
0000
0000
0000
0000
,
0000
0000
0000
0000
,
1001
0000
0000
0011
0000
0000
0000
0001
1000
0000
0100
0000
1000
0000
0010
0100
,
0001
0000
0001
0100
0001
0000
0001
0010
0001
0000
0100
0000
1100
0000
1000
0001
,
2000
0000
0100
0000
3100
0010
0001
0010
,
2000
0000
0000
3100
0002
0000
0000
0013
,
2000
0000
0000
3100
0010
0001
1000
0010
,
0200
0000
0000
0000
0000
0000
0301
0010
0001
0010
0100
1000
0100
1000
0010
0100
,
1001
0000
0000
1010
0000
0000
0000
0000
0010
0001
0100
0000
0100
0010
0100
0000
,
1001
0000
0001
0010
0000
0000
1010
0000
0010
0100
0101
0000
0000
0001
0000
0000
,
2000
0000
0000
3100
0010
0001
1000
0100
,
0001
0000
1000
0100
1000
0100
0010
0001
0200
0000
0000
0000
0310
0100
0010
0000
,
2000
0000
3200
0000
0302
0000
0013
0100
,
2000
0000
0000
3001
0100
0000
0100
0001
,
0020
0000
0000
0031
2000
0000
3100
0010
,
0002
0000
0000
0000
0000
0000
0013
0000
0100
0000
1000
0010
0100
0000
0100
0010
,
0102
0000
0023
0000
2030
0000
3100
0010
,
0002
0000
0000
1003
0010
0000
0010
1000
,
0200
0000
0000
0000
0000
0000
1300
0000
0001
0000
0010
0000
0100
0000
1000
0001
,
1000
0000
0000
0000
1010
0000
0000
0000
0010
0001
0000
0001
0100
0000
0100
0010
,
0000
0101
0000
0001
1000
0000
1100
0000
1000
0001
0010
0001
0010
0001
0010
0001
,
0100
1100
0000
0000
1000
0000
0100
1000
0010
0011
0000
0000
0001
1000
0001
0000
,
0100
0101
0000
0001
1000
0000
0010
1000
0010
0000
0000
0000
0011
0000
0000
0000
,
1001
0000
1000
0100
0001
0000
0010
0100
,
1000
0010
1000
0100
0001
0000
0010
0100
,
1000
0010
1000
0100
0001
0000
0010
0100
,
1000
0010
0011
0000
1001
0000
1000
0100
,
0001
0000
0010
0000
1100
0000
1001
0000
0000
0000
0001
0000
0010
0001
0010
0000
,
1001
0000
0000
0000
0011
0000
1001
0000
0000
0000
1000
0000
0100
1000
0100
0000
,
1001
0000
0001
0010
1000
0100
0010
0001
,
0100
0000
0000
0001
0000
0000
0010
0000
0000
0000
0000
0000
0001
0000
1000
0000
0001
0000
1000
0000
0000
0000
0000
0000
,
0100
0010
0001
0100
0001
0000
1000
0001
,
0100
1000
0010
0100
0010
0000
1000
0001
,
0010
1000
0010
0100
0010
0000
1000
0100
,
0001
0010
0110
0000
1001
0000
1000
0100
,
0001
0000
0010
0000
0011
0000
1001
0000
0000
0000
1000
0000
0100
1000
0100
0000
,
1001
0000
0000
0000
1100
0000
1001
0000
0000
0000
0001
0000
0010
0001
0010
0000
,
1001
0000
0001
0010
0100
1000
0100
0001
,
0010
0000
0000
1000
0000
0000
0010
0000
0000
0000
0000
0000
1000
0000
0001
0000
1000
0000
0001
0000
0000
0000
0000
0000
,
1000
0000
0001
0000
0001
0010
0000
0010
,
0100
0000
0100
1000
0100
1000
0100
1000
,
0100
0000
1000
0100
0001
0000
0010
0100
,
1000
0010
1000
0100
0001
0000
0010
0100
,
1000
0001
1000
0100
0001
0000
0010
0100
,
1000
0010
0110
0000
1001
0000
1000
0001
,
0010
1000
0010
0100
0001
0000
0010
0100
,
1000
0010
0110
0000
1001
0000
0001
1000
,
0100
0001
0100
0010
1000
0000
0100
0010
,
0001
0100
0101
0000
0001
1000
1010
0000
,
1000
0001
0101
0000
0001
1000
1001
0000
,
1000
0001
1000
0100
0010
0001
0010
1000
,
0100
0001
0010
0100
1000
0001
0100
0010
,
0100
0000
0000
0000
0010
0000
0000
0000
0100
0000
0001
0000
0100
0010
0000
0010
0000
0000
1000
0000
0001
0000
0010
0000
0100
0000
0000
0000
1100
0000
0000
0000
,
1000
0001
1000
0100
0010
0000
0011
0000
1001
0000
0010
0001
0100
0000
0100
0010
,
1000
0000
0100
0010
0001
0000
0101
0000
1100
0000
0101
0000
1001
0000
0100
1000
,
0010
0000
0010
0100
0001
0000
0101
0000
1100
0000
0101
0000
1001
0010
0100
1000
,
0010
0000
0100
0000
0001
0000
0100
0000
1000
0000
0001
0000
1000
0000
0100
0000
0001
0000
1000
0000
0001
0001
0001
0000
1000
0000
0010
0000
1000
0000
0000
0000
,
0010
0100
0010
0000
1000
0010
0100
0001
0010
0100
0010
0100
1000
0000
0001
0000
,
1000
0100
0001
0001
0010
0100
1000
1000
,
0100
0010
0001
1000
1001
0000
0001
1000
,
0001
0010
1000
1000
0100
0010
0001
0001
,
0010
0100
1000
0001
1001
0000
0100
0001
,
0010
1000
0100
0001
0010
0100
0010
0001
,
0010
1000
0010
0001
1001
0000
0010
1000
,
0100
0000
0001
0000
1000
0000
0010
0100
0010
0000
1000
0000
0010
0000
1000
0000
,
0100
0000
0001
0000
1000
0000
0010
0100
0010
0000
1000
0000
0001
0000
0010
0000
,
0001
0010
0001
0100
1000
0100
0010
0001
,
0100
0000
0010
0000
1000
0000
0001
1000
0001
0000
1000
0000
0001
0000
0100
0000
,
0001
0100
0001
0010
1000
0100
0010
0001
,
0100
0000
0010
0000
1000
0000
0001
1000
0001
0000
1000
0000
0010
0000
0100
0000
,
0010
0100
0010
1000
0100
0001
0010
0100
,
0010
0000
0001
0000
1000
0000
0010
0100
0010
0000
1000
0000
0010
0000
0100
0000
,
0010
0100
0010
1000
0100
0001
0010
0100
,
0010
0000
0001
0000
1000
0000
0010
0100
0010
0000
1000
0000
0001
0000
0000
0001
,
0100
0000
0000
0100
0010
0000
0000
0010
1000
0000
0001
0000
1000
0000
0000
1000
,
0010
0000
0000
0010
0100
0000
0000
0100
0001
0000
1000
0000
0001
0000
0000
0001
,
0010
0000
0000
0010
0100
0000
0000
0100
1000
0000
0001
0000
1000
0000
0000
1000
,
0100
0000
0000
0100
0010
0000
0000
0010
0001
0000
1000
0000
0001
0000
0010
0000
,
1000
0100
0001
0010
0100
1000
2020
0000
,
3030
0022
0033
2002
,
0000
0000
0000
3003
;
