#TITLE:BALLAD THE FEATHERS;
#SUBTITLE:;
#ARTIST:S.S.D.FANTASICA feat. Naomi Koizumi;
#TITLETRANSLIT:;
#SUBTITLETRANSLIT:;
#ARTISTTRANSLIT:;
#CREDIT:DMAxel;
#BANNER:BALLAD THE FEATHERS.png;
#BACKGROUND:BALLAD THE FEATHERS-bg.png;
#LYRICSPATH:BALLAD THE FEATHERS.lrc;
#CDTITLE:beatmaniaIIDX.png;
#MUSIC:BALLAD THE FEATHERS.mp3;
#OFFSET:-4.280;
#SAMPLESTART:50.100;
#SAMPLELENGTH:12.000;
#SELECTABLE:YES;
#BPMS:0.000=132.000;
#STOPS:;
#BGCHANGES:-12.000=BALLAD THE FEATHERS.avi=1.000=1=1=0,
99999=-nosongbg-=1.000=0=0=0 // don't automatically add -songbackground-
;

//---------------dance-single - ----------------
#NOTES:
     dance-single:
     :
     Easy:
     3:
     0.207,0.250,0.058,0.193,0.000: // measure 1
0010
0000
0100
0000
,  // measure 2
0010
0000
0100
0000
,  // measure 3
1002
0000
0000
0000
,  // measure 4
2003
0000
0000
0000
,  // measure 5
3002
0000
0000
0000
,  // measure 6
1003
0000
1001
0000
,  // measure 7
0001
1000
0001
1000
,  // measure 8
0010
0100
0010
0100
,  // measure 9
0010
1000
0010
1000
,  // measure 10
0001
0100
0001
0100
,  // measure 11
0020
0000
0000
0000
,  // measure 12
0230
0000
0000
0000
,  // measure 13
0320
0000
0000
0000
,  // measure 14
0230
0000
0000
0000
,  // measure 15
0302
0000
0000
0000
,  // measure 16
2003
0000
0000
0000
,  // measure 17
3002
0000
0000
0000
,  // measure 18
1003
0000
1001
0000
,  // measure 19
0001
0010
0100
0010
,  // measure 20
0001
0010
0100
0000
,  // measure 21
1000
0100
0010
0100
,  // measure 22
1000
1000
1000
0000
,  // measure 23
0020
0000
1030
0001
,  // measure 24
0200
0000
0301
1000
,  // measure 25
1001
0000
0000
0000
0000
0000
0000
0001
,  // measure 26
0000
0000
0000
0000
,  // measure 27
0100
0010
0100
0010
,  // measure 28
1000
0001
0100
0001
,  // measure 29
1000
0010
1000
0001
,  // measure 30
0010
0000
0000
0000
,  // measure 31
0100
1000
0010
0100
,  // measure 32
0001
0010
0002
0000
,  // measure 33
2003
0000
0000
0000
,  // measure 34
3001
0000
0000
0000
,  // measure 35
0001
0000
0000
0100
,  // measure 36
0000
0001
0000
1000
,  // measure 37
0000
0010
0000
1000
,  // measure 38
0002
0000
0000
0000
,  // measure 39
1003
0001
1000
0001
,  // measure 40
0100
0001
0100
0001
,  // measure 41
1000
0010
1000
0010
,  // measure 42
0200
0000
0000
0000
,  // measure 43
0301
0010
0001
0010
,  // measure 44
0001
1000
0002
0000
,  // measure 45
1003
0010
0000
0010
,  // measure 46
0100
0001
0000
0001
,  // measure 47
1000
0100
0000
0100
,  // measure 48
1000
0010
0100
0010
,  // measure 49
0200
0000
0000
0000
,  // measure 50
0320
0000
0000
0000
,  // measure 51
0230
0000
0000
0000
,  // measure 52
0301
0000
0000
0000
1010
0000
0000
1001
;

//---------------dance-single - ----------------
#NOTES:
     dance-single:
     :
     Hard:
     6:
     0.387,0.400,0.193,0.222,0.067: // measure 1
1000
1010
0001
1000
,  // measure 2
0001
0000
0101
0000
1000
0001
1000
0001
,  // measure 3
2000
0000
0000
0100
0000
0000
0100
0000
0000
0000
0000
0000
0000
0000
0000
0000
,  // measure 4
3002
0000
0000
0010
0000
0000
0010
0000
0000
0000
0000
0000
0000
0000
0000
0000
,  // measure 5
2003
0000
0000
0010
0000
0000
0010
0000
0000
0000
0000
0000
0000
0000
0000
0000
,  // measure 6
3001
0000
0000
0001
0000
0000
1000
0000
1001
0000
0000
0000
0000
0000
0000
0000
,  // measure 7
1000
0010
1000
0000
0010
0100
0001
0000
,  // measure 8
1001
0000
0001
0000
0010
0100
1000
0001
,  // measure 9
1000
0010
1000
0000
0010
0100
0001
0000
,  // measure 10
1000
0000
0000
1000
0000
0000
0001
0000
1000
0000
0000
0000
1000
0000
0000
0000
,  // measure 11
1020
0000
0130
0010
,  // measure 12
2000
0000
3001
0100
,  // measure 13
0002
0000
0103
0010
,  // measure 14
2000
0000
3000
0001
,  // measure 15
0102
0000
0103
0010
,  // measure 16
2000
0000
3010
0100
,  // measure 17
0001
0000
0010
0100
,  // measure 18
1000
0000
0000
1000
0000
0000
0001
0000
1001
0000
0000
0000
0000
0000
0000
0000
,  // measure 19
1000
0010
1000
0000
0001
0010
0001
0000
,  // measure 20
0010
0100
1000
0001
1000
0000
0001
0000
,  // measure 21
0010
0100
1000
0001
,  // measure 22
1000
0000
1000
0000
1000
0001
1000
0001
,  // measure 23
1000
0000
0001
0010
0001
0000
1000
0010
,  // measure 24
1000
0000
0100
0010
0001
1000
0001
1000
,  // measure 25
1000
0000
0001
0100
0000
0110
0000
1001
,  // measure 26
0000
0000
0000
0000
,  // measure 27
1001
0000
1000
0010
1000
0001
0010
0000
,  // measure 28
1001
0000
0001
0100
0001
1000
0100
0000
,  // measure 29
1001
0000
1000
0100
1000
0001
0100
0000
,  // measure 30
0001
0000
0000
0001
0000
0000
0001
0000
1000
0000
0001
0000
1000
0000
0001
0000
,  // measure 31
1001
0000
0001
0010
0001
1000
0010
0000
,  // measure 32
1001
0000
0000
0000
0100
0000
0001
0000
1000
0000
0000
1000
0000
0000
1000
0000
,  // measure 33
0001
0000
0200
0002
0000
0000
0303
0000
,  // measure 34
1001
0000
0020
2000
0000
0000
3030
0000
,  // measure 35
1002
1000
0000
1003
,  // measure 36
0200
0010
0000
0310
,  // measure 37
2000
0001
0000
0001
,  // measure 38
3001
0000
0000
0000
0000
0000
0000
0000
0100
0000
0000
0100
0000
0000
0100
0000
,  // measure 39
0001
1000
0001
0000
2000
0000
3010
0000
,  // measure 40
1000
0010
1000
0000
0002
0000
0103
0000
,  // measure 41
0100
0010
0100
0000
0002
0000
1003
0000
,  // measure 42
0010
0000
0000
0010
0000
0000
0010
0000
1000
0000
0001
0000
1000
0000
0001
0000
,  // measure 43
2000
0000
3010
0000
0100
0001
1000
0000
,  // measure 44
0002
0000
0000
0000
0103
0000
0000
0000
0010
0000
0000
1000
0000
0000
0001
0000
,  // measure 45
0001
1000
0001
0000
0010
0100
1000
0000
,  // measure 46
1000
0001
1000
0000
0100
0010
0001
0000
,  // measure 47
0001
1000
0001
0000
0010
0100
1000
0001
,  // measure 48
1000
0000
0000
0001
0000
0000
0100
0000
0000
0000
0000
0000
0000
0000
0000
0000
,  // measure 49
0020
0000
1000
0000
0030
1000
0001
0000
,  // measure 50
0200
0000
0001
0000
0300
0001
1000
0000
,  // measure 51
1001
0000
0001
0000
1000
0100
0010
0000
,  // measure 52
1001
0000
0000
0001
0000
0000
0000
0000
1001
0000
0000
1000
0000
0000
1001
0000
;

//---------------dance-single - ----------------
#NOTES:
     dance-single:
     :
     Challenge:
     8:
     0.480,0.450,0.202,0.048,0.145: // measure 1
1001
0000
1000
0000
0001
0010
0100
0000
,  // measure 2
1001
0000
0001
0000
1000
1000
1000
0001
,  // measure 3
0100
0010
0100
0000
0001
0100
1000
0000
,  // measure 4
0010
0100
0010
0000
1000
0010
0001
0000
,  // measure 5
0100
0010
0100
0000
0001
0100
1000
0000
,  // measure 6
0100
0000
0000
0100
0000
0000
0100
0000
1001
0000
0000
0000
0000
0000
0000
0000
,  // measure 7
0001
0000
0100
0000
0010
0000
1000
0000
0000
0001
0100
0000
0100
0000
0000
0000
,  // measure 8
1001
0001
1000
0100
0010
0001
0001
0001
,  // measure 9
1000
0000
0010
0000
0100
0000
0001
0000
0000
1000
0010
0000
0010
0000
0000
0000
,  // measure 10
1001
0000
0000
1000
0000
0000
0001
0000
0000
0000
0010
0000
0100
0000
1000
0000
,  // measure 11
0002
0000
0000
0100
0000
0000
1003
0000
,  // measure 12
1000
0000
0000
0001
0000
0000
1000
0000
0200
0000
0000
0000
0000
0000
1300
0000
,  // measure 13
0001
0000
0000
1000
0000
0000
0001
0000
0010
0000
0000
0000
0010
0000
0000
0000
,  // measure 14
0001
0000
0000
1000
0000
0000
0001
0000
0100
0000
0000
0000
0100
0000
0000
0000
,  // measure 15
1002
0000
0000
0000
0000
0000
1000
0000
1003
0000
0000
0100
0000
0000
1000
0000
,  // measure 16
0002
0000
0103
0001
,  // measure 17
2000
0000
3010
1000
,  // measure 18
0100
0000
0000
0100
0000
0000
0100
0000
1001
0000
0000
0000
0001
0000
0000
0000
,  // measure 19
0001
0100
0001
0000
1000
0100
1000
0000
,  // measure 20
0100
0010
0001
1000
0001
0000
1000
0010
,  // measure 21
1000
0000
0001
0010
0001
0000
0010
0100
,  // measure 22
1000
0001
1000
0000
0001
0001
0001
0010
,  // measure 23
0100
1000
0010
0100
0001
0000
1000
0100
,  // measure 24
0010
0001
0100
0010
1000
0000
0100
0010
,  // measure 25
0001
0000
0000
1000
0000
0000
0001
0000
0000
0000
1001
0000
0000
0000
1001
0000
,  // measure 26
0000
0000
0000
0000
,  // measure 27
0001
0010
0100
1000
0100
0001
0100
1000
,  // measure 28
1100
0000
0010
0001
0010
1000
0010
0001
,  // measure 29
0011
0000
0100
1000
0001
0010
1000
0100
,  // measure 30
0010
0000
0000
0001
0000
0000
1000
0000
0001
0000
0001
0000
0001
0000
0001
0000
,  // measure 31
1000
0100
0010
0001
0010
1000
0010
0001
,  // measure 32
0011
0000
0000
0000
0100
0000
1000
0000
0010
0000
0000
0010
0000
0000
0010
0000
,  // measure 33
1000
0001
0000
0010
0100
1000
0001
0000
,  // measure 34
1001
0000
0000
0001
0000
0000
1000
0000
0001
0000
0001
0000
0001
0000
1000
0000
,  // measure 35
0100
0000
0010
0000
0001
0000
0000
0000
0000
0100
0001
0000
1000
0000
1000
0000
,  // measure 36
0000
0000
0100
0000
0010
0000
0001
0000
0000
0100
0001
0000
1000
0000
1000
0000
,  // measure 37
0001
0000
0010
0000
0100
0000
1000
0000
0000
0010
1000
0000
0001
0000
0001
0000
,  // measure 38
1000
0000
0000
0000
0000
0000
0000
0000
0010
0000
0000
0010
0000
0000
0010
0000
,  // measure 39
1000
0100
0010
0001
0100
1000
0100
0001
,  // measure 40
0101
0000
0010
1000
0010
0001
0010
1000
,  // measure 41
1010
0000
0100
0001
1000
0000
0100
0010
,  // measure 42
0001
0000
0000
1000
0000
0000
0001
0000
1000
0000
1000
0000
1000
0000
0001
0000
,  // measure 43
1000
0100
0010
0001
0010
1000
0100
0001
,  // measure 44
0101
0000
0000
0000
0010
0000
1000
0000
0100
0000
0000
0100
0000
0000
0100
0000
,  // measure 45
1000
0000
0001
0000
0010
0000
0000
0000
0000
0001
1000
0000
0100
0000
0100
0000
,  // measure 46
1000
0000
0100
0000
0010
0000
0001
0000
0000
1000
0001
0000
0010
0000
0010
0000
,  // measure 47
0001
0000
0010
0000
0100
0000
1000
0000
0000
0010
1000
0000
0010
0000
0010
0000
,  // measure 48
1000
0000
0000
0001
0000
0000
1000
0000
0001
0000
0010
0000
0100
0000
1000
0000
,  // measure 49
0001
0000
0001
0000
0100
0000
0000
0000
0000
0010
1000
0000
0001
0000
0001
0000
,  // measure 50
0000
0000
1000
0000
0010
0000
0010
0000
0000
0100
0001
1000
0100
1000
0100
0000
,  // measure 51
0010
0000
0001
0000
1000
0000
0000
0000
0000
0010
1000
0000
0001
0000
0001
0000
,  // measure 52
0101
0000
0000
0101
0000
0000
0010
0000
1010
0000
0000
1010
0000
0000
1001
0000
;

//---------------dance-single - ----------------
#NOTES:
     dance-single:
     :
     Medium:
     5:
     0.313,0.375,0.279,0.145,0.034: // measure 1
1001
0100
1000
0100
,  // measure 2
1001
0010
0001
0010
,  // measure 3
0100
1000
0010
0000
0000
0000
0000
0000
,  // measure 4
0100
0001
0010
0000
0000
0000
0000
0000
,  // measure 5
0100
1000
0001
0000
0000
0000
0000
0000
,  // measure 6
0010
0000
0000
0010
0000
0000
0000
0000
1001
0000
0000
0000
0000
0000
0000
0000
,  // measure 7
1100
0100
1000
0001
,  // measure 8
0101
0001
0100
0010
,  // measure 9
1010
0010
1000
0001
,  // measure 10
0022
0000
0033
0000
,  // measure 11
2000
0100
0000
3100
,  // measure 12
0000
0010
0000
0001
,  // measure 13
0000
1000
0000
0010
,  // measure 14
0000
0100
0000
0001
,  // measure 15
0002
0010
0000
0013
,  // measure 16
0000
0100
0000
1000
,  // measure 17
0000
0001
0000
0100
,  // measure 18
0110
0000
0110
0000
,  // measure 19
0100
0010
0100
0000
,  // measure 20
1000
0001
1000
0000
,  // measure 21
0010
0100
0010
1000
,  // measure 22
0001
0000
0001
0000
0001
1000
0001
0000
,  // measure 23
0201
0000
0001
0300
,  // measure 24
1020
0000
1000
0030
,  // measure 25
1000
0000
0001
1000
0000
0001
0000
1001
,  // measure 26
0000
0000
0000
0000
,  // measure 27
0110
0000
0001
0000
0100
0001
0100
0000
,  // measure 28
0110
0000
1000
0000
0010
1000
0010
0000
,  // measure 29
0110
0000
0001
0000
0100
0001
1000
0000
,  // measure 30
1001
0000
0000
0001
0000
0000
0000
0000
1000
0000
0001
0000
1000
0000
0000
0000
,  // measure 31
1001
0000
0001
0000
0100
0010
0100
0000
,  // measure 32
1001
0000
0000
0000
0001
0000
0000
0000
1000
0000
0000
1000
0000
0000
0000
0000
,  // measure 33
0001
0000
0100
0002
0000
0000
1003
0000
,  // measure 34
1001
0000
0000
0000
0001
1000
0001
1000
,  // measure 35
0002
0010
0000
0013
,  // measure 36
0200
1000
0000
1300
,  // measure 37
0020
0001
0000
0031
,  // measure 38
1000
0000
0000
0000
,  // measure 39
0010
0100
0010
0000
1000
0000
1100
0000
,  // measure 40
0101
0000
0100
0010
0100
0000
0001
0000
,  // measure 41
0011
0000
1010
0000
0010
0100
0010
0000
,  // measure 42
1001
0000
0000
0001
0000
0000
0000
0000
1000
0000
0001
0000
1000
0000
0001
0000
,  // measure 43
1000
0000
0010
0000
0100
0001
1000
0000
,  // measure 44
1001
0000
0000
0000
0001
0000
0000
0000
1000
0000
0000
1000
0000
0000
0000
0000
,  // measure 45
0010
1000
0001
0000
0001
0000
0100
0000
,  // measure 46
0100
0001
1000
0000
1000
0000
0010
0000
,  // measure 47
0010
1000
0001
0000
0001
0000
0100
0000
,  // measure 48
0220
0000
0000
0330
,  // measure 49
2000
0010
0000
3010
,  // measure 50
0200
0001
0000
0301
,  // measure 51
2000
0001
0000
3001
,  // measure 52
1001
0000
0000
1000
0000
0000
0000
0000
1001
0000
0000
0001
0000
0000
1001
0000
;

//---------------dance-single - ----------------
#NOTES:
     dance-single:
     :
     Beginner:
     1:
     0.088,0.150,0.116,0.000,0.000: // measure 1
0010
0000
0000
0000
,  // measure 2
0100
0000
0000
0000
,  // measure 3
0010
0000
0000
0000
,  // measure 4
1000
0000
0000
0000
,  // measure 5
0001
0000
0000
0000
,  // measure 6
1000
0000
0000
0000
,  // measure 7
0100
0000
0000
0000
,  // measure 8
1000
0000
0000
0000
,  // measure 9
0001
0000
0000
0000
,  // measure 10
1000
0000
0000
0000
,  // measure 11
1001
0000
0000
0000
,  // measure 12
0000
0000
0000
0000
,  // measure 13
0000
0000
0000
0000
,  // measure 14
0000
0000
0000
0000
,  // measure 15
1001
0000
0000
0000
,  // measure 16
0000
0000
0000
0000
,  // measure 17
0000
0000
0000
0000
,  // measure 18
0010
0000
0000
0000
,  // measure 19
0010
0000
0100
0000
,  // measure 20
0010
0000
1000
0000
,  // measure 21
0001
0000
1000
0000
,  // measure 22
0001
0000
0000
0000
,  // measure 23
0100
0000
0010
0000
,  // measure 24
1000
0000
0001
0000
,  // measure 25
1000
0000
0000
0000
0000
0000
0000
1001
,  // measure 26
0000
0000
0000
0000
,  // measure 27
0001
0000
0000
0000
,  // measure 28
0100
0000
0000
0000
,  // measure 29
0001
0000
0000
0000
,  // measure 30
1001
0000
0000
0000
,  // measure 31
1000
0000
0000
0000
,  // measure 32
0010
0000
0000
0000
,  // measure 33
1001
0000
0000
0000
,  // measure 34
1000
0000
0000
0000
,  // measure 35
0001
0000
0000
0000
,  // measure 36
0001
0000
0000
0000
,  // measure 37
0001
0000
0000
0000
,  // measure 38
1001
0000
0000
0000
,  // measure 39
1000
0000
0000
0000
,  // measure 40
0100
0000
0000
0000
,  // measure 41
1000
0000
0000
0000
,  // measure 42
1001
0000
0000
0000
,  // measure 43
0001
0000
0000
0000
,  // measure 44
0010
0000
0000
0000
,  // measure 45
1001
0000
0000
0000
,  // measure 46
0100
0000
0000
0000
,  // measure 47
0010
0000
0000
0000
,  // measure 48
1000
0000
0000
0000
,  // measure 49
1001
0000
0000
0000
,  // measure 50
0000
0000
0000
0000
,  // measure 51
1001
0000
0000
0000
,  // measure 52
0110
0000
0000
0000
0000
0000
0000
0110
;
