#TITLE:BALALAIKA, CARRIED WITH THE WIND;
#SUBTITLE:;
#ARTIST:Julie ann Frost;
#TITLETRANSLIT:;
#SUBTITLETRANSLIT:;
#ARTISTTRANSLIT:;
#CREDIT:DMAxel;
#BANNER:BALALAIKA, CARRIED WITH THE WIND.png;
#BACKGROUND:BALALAIKA, CARRIED WITH THE WIND-bg.png;
#LYRICSPATH:BALALAIKA, CARRIED WITH THE WIND.lrc;
#CDTITLE:GUITAR FREAKS & drummania.PNG;
#MUSIC:BALALAIKA, CARRIED WITH THE WIND.mp3;
#OFFSET:-5.413;
#SAMPLESTART:10.750;
#SAMPLELENGTH:15.000;
#SELECTABLE:YES;
#DISPLAYBPM:134.000;
#BPMS:0.000=134.000;
#STOPS:122.000=0.448
;
#BGCHANGES:-16.000=BALALAIKA CARRIED WITH THE WIND.avi=1.000=0=0=1,
99999=-nosongbg-=1.000=0=0=0 // don't automatically add -songbackground-
;

//---------------dance-single - ----------------
#NOTES:
     dance-single:
     :
     Easy:
     3:
     0.261,0.251,0.091,0.157,0.000: // measure 1
0010
0000
0010
0000
,  // measure 2
0010
0100
0020
0000
,  // measure 3
0130
0010
0200
0000
,  // measure 4
0301
0001
1000
0000
,  // measure 5
1000
1000
0001
0000
,  // measure 6
0100
0010
0100
0010
,  // measure 7
0100
0100
0100
1001
,  // measure 8
1000
1000
0001
0000
,  // measure 9
0001
0001
1000
0000
,  // measure 10
0010
0100
0010
0100
,  // measure 11
0010
0010
0010
1001
,  // measure 12
0002
0000
0103
0010
,  // measure 13
2000
0000
3001
0000
,  // measure 14
2000
0000
3010
0100
,  // measure 15
0002
1000
1003
0000
,  // measure 16
2000
0000
3100
0010
,  // measure 17
0002
0000
1003
0000
,  // measure 18
0002
0000
0013
0100
,  // measure 19
1001
0001
1001
0000
,  // measure 20
0010
1000
0010
0000
,  // measure 21
0100
0001
0100
0000
,  // measure 22
0010
0100
0010
0100
,  // measure 23
0010
0010
0010
1001
,  // measure 24
0200
0000
0310
0000
,  // measure 25
0020
0000
0130
0000
,  // measure 26
0200
0000
0310
0000
,  // measure 27
0010
0010
0010
0000
,  // measure 28
1000
0001
1000
0000
,  // measure 29
0010
0100
0010
0000
,  // measure 30
0100
0001
1000
0000
,  // measure 31
0010
0100
0001
1000
,  // measure 32
0001
1000
0000
0010
,  // measure 33
0100
0010
0000
0100
,  // measure 34
0010
0100
0010
0100
,  // measure 35
0100
0100
1001
0001
,  // measure 36
0010
0001
0000
1000
,  // measure 37
0100
1000
0000
0010
,  // measure 38
0100
0010
0100
0010
,  // measure 39
0010
0010
1001
0000
;

//---------------dance-single - ----------------
#NOTES:
     dance-single:
     :
     Medium:
     5:
     0.374,0.351,0.300,0.039,0.000: // measure 1
0100
0000
0100
0000
,  // measure 2
1001
0010
0100
1000
,  // measure 3
0100
0001
0010
1000
,  // measure 4
1001
0000
1000
0001
0100
0000
0010
0000
,  // measure 5
0100
0000
0001
1000
0010
0000
0100
0000
,  // measure 6
0010
0100
0010
0000
0100
0010
0100
0000
,  // measure 7
0001
0010
0100
0000
1000
0000
1001
0000
,  // measure 8
1000
0000
1000
0001
0100
0000
0010
0000
,  // measure 9
0100
0000
0010
1000
0001
0000
0100
0000
,  // measure 10
0010
0100
0010
0000
0100
0010
0100
0000
,  // measure 11
0110
0110
0110
1001
,  // measure 12
0001
0010
0001
0100
,  // measure 13
2000
0001
0001
3001
,  // measure 14
1000
0100
1000
0010
,  // measure 15
0002
1000
1000
1003
,  // measure 16
0001
0100
0001
0010
,  // measure 17
2000
0001
0001
3001
,  // measure 18
1000
0100
1000
0001
,  // measure 19
0110
0110
0110
1001
,  // measure 20
0001
0000
0001
1000
0010
0000
0100
0000
,  // measure 21
0010
0000
1000
0001
0100
0000
0010
0000
,  // measure 22
0100
0010
0100
0000
0010
0100
0010
0000
,  // measure 23
1000
0100
0010
0000
0001
0000
1001
0000
,  // measure 24
0100
0000
1001
0000
,  // measure 25
0010
0000
1001
0000
,  // measure 26
0100
0000
1001
0000
,  // measure 27
0010
0010
0010
0010
,  // measure 28
1001
0000
0010
0000
0100
1000
0001
1000
,  // measure 29
0001
0010
0100
1000
,  // measure 30
0100
0000
0010
0000
0001
1000
0001
1000
,  // measure 31
0010
0100
0010
0000
1001
0000
0010
0000
,  // measure 32
0010
1000
0001
0000
0100
0010
0100
0000
,  // measure 33
0100
0001
1000
0000
1000
0001
1000
0000
,  // measure 34
1001
0001
1001
0100
,  // measure 35
0100
0010
0100
0000
1001
0000
0100
0000
,  // measure 36
0100
0001
1000
0000
0010
0100
0010
0000
,  // measure 37
0010
1000
0001
0000
0001
1000
0001
0000
,  // measure 38
1001
1000
1001
0010
,  // measure 39
0010
0010
1001
0000
;

//---------------dance-single - ----------------
#NOTES:
     dance-single:
     :
     Hard:
     7:
     0.481,0.427,0.470,0.039,0.196: // measure 1
0001
0110
1000
0110
,  // measure 2
0001
0100
0001
1000
0100
0010
0100
0000
,  // measure 3
1000
0010
1000
0001
0010
0100
0010
0000
,  // measure 4
0001
0000
0000
0001
0100
0000
0000
0100
0010
0000
0000
0010
1000
0000
0000
0000
,  // measure 5
1000
0000
0000
1000
0010
0000
0000
0010
0100
0000
0000
0100
0001
0000
0000
0000
,  // measure 6
0101
0101
1100
1100
,  // measure 7
0010
0001
1000
0100
0010
0000
1001
0000
,  // measure 8
1000
0000
0000
1000
0100
0000
0000
0100
0010
0000
0000
0010
0001
0000
0000
0000
,  // measure 9
0001
0000
0000
0001
0010
0000
0000
0010
0100
0000
0000
0100
1000
0000
0000
0000
,  // measure 10
1100
1100
0101
0101
,  // measure 11
1001
0000
0001
0010
0100
0000
1001
0000
,  // measure 12
0010
0100
0010
0000
1000
0100
0001
0100
,  // measure 13
2000
0001
0001
3001
,  // measure 14
0100
0010
0100
0000
0001
0100
1000
0100
,  // measure 15
0002
1000
1000
1003
,  // measure 16
0100
0010
0100
0000
0001
0100
1000
0100
,  // measure 17
0002
1000
1000
1003
,  // measure 18
0010
0100
0010
0000
1000
0100
0001
0100
,  // measure 19
1000
1001
1001
0001
,  // measure 20
1000
0000
0000
1000
0010
0000
0000
0010
0100
0000
0000
0100
0001
0000
0000
0000
,  // measure 21
0001
0000
0000
0001
0100
0000
0000
0100
0010
0000
0000
0010
1000
0000
0000
0000
,  // measure 22
1010
1010
0011
0011
,  // measure 23
0100
1000
0001
0010
0100
0000
1001
0000
,  // measure 24
1100
0100
0101
0000
,  // measure 25
0011
0010
1010
0000
,  // measure 26
1100
0100
0101
0000
,  // measure 27
0100
0001
0100
0001
1000
0100
1000
0000
,  // measure 28
0001
0100
0001
0000
1000
0100
0001
0100
,  // measure 29
1000
0010
0100
0000
0010
0100
0010
0000
,  // measure 30
1000
0100
1000
0000
0001
0100
1000
0100
,  // measure 31
0001
0000
0100
0000
0010
0000
1000
0000
0100
0000
0000
0000
1000
0000
0000
1000
,  // measure 32
0001
0000
0000
0001
0010
0000
0000
0001
1000
0000
0000
0000
0001
0000
0000
0001
,  // measure 33
1000
0000
0000
1000
0100
0000
0000
1000
0001
0000
0000
0000
0100
0000
0000
0000
,  // measure 34
0100
0110
0110
1001
,  // measure 35
1000
0000
0100
0000
0010
0000
0000
0000
1001
0000
0000
0000
0010
0000
0000
0010
,  // measure 36
0001
0000
0000
0001
1000
0000
0000
0001
1000
0000
0000
0000
0100
0000
0000
0100
,  // measure 37
1000
0000
0000
1000
0001
0000
0000
1000
0001
0000
0000
0000
0100
0000
0000
0000
,  // measure 38
0100
0101
1100
0110
,  // measure 39
0110
0110
1001
0000
;

//---------------dance-single - ----------------
#NOTES:
     dance-single:
     :
     Beginner:
     2:
     0.130,0.151,0.157,0.000,0.000: // measure 1
0000
0000
0000
0000
,  // measure 2
0010
0000
0000
0000
,  // measure 3
0010
0000
0000
0000
,  // measure 4
1000
0000
0000
0000
,  // measure 5
0001
0000
0001
0000
,  // measure 6
0100
0000
0100
0000
,  // measure 7
0110
0000
0000
0000
,  // measure 8
0001
0000
0000
0000
,  // measure 9
1000
0000
1000
0000
,  // measure 10
0001
0000
0100
0000
,  // measure 11
0100
0000
0110
0000
,  // measure 12
0001
0000
0001
0000
,  // measure 13
1000
0000
1000
0000
,  // measure 14
0001
0000
0001
0000
,  // measure 15
1000
0000
1001
0000
,  // measure 16
1000
0000
1000
0000
,  // measure 17
0001
0000
0001
0000
,  // measure 18
0100
0000
0100
0000
,  // measure 19
0110
0000
0000
0000
,  // measure 20
1001
0000
0001
0000
,  // measure 21
1000
0000
0001
0000
,  // measure 22
0100
0000
0100
0000
,  // measure 23
0110
0000
0000
0000
,  // measure 24
1001
0000
0000
0000
,  // measure 25
1000
0000
0000
0000
,  // measure 26
0001
0000
0000
0000
,  // measure 27
1000
0000
0000
0000
,  // measure 28
0010
0000
0000
0000
,  // measure 29
0010
0000
0000
0000
,  // measure 30
0100
0000
0000
0000
,  // measure 31
0100
0000
0000
1001
,  // measure 32
0000
1000
0000
1000
,  // measure 33
0000
0000
0000
0010
,  // measure 34
0000
0010
0000
0110
,  // measure 35
0000
0000
0000
1001
,  // measure 36
0000
0001
0000
0001
,  // measure 37
0000
0000
0000
0100
,  // measure 38
0000
0100
0000
0110
,  // measure 39
0000
0000
1001
0000
;

//---------------dance-single - ----------------
#NOTES:
     dance-single:
     :
     Challenge:
     8:
     0.561,0.502,0.522,0.157,0.189: // measure 1
1100
1001
1100
1001
,  // measure 2
0001
0000
0000
0001
1000
0000
0000
0001
1000
0000
0001
0000
1000
0000
0100
0000
,  // measure 3
0010
0000
0000
0001
1000
0000
0000
0001
1000
0000
0001
0000
1000
0000
0100
0000
,  // measure 4
0010
0000
0000
0001
1000
0000
0100
0000
1000
0000
0001
0000
0001
0000
0010
0000
,  // measure 5
0100
0000
0000
1000
0001
0000
0100
0000
0001
0000
1000
0000
1000
0000
0100
0000
,  // measure 6
0010
0110
1001
1001
,  // measure 7
0001
0100
1000
0100
0001
0000
1001
0000
,  // measure 8
0001
0000
0000
1000
0001
0000
0100
0000
0001
0000
1000
0000
1000
0000
0100
0000
,  // measure 9
0010
0000
0000
0001
1000
0000
0100
0000
1000
0000
0001
0000
0001
0000
0010
0000
,  // measure 10
0100
0110
1001
1001
,  // measure 11
1000
0100
0001
0100
1000
0000
1001
0000
,  // measure 12
0001
0010
0100
0000
1000
0100
0001
0100
,  // measure 13
1000
0010
0100
0000
0001
0010
0100
0000
,  // measure 14
1000
0100
0010
0000
0001
0100
1000
0001
,  // measure 15
1001
0110
0110
1001
,  // measure 16
1000
0100
0010
0000
0001
0100
1000
0100
,  // measure 17
0001
0100
0010
0000
1000
0100
0010
0000
,  // measure 18
0001
0010
0100
0000
1000
0100
0001
1000
,  // measure 19
1001
0110
0110
1001
,  // measure 20
1000
0000
0000
1000
0001
0000
0000
0001
0100
0000
0001
0000
0010
0000
0100
0000
,  // measure 21
1000
0000
0000
1000
0001
0000
0000
0001
0100
0000
0001
0000
0010
0000
0100
0000
,  // measure 22
1000
1100
0101
1001
,  // measure 23
0001
0100
1000
0100
0001
0000
1001
0000
,  // measure 24
2200
0000
0000
3300
0202
0000
0000
0303
,  // measure 25
2200
0000
0000
3300
0202
0000
0000
0303
,  // measure 26
0220
0000
0000
0330
2002
0000
0000
3003
,  // measure 27
1000
0000
0000
0001
0100
0000
0000
0010
1000
0000
0001
1000
0001
0000
0000
0000
,  // measure 28
0100
0010
0100
0001
1000
0100
0001
0100
,  // measure 29
1000
0010
0100
0001
0100
1000
0001
0100
,  // measure 30
0010
0100
0010
1000
0001
0100
1000
0100
,  // measure 31
0001
0000
0100
0000
0010
0000
1000
0000
1001
0000
0000
0000
1001
0000
0000
0001
,  // measure 32
1000
0000
0000
1000
0010
0000
0100
0000
0001
0000
1000
0000
0001
0010
0001
0010
,  // measure 33
0001
0000
1000
0000
1000
0000
0001
0000
0010
0000
0100
0000
1001
0000
0000
1000
,  // measure 34
0010
0000
0000
0100
0001
0000
0000
0001
1000
0000
0000
0000
0001
0000
0100
0000
,  // measure 35
1000
0000
0100
0000
0001
0000
0000
0000
1001
0000
0000
0000
1001
0000
0000
1000
,  // measure 36
0001
0000
0000
0001
0100
0000
0010
0000
1000
0000
0001
0000
1000
0100
1000
0100
,  // measure 37
1000
0000
0001
0000
0001
0000
1000
0000
0100
0000
0010
0000
1001
0000
0000
0001
,  // measure 38
0100
0000
0000
0010
1000
0000
0000
0001
1000
0000
0000
0000
1100
0000
0000
0000
,  // measure 39
0101
0101
1001
0000
;
