#TITLE:BABY P;
#SUBTITLE:;
#ARTIST:Plus-Tech Squeeze Box;
#TITLETRANSLIT:;
#SUBTITLETRANSLIT:;
#ARTISTTRANSLIT:;
#CREDIT:DMAxel;
#BANNER:BABY P.png;
#BACKGROUND:BABY P-bg.png;
#LYRICSPATH:BABY P.lrc;
#CDTITLE:pop'n music.png;
#MUSIC:BABY P.mp3;
#OFFSET:-10.080;
#SAMPLESTART:59.478;
#SAMPLELENGTH:12.000;
#SELECTABLE:YES;
#BPMS:0.000=136.000;
#STOPS:;
#BGCHANGES:;

//---------------dance-single - ----------------
#NOTES:
     dance-single:
     :
     Easy:
     3:
     0.252,0.246,0.104,0.000,0.000:
0001
0001
0010
0100
,
1000
1000
0100
0010
,
0001
0001
1000
1000
,
0100
0010
0001
0010
,
1001
0100
0100
0000
,
1000
1000
1000
0000
,
0010
0010
0010
0000
,
1000
1000
1000
0000
,
0001
0001
0001
0000
,
0100
0100
0100
0000
,
0010
0010
0010
0000
,
0100
0100
0100
0010
,
1001
0000
0000
0000
,
0000
0000
0000
0000
,
1000
0100
1000
0010
,
1000
0000
0000
0000
,
0001
0010
0001
0100
,
0001
0000
0000
0000
,
0100
0010
0100
0001
,
0010
0100
1000
0010
,
0100
0100
0110
0000
,
0010
0010
0110
0000
,
1000
1000
1001
0000
,
0001
0001
1001
0000
,
0100
0100
0101
0000
,
0010
0010
1010
0000
,
1000
1000
1001
0000
,
0001
0001
0010
0100
,
1000
1000
0100
0010
,
0001
0010
0100
0000
,
1000
1000
0001
0001
,
0010
0100
1000
0100
,
0010
0001
1000
0001
,
0100
0100
0010
0000
,
1000
1000
0001
0001
,
0010
0100
1000
0000
,
1000
1000
0100
0010
,
0001
0010
0100
0000
,
1000
1000
0001
0001
,
1000
0100
0010
0001
,
0010
0100
1000
0010
,
0100
0010
1001
0000
,
0100
0100
1000
0100
,
0010
0001
1001
0000
,
0010
0010
0001
0010
,
0100
0100
1000
0010
,
0100
0100
0001
0001
,
0010
0100
1000
0010
,
0100
0100
0010
0010
,
1000
1000
0001
0001
,
1000
0100
0010
0001
,
1000
0001
0100
0010
;

//---------------dance-single - ----------------
#NOTES:
     dance-single:
     :
     Hard:
     7:
     0.462,0.469,0.465,0.133,0.066:
1000
0100
1000
0100
0001
0100
1000
0001
,
0010
0001
0010
0001
0010
1000
0010
0001
,
0100
0000
0000
0100
0000
0000
0010
0000
0000
0010
0000
1000
0001
0000
0000
0000
,
0100
0000
0010
0000
0100
0000
0010
0000
0100
0000
0000
0110
0000
0000
0000
0000
,
1001
0000
0000
0000
0010
0000
0000
0000
0100
0000
0000
0010
0000
0000
0010
0000
,
1000
0000
0001
0000
1000
0001
1000
0000
,
0010
0000
0000
0000
0100
0000
0000
0000
0010
0000
0000
0100
0000
0000
0010
0000
,
1000
0002
0000
0000
0000
0000
1003
0001
,
1000
0000
1000
0000
1000
0100
0010
0000
,
0010
0000
0010
0001
0010
0100
1000
0000
,
0100
0000
0100
1000
0100
0010
0001
0000
,
0001
0101
1010
0110
,
2000
0000
0000
0000
,
3002
0000
0000
0000
0000
0100
0100
0103
,
0010
1000
0001
0010
0100
1000
0001
0000
,
1000
0001
0100
0100
0010
0010
2000
0001
,
3001
0010
0100
1000
,
0020
0000
0230
0000
,
0301
0001
0010
0100
1000
0010
0100
0010
,
0110
0000
1001
0000
0110
1000
1001
0000
,
0012
0000
0000
0000
1000
1000
1003
0000
,
2100
0000
0000
0000
0100
0100
3100
0000
,
0102
0000
0000
0000
0010
0010
0013
0000
,
2010
0000
0000
0000
0100
0100
3100
0000
,
0210
0000
0000
0000
0010
0010
0310
0000
,
1002
0000
0000
0000
1000
1000
1003
0000
,
0120
0000
0000
0000
0100
0100
0130
0000
,
0001
1000
0001
0100
0010
1000
0100
0000
,
1100
1001
0011
1100
,
0011
1100
1001
0000
,
0001
0000
0100
0000
0001
0000
0000
0000
1000
0000
0000
1001
0000
0000
0001
0000
,
1000
0001
0000
1000
0100
0010
0001
0000
,
0011
1001
1100
0011
,
1100
0011
1001
0000
,
1000
0000
0010
0000
1000
0000
0000
0000
0001
0000
0000
1001
0000
0000
1000
0000
,
0001
1000
0100
0010
0001
1000
0001
0000
,
0101
1001
1010
0101
,
1010
0101
1001
0000
,
0001
0000
0010
0000
0001
0000
0000
0000
1000
0000
0000
1001
0000
0000
0001
0000
,
1000
0001
0000
1000
0100
0010
0001
0000
,
1010
1001
0101
1010
,
0101
1010
1001
0000
,
1000
0000
0100
0000
1000
0000
0000
0000
0001
0000
0000
1001
0000
0000
1000
0000
,
0001
1000
0010
0100
0110
0000
0000
0000
,
0100
0001
0100
0001
0010
0100
1000
1000
,
0010
1000
0010
1000
0100
0010
0001
0001
,
0100
0000
0000
0010
0000
0000
0100
0000
0001
0000
0010
0000
0100
0000
1000
0000
,
0001
1000
0100
0001
0100
2000
0000
0000
,
3010
1000
0010
1000
0100
0010
0001
0001
,
0100
0001
0100
0001
0010
0100
1000
1000
,
0001
0000
0000
0100
0000
0000
0010
0000
0000
1000
0000
0010
0100
0000
0000
0000
,
0001
0100
1000
0100
0001
0100
0010
1000
,
1000
0000
0000
0000
;

//---------------dance-single - ----------------
#NOTES:
     dance-single:
     :
     Challenge:
     9:
     0.608,0.592,0.085,0.047,0.422:
0001
0000
0010
0000
0001
0000
0010
0001
0000
0001
0000
0010
0100
0000
1000
0000
,
0100
0000
1000
0000
0100
0000
1000
0100
0000
0100
0000
0010
0001
0000
0010
0000
,
0001
0010
0000
0001
0000
0100
0010
1000
0000
1000
0000
0010
0100
0000
0000
0000
,
0001
0000
0100
0000
1000
0000
0100
0000
0001
0000
0100
0010
0000
0000
1000
0000
,
1001
0000
0010
0000
0100
0000
1000
0000
0100
0000
0010
0100
0000
0000
1000
0000
,
0001
0000
1000
0000
0100
0000
0010
0000
0001
1000
0001
0000
0100
0000
0010
0000
,
1000
0000
0100
0000
0010
0000
0001
0000
0010
0000
0100
0010
0000
0000
0001
0000
,
0100
0000
1000
0000
0000
0100
0000
0000
0001
0000
1000
0000
0010
0100
0010
0000
,
1001
0000
0100
0000
0010
0000
0001
0000
0010
0000
0100
0010
0000
0000
0001
0000
,
1000
0000
0001
0000
0010
0000
0100
0000
1000
0001
1000
0000
0010
0000
0100
0000
,
0001
0000
0010
0000
0100
0000
1000
0000
0100
0000
0010
0100
0000
0000
1000
0000
,
0001
0100
0001
0000
1000
0010
1000
0000
1010
0000
0100
0000
0110
0000
0000
0000
,
0001
0010
0001
0010
,
0100
0000
0000
0000
1000
0000
0000
0000
0010
0000
0100
0000
0010
0100
0010
0000
,
1000
0000
0010
0000
1000
0000
0100
0000
0010
0000
0001
0100
0000
0000
0010
0000
,
1000
0000
0100
0000
0010
0000
0100
1000
0100
0000
0010
0000
0001
0100
0001
0100
,
0001
0010
0100
1000
,
0010
0000
0000
0000
0100
0000
0000
0000
0010
0000
0100
0000
0010
0100
0010
0000
,
1000
0001
1000
0000
1100
0000
0010
0000
0001
0000
0100
0001
0000
0010
0100
0000
,
1000
0010
1000
0000
0001
0100
0001
0000
0101
0000
0010
0000
0100
0010
0100
0000
,
0001
0000
0010
0000
0100
1000
0100
1000
0100
0000
1000
0001
0000
0000
0100
0000
,
1000
0000
0100
0000
0001
1000
0001
0000
0100
0000
0010
0000
0110
0000
0000
0000
,
0001
0000
0100
0010
0100
0000
0010
1000
0100
0000
1000
0001
0000
0000
0100
0000
,
1000
0000
0100
0000
0001
0000
0100
0000
0010
1000
0000
0001
0000
0001
0000
0100
,
0010
0000
1000
0000
0100
0000
0010
0001
0010
0000
0001
0000
2000
0000
0000
0000
,
3001
0001
0010
0100
1000
1000
1000
0110
,
0001
0000
0100
0000
0001
0000
0100
0010
0100
0000
0010
0000
1000
0000
0100
0000
,
0001
0000
0100
0000
1000
0000
0100
0010
0100
0000
1000
0000
0001
0000
0100
0000
,
0010
1000
0100
0010
0001
0010
1000
0010
,
0001
0001
1000
0100
0010
0001
0100
0000
,
0010
0000
0010
0000
0010
0000
1000
0000
0010
0000
0100
0001
0000
0000
0010
0000
,
0100
2000
0000
3001
0010
0100
1000
0001
,
0010
0001
0010
0100
1000
0100
0001
0100
,
1000
1000
0001
0010
0100
1000
0010
0000
,
0100
0000
0100
0000
0100
0000
0001
0000
0100
0000
0010
1000
0000
0000
0100
0000
,
0010
0000
0001
0000
0100
0000
0001
0000
0010
0000
0001
0100
0001
0000
1000
0000
,
0100
0010
0001
1000
0001
0010
1000
0010
,
0001
0001
1000
0100
0010
0001
0100
0000
,
0010
0000
0010
0000
0010
0000
1000
0000
0010
0000
0100
0001
0000
0000
0010
0000
,
0100
2000
0000
3001
0010
0100
1000
0001
,
0010
0001
0010
0100
1000
0100
0001
0100
,
1000
1000
0001
0010
0100
1000
0010
0000
,
0100
0000
0100
0000
0100
0000
0001
0000
0100
0000
0010
1000
0000
0000
0100
0000
,
0010
0001
1000
0010
0110
0000
0000
0000
,
0100
0000
0001
0000
0100
0000
0001
0010
0000
0010
0000
0100
1000
0000
0010
0000
,
1000
0000
0010
0000
0100
0000
0010
1000
0000
1000
0000
0100
0010
0000
0001
0000
,
0100
0000
0001
0010
0000
0001
1000
0001
1000
0001
0000
0100
0000
0010
0000
1000
,
0010
1000
0010
0100
0010
0100
0001
0010
0001
0010
0002
0000
0000
0000
0000
0000
,
1003
0000
0001
0000
1000
0000
0100
1000
0000
1000
0000
0100
0010
0000
0001
0000
,
0100
0000
0010
0000
0100
0000
0001
0100
0000
0100
0000
0001
0010
0000
0100
0000
,
1000
0100
0000
0010
0000
0001
0100
0001
0000
1000
0000
0010
1000
0010
0000
0000
,
1000
0010
0100
0001
0010
0001
0010
0000
0001
0000
0010
0200
0000
0000
0000
0000
,
1300
0000
0000
0000
;

//---------------dance-single - ----------------
#NOTES:
     dance-single:
     :
     Beginner:
     2:
     0.110,0.145,0.085,0.000,0.000:
1000
0000
1000
0000
,
1000
0000
1000
0000
,
0001
0000
0000
0000
,
0000
0000
0000
0000
,
0001
0000
0000
0000
,
0100
0000
0000
0000
,
0001
0000
0000
0000
,
0100
0000
0000
0000
,
0010
0000
0000
0000
,
0100
0000
0000
0000
,
0010
0000
0000
0000
,
0100
0000
0000
0000
,
0001
0000
0000
0000
,
0000
0000
0000
0000
,
1000
0000
0100
0000
,
1000
0000
0000
0000
,
0001
0000
0010
0000
,
0001
0000
0000
0000
,
1000
0000
0001
0000
,
1000
0000
0001
0000
,
1001
0000
0000
0000
,
0110
0000
0000
0000
,
1001
0000
0000
0000
,
0110
0000
0000
0000
,
1001
0000
0000
0000
,
0110
0000
0000
0000
,
1001
0000
0000
0000
,
0110
0000
0000
0000
,
1001
0000
1000
0000
,
0010
0000
1000
0000
,
0010
0000
0010
0000
,
0100
0000
0100
0000
,
0001
0000
0100
0000
,
0001
0000
0100
0000
,
0010
0000
0010
0000
,
0100
0000
0000
0000
,
0001
0000
1000
0000
,
0001
0000
1000
0000
,
0010
0000
0100
0000
,
0010
0000
0000
0000
,
1000
0000
0001
0000
,
1000
0000
0001
0000
,
0100
0000
0010
0000
,
0100
0000
0000
0000
,
0001
0000
0001
0000
,
0001
0000
0001
0000
,
1000
0000
0000
0000
,
0000
0000
0000
0000
,
1000
0000
1000
0000
,
1000
0000
1000
0000
,
0001
0000
0000
0000
,
0100
0000
0000
0000
;

//---------------dance-single - ----------------
#NOTES:
     dance-single:
     :
     Medium:
     5:
     0.381,0.395,0.323,0.095,0.000:
0001
0010
0001
0010
0001
0000
0010
0000
,
0100
1000
0100
1000
0100
0000
0010
0000
,
0002
0000
0000
2003
0000
0000
3010
0000
,
0100
0000
0010
0000
0100
0001
0010
0000
,
1001
0100
0010
0001
,
0010
0100
1000
0001
,
1000
0100
0010
0001
,
0100
0010
0100
0001
,
0010
0100
1000
0010
,
1000
0100
0010
0001
,
0010
0001
0100
0010
,
1100
1100
0011
0011
,
0002
0000
0000
0000
,
2003
0000
0000
0000
,
3001
0100
0001
0000
0010
0000
0100
0000
,
1010
1010
0101
0101
,
0001
0010
0100
1000
,
0020
0000
0230
0000
,
0301
0100
0001
0000
0100
0010
0100
0000
,
1001
0110
1001
1001
,
1100
1000
0100
1100
,
0011
0001
0010
0011
,
1010
1000
0010
1010
,
0101
0100
0001
0101
,
0110
0010
0100
0110
,
1001
0001
1000
1001
,
0110
0100
0010
0110
,
1001
0000
1000
0000
0010
0100
0010
0000
,
1001
0010
0100
0010
,
1000
0100
0010
0001
,
0100
0010
0100
0000
0001
1000
0001
0000
,
0100
0020
0000
0000
1030
0001
1000
0000
,
1001
0100
0010
0100
,
0001
0100
0010
1000
,
0010
0100
0010
0000
1000
0001
1000
0000
,
0010
0100
0010
1000
0001
0000
0001
0000
,
1001
0010
0100
0010
,
1000
0100
1000
0010
,
0100
0010
0100
0000
0001
1000
0001
0000
,
0100
0020
0000
0000
1030
0001
1000
0000
,
1001
0100
0010
0100
,
0001
0010
0001
0010
,
0100
1000
0001
1001
,
0100
0010
0100
0000
0110
0000
0000
0000
,
0010
1000
0010
0000
1000
0100
0010
0001
,
0100
0001
0100
0000
0001
0010
0100
1000
,
0010
0100
0010
0000
1000
0001
1000
0000
,
0010
0100
0010
1000
0100
0010
0000
0000
,
0001
0100
0001
0000
1000
0100
0010
0001
,
1000
0010
1000
0000
0001
0010
0100
1000
,
0002
0000
0000
2003
0000
0000
3010
0000
,
1000
0100
0010
0001
0100
0010
0010
0000
,
1000
0000
0000
0000
;

//---------------dance-double - ----------------
#NOTES:
     dance-double:
     :
     Easy:
     4:
     0.308,0.344,0.351,0.019,0.000: // measure 1
00001000
00001000
00010000
00100000
,  // measure 2
00010000
00010000
00001000
00000100
,  // measure 3
00001000
00001000
00010000
00010000
,  // measure 4
00100000
01000000
10000000
00010000
,  // measure 5
10010000
10000000
01000000
10000000
,  // measure 6
01000000
00100000
00010000
00100000
,  // measure 7
00010000
00100000
00010000
00001000
,  // measure 8
00000100
00000010
00000100
00000010
,  // measure 9
00001001
00000001
00000010
00000001
,  // measure 10
00000010
00000100
00001000
00000100
,  // measure 11
00001000
00010000
00100000
01000000
,  // measure 12
10000000
00100000
10000000
11000000
,  // measure 13
20010000
00000000
00000000
00000000
,  // measure 14
30020000
00000000
00000000
00000000
,  // measure 15
10030000
01000000
00100000
00010000
,  // measure 16
00011000
00001000
00011000
00000000
,  // measure 17
00000001
00000010
00000100
00001000
,  // measure 18
00011000
00010000
00011000
00000000
,  // measure 19
00010000
00010000
00100000
01000000
,  // measure 20
10000000
00010000
10000000
11000000
,  // measure 21
10010000
10000000
01100000
00000000
,  // measure 22
10010000
00010000
01100000
00000000
,  // measure 23
00110000
00010000
00011000
00000000
,  // measure 24
00001100
00001000
00011000
00000000
,  // measure 25
00001001
00001000
00000110
00000000
,  // measure 26
00001001
00000001
00000110
00000000
,  // measure 27
00001010
00001000
00011000
00000000
,  // measure 28
01010000
00010000
00011000
01010000
,  // measure 29
10010000
10000000
01000000
00100000
,  // measure 30
00010000
00100000
11000000
00000000
,  // measure 31
10000000
10000000
00010000
00010000
,  // measure 32
10000000
01000000
00010000
00001000
,  // measure 33
00001001
00000001
00000010
00000100
,  // measure 34
00001000
00000100
00000011
00000000
,  // measure 35
00000001
00000001
00001000
00001000
,  // measure 36
00000001
00000010
00001000
00010000
,  // measure 37
10010000
10000000
01000000
00100000
,  // measure 38
00010000
00100000
01000000
00000000
,  // measure 39
10000000
10000000
00010000
00010000
,  // measure 40
10000000
01000000
00010000
00001000
,  // measure 41
00001001
00000001
00000010
00000100
,  // measure 42
00001000
00000010
00000101
00000000
,  // measure 43
00000001
00000001
00001000
00001000
,  // measure 44
00000011
00000110
00001100
00000000
,  // measure 45
00011000
00010000
00100000
01000000
,  // measure 46
10000000
10000000
01000000
00100000
,  // measure 47
00010000
00010000
00001000
00001000
,  // measure 48
00000100
00000010
00000100
00001000
,  // measure 49
00010000
00010000
00100000
01000000
,  // measure 50
00100000
00010000
00010000
00001000
,  // measure 51
00000100
00000010
00000100
00001000
,  // measure 52
00010000
01000000
00100000
00001000
;
