#TITLE:Ain't It Good;
#SUBTITLE:(Original Vocal Mix);
#ARTIST:Tomoki Hirata;
#TITLETRANSLIT:;
#SUBTITLETRANSLIT:;
#ARTISTTRANSLIT:;
#CREDIT:DMAxel;
#BANNER:Ain't It Good (Original Vocal Mix).png;
#BACKGROUND:Ain't It Good (Original Vocal Mix)-bg.png;
#LYRICSPATH:Ain't It Good (Original Vocal Mix).lrc;
#CDTITLE:DanceManiaX.png;
#MUSIC:Ain't It Good (Original Vocal Mix).mp3;
#OFFSET:-7.560;
#SAMPLESTART:14.663;
#SAMPLELENGTH:12.000;
#SELECTABLE:YES;
#BPMS:0.000=133.950;
#STOPS:;
#BGCHANGES:;

//---------------dance-single - ----------------
#NOTES:
     dance-single:
     :
     Easy:
     3:
     0.249,0.250,0.029,0.162,0.000:
1000
0001
1000
0000
,
0001
1000
0001
0000
,
0100
0010
0100
0000
,
0220
0000
0000
0330
,
0001
0001
1000
1000
,
0001
1000
0001
0000
,
1000
0001
1000
0000
,
0010
0100
0010
0000
,
0100
0010
0100
0010
,
0100
0000
0000
0000
,
0001
1000
0001
0000
,
1000
0001
1000
0000
,
0001
0100
0002
0000
,
1000
0000
1003
0000
,
1000
0010
2000
0000
,
0001
0000
0001
0000
,
3001
0010
0002
0000
,
1000
0000
1000
0000
,
1003
0100
2000
0000
,
0001
0000
0001
0000
,
3001
0001
0100
0000
,
0001
1000
0002
0000
,
1003
1000
0100
0000
,
1000
0001
2000
0000
,
3001
0100
0010
0000
,
0100
0010
0200
0000
,
0310
1000
0100
0000
,
1000
0001
1000
1000
,
1001
0001
0020
0000
,
0031
1000
0200
0000
,
1300
1000
0200
0000
,
1300
0001
0020
0000
,
0031
0010
0200
0000
,
0310
0100
1000
0000
,
1000
0100
0020
0000
,
0130
0010
0000
0000
,
0001
0100
0001
0000
,
1000
0100
0010
0001
,
1000
0010
1000
0000
,
0001
0010
0100
1000
,
0001
0010
0001
0000
,
1000
0010
0100
0001
,
1000
0100
1000
0000
,
0001
0100
0010
1000
,
0001
0001
1000
1000
,
0001
0010
0100
1000
,
0001
0001
1000
1000
,
0100
0010
0001
1000
,
0001
0001
1000
1000
,
0100
0010
0001
1000
,
0010
0010
0100
0100
,
0010
0100
0001
0010
,
2200
0000
3300
0000
;

//---------------dance-single - ----------------
#NOTES:
     dance-single:
     :
     Medium:
     6:
     0.388,0.401,0.181,0.057,0.005: // measure 1
0100
0001
1000
1000
,  // measure 2
0100
1000
0001
0001
,  // measure 3
0010
0100
0010
0001
,  // measure 4
0220
0000
0000
0330
,  // measure 5
1000
0100
1000
0000
1000
0100
1000
0000
,  // measure 6
0001
0100
0001
0000
0100
0000
0010
0000
,  // measure 7
2000
0001
0001
3001
,  // measure 8
0001
0010
0100
1000
,  // measure 9
0001
0010
0001
0000
0001
0010
0001
0000
,  // measure 10
1000
0010
1000
0000
0010
0000
0100
0000
,  // measure 11
0002
1000
1000
1003
,  // measure 12
1000
0100
0010
0001
,  // measure 13
0100
0001
0010
0000
0011
0000
0100
0000
,  // measure 14
1000
0000
0001
0000
0100
0001
1000
0000
,  // measure 15
0010
1000
0100
0000
1100
0000
0010
0000
,  // measure 16
0001
0000
1000
0000
0010
1000
0001
0000
,  // measure 17
0010
0001
0100
0000
0101
0000
0010
0000
,  // measure 18
1000
0000
0001
0000
0100
0001
1000
0000
,  // measure 19
0100
1000
0010
0000
1010
0000
0100
0000
,  // measure 20
0001
0010
0100
0000
1000
0001
1000
0001
,  // measure 21
1000
0100
0000
1000
0100
1000
0000
0000
,  // measure 22
0001
0100
1000
0100
,  // measure 23
0001
0010
0000
0001
0010
0001
0000
0000
,  // measure 24
1000
0010
0001
0010
,  // measure 25
1000
0010
0000
1000
0010
1000
0000
0000
,  // measure 26
0001
0100
1000
0100
,  // measure 27
0001
0100
0000
0001
0100
0001
0000
0000
,  // measure 28
0110
0000
1000
0000
0001
1000
0001
1000
,  // measure 29
0001
0100
0000
0010
1000
0100
0000
0000
,  // measure 30
1000
0000
0001
0000
1000
0001
1000
0001
,  // measure 31
1000
0010
0000
0100
0001
0010
0000
0000
,  // measure 32
0001
0000
1000
0000
0001
1000
0001
1000
,  // measure 33
0001
0010
0000
0001
1000
0010
0000
0000
,  // measure 34
1000
0000
0001
0000
0100
0010
0100
0010
,  // measure 35
0100
0001
0000
0010
0100
1000
0000
0000
,  // measure 36
0001
0000
1000
0000
0000
0000
0010
0100
,  // measure 37
0010
1000
0010
0000
0100
0001
0100
0000
,  // measure 38
0010
1010
0001
0011
,  // measure 39
0100
1000
0100
0000
0010
0001
0010
0000
,  // measure 40
0100
1100
0001
0101
,  // measure 41
1000
0010
0100
0000
0010
0100
0010
0000
,  // measure 42
1000
1100
0001
0101
,  // measure 43
0001
0100
0010
0000
0100
0010
0100
0000
,  // measure 44
0001
0011
1000
1010
,  // measure 45
0001
0010
0001
0010
0001
0010
0001
0000
,  // measure 46
0101
1000
1000
0001
,  // measure 47
1000
0100
1000
0100
1000
0100
1000
0000
,  // measure 48
1010
0001
0001
1000
,  // measure 49
0001
0100
0001
0100
0001
1000
0100
0000
,  // measure 50
0011
1000
1000
0001
,  // measure 51
1000
0010
1000
0010
1000
0001
0010
0000
,  // measure 52
1100
0000
0000
0000
0001
0000
0000
0000
1000
0000
0000
0010
0100
0000
0001
0000
,  // measure 53
2002
0000
3003
0000
;

//---------------dance-single - ----------------
#NOTES:
     dance-single:
     :
     Hard:
     7:
     0.488,0.476,0.048,0.143,0.076: // measure 1
0100
1000
0010
0000
1000
0000
1001
0000
,  // measure 2
0010
0001
0100
0000
0010
0010
1000
0000
,  // measure 3
0001
0010
0000
0100
0010
0001
1000
0000
,  // measure 4
1001
0000
0000
0000
1000
0000
0000
0000
1000
0000
0000
0100
0000
0000
0001
0000
,  // measure 5
0100
0001
1000
1000
0100
0001
1000
1000
,  // measure 6
0001
0010
0100
1000
0010
0000
1000
0100
,  // measure 7
0020
0100
0001
0031
,  // measure 8
0010
0000
0001
0000
0100
0000
0000
0010
0000
0000
1000
0000
0000
0000
0000
0000
,  // measure 9
0100
1000
0001
0001
0100
1000
0001
0001
,  // measure 10
0100
0010
1000
0100
0010
0000
0001
0100
,  // measure 11
0020
0100
1000
1030
,  // measure 12
0010
0000
1000
0000
0100
0000
0000
0010
0000
0000
0001
0000
1000
0000
0000
0000
,  // measure 13
1100
0000
0001
0100
1000
0000
0100
0010
,  // measure 14
0200
0000
0000
0000
0001
0000
0000
0301
0000
0000
1000
0000
0001
0000
0100
0000
,  // measure 15
0001
0000
1000
0100
0001
0000
0100
0010
,  // measure 16
0200
0000
0000
0000
1000
0000
0000
1300
0000
0000
0001
0000
1000
0000
0100
0000
,  // measure 17
1000
0000
0001
0100
1000
0000
0100
0010
,  // measure 18
0200
0000
0000
0000
0001
0000
0000
0301
0000
0000
1000
0000
0001
0000
0100
0000
,  // measure 19
0001
0000
1000
0100
0001
0000
0100
0010
,  // measure 20
0200
0000
0000
0000
1000
0000
0000
1300
0000
0000
0001
0000
0100
0000
0001
0000
,  // measure 21
1000
0100
0000
0010
0100
1000
0001
0000
,  // measure 22
0100
0000
0001
0000
0000
1000
0000
0000
0001
0000
0100
0000
1000
0000
0100
0000
,  // measure 23
0001
0010
0000
0100
0010
0001
1000
0000
,  // measure 24
0002
0100
0103
0000
0100
0001
1000
0100
,  // measure 25
0010
0100
0000
1000
0010
0100
0001
0000
,  // measure 26
0010
0000
0001
0000
0000
1000
0000
0000
0001
0000
0100
0000
1000
0000
0100
0000
,  // measure 27
0001
0100
0000
0010
0100
0001
1000
0000
,  // measure 28
0020
1000
1030
0000
0010
1000
0001
0010
,  // measure 29
0100
0010
0000
0001
1000
0100
0010
0000
,  // measure 30
0001
0000
2000
0000
0000
0010
0000
0000
3010
0000
1000
0000
0001
0000
0001
0000
,  // measure 31
0010
0100
0000
1000
0001
0010
0100
0000
,  // measure 32
1000
0010
0010
0000
0100
0001
1000
1000
,  // measure 33
0100
0010
0000
0001
0100
1000
0100
0000
,  // measure 34
1000
0000
0001
0000
0000
0010
0000
0000
0001
0000
1000
0000
1000
0000
0001
0000
,  // measure 35
0100
0010
0000
1000
0100
0001
0100
0000
,  // measure 36
0001
0000
1001
0000
0000
0001
1000
0100
,  // measure 37
0001
1000
0100
1000
0001
0010
0100
1000
,  // measure 38
0020
0000
0000
0100
0000
0000
1000
0000
0030
0000
0001
0000
1000
0000
0000
0000
,  // measure 39
1000
0001
0010
0001
1000
0100
0010
0001
,  // measure 40
0020
0000
0000
0100
0000
0000
0031
0000
0000
0000
1000
0000
0001
0000
0010
0000
,  // measure 41
0001
1000
0010
1000
0001
0010
0100
1000
,  // measure 42
0020
0000
0000
0100
0000
0000
1030
0000
0000
0000
0001
0000
1000
0000
0000
0000
,  // measure 43
1000
0001
0100
0001
1000
0100
0010
0001
,  // measure 44
0020
0000
0000
0100
0000
0000
0031
0000
0000
0000
1000
0000
0001
0000
0010
0000
,  // measure 45
0001
0100
0010
0100
0001
0100
1000
0100
,  // measure 46
0001
1000
0100
0010
0100
1000
0001
0000
,  // measure 47
1000
0100
0010
0100
1000
0100
0001
0100
,  // measure 48
1000
0001
0010
0100
0010
0001
1000
0000
,  // measure 49
0001
0010
0100
0010
0001
0010
1000
0010
,  // measure 50
0001
1000
0100
0010
0100
1000
0001
0000
,  // measure 51
1000
0100
0010
0100
1000
0010
0001
0010
,  // measure 52
1000
0000
0010
0000
0100
0000
0001
0000
1000
0000
0010
0100
0001
0000
0001
0000
,  // measure 53
2002
0000
3003
0000
;

//---------------dance-single - ----------------
#NOTES:
     dance-single:
     :
     Beginner:
     1:
     0.075,0.099,0.067,0.000,0.000:
1000
0000
0000
0000
,
1000
0000
0000
0000
,
1000
0000
0000
0000
,
1001
0000
0000
0000
,
0001
0000
0000
0000
,
1000
0000
0000
0000
,
0001
0000
0000
0000
,
0000
0000
0000
0000
,
0001
0000
0000
0000
,
0001
0000
0000
0000
,
1000
0000
0000
0000
,
0001
0000
0000
0000
,
1001
0000
0000
0000
,
1000
0000
0000
0000
,
1000
0000
0000
0000
,
1000
0000
0000
0000
,
0001
0000
0000
0000
,
0001
0000
0000
0000
,
0001
0000
0000
0000
,
0001
0000
0000
0000
,
1001
0000
0000
0000
,
1000
0000
0000
0000
,
1000
0000
0000
0000
,
0001
0000
0000
0000
,
0001
0000
0000
0000
,
1000
0000
0000
0000
,
1000
0000
0000
0000
,
1001
0000
0000
0000
,
0010
0000
0000
0000
,
0100
0000
0000
0000
,
0010
0000
0000
0000
,
0100
0000
0000
0000
,
0010
0000
0000
0000
,
1000
0000
0000
0000
,
0001
0000
0000
0000
,
1000
0000
0000
0000
,
1001
0000
0000
0000
,
0000
0000
0000
0000
,
0001
0000
0000
0000
,
0000
0000
0000
0000
,
1000
0000
0000
0000
,
0000
0000
0000
0000
,
0001
0000
0000
0000
,
0000
0000
0000
0000
,
1001
0000
0000
0000
,
0001
0000
0000
0000
,
1000
0000
0000
0000
,
1000
0000
0000
0000
,
0001
0000
0000
0000
,
0001
0000
0000
0000
,
0100
0000
0000
0000
,
0010
0000
0000
0000
,
1001
0000
0000
0000
;
