#TITLE:アドバンス・アドベンチャー;
#SUBTITLE:(TV Edit);
#ARTIST:GARDEN;
#TITLETRANSLIT:Advance Adventure;
#SUBTITLETRANSLIT:;
#ARTISTTRANSLIT:;
#CREDIT:Kyon;
#BANNER:Advance Adventure (TV Edit).png;
#BACKGROUND:Advance Adventure (TV Edit)-bg.png;
#LYRICSPATH:Advance Adventure (TV Edit).lrc;
#CDTITLE:Dj DMA Original Simfile.png;
#MUSIC:Advance Adventure (TV Edit).mp3;
#OFFSET:1.360;
#SAMPLESTART:49.610;
#SAMPLELENGTH:12.000;
#SELECTABLE:YES;
#BPMS:0.000=168.020;
#STOPS:;
#BGCHANGES:1.360=Advance Adventure (TV Edit).avi=1.000=1=1=0,
99999=-nosongbg-=1.000=0=0=0 // don't automatically add -songbackground-
;

//---------------dance-single - ----------------
#NOTES:
     dance-single:
     :
     Easy:
     3:
     0.195,0.262,0.129,0.193,0.000: // measure 1
0000
0000
0000
0000
,  // measure 2
0000
0000
0000
0000
,  // measure 3
0000
0000
0000
0000
,  // measure 4
0000
0000
0000
0000
,  // measure 5
0000
0000
0000
0000
,  // measure 6
1001
0000
0000
0000
,  // measure 7
0000
0000
0000
0000
,  // measure 8
1001
0000
0000
0000
,  // measure 9
0000
0000
0000
0000
,  // measure 10
1001
0000
0000
0000
,  // measure 11
0000
0000
0000
0000
,  // measure 12
0010
0000
0000
0000
,  // measure 13
0000
0000
0000
0000
,  // measure 14
0000
0100
0000
0100
,  // measure 15
0000
0010
0000
0010
,  // measure 16
0000
1000
0000
1000
,  // measure 17
0000
0001
0000
0001
,  // measure 18
1001
0000
1000
0000
,  // measure 19
0200
0000
0000
0000
,  // measure 20
0000
1300
0000
0010
,  // measure 21
0000
0100
0000
0010
,  // measure 22
0000
1000
0000
0001
,  // measure 23
0000
1000
0000
0001
,  // measure 24
0000
1000
0000
0001
,  // measure 25
0000
0100
0000
0010
,  // measure 26
0000
1000
0000
0100
,  // measure 27
0010
0010
0100
0100
,  // measure 28
1001
0000
0000
0010
,  // measure 29
0000
0100
0000
0010
,  // measure 30
0000
1000
0000
0100
,  // measure 31
0000
1000
0000
0100
,  // measure 32
0000
0010
0000
0001
,  // measure 33
0000
0100
0000
0001
,  // measure 34
0000
0010
0000
0001
,  // measure 35
0000
0100
0000
0010
,  // measure 36
2002
0000
0000
3003
,  // measure 37
0020
0000
0000
0130
,  // measure 38
0200
0000
0000
0301
,  // measure 39
0002
0000
0000
1003
,  // measure 40
1000
0010
0000
0100
,  // measure 41
0000
0010
0000
0100
,  // measure 42
0000
0001
0000
1000
,  // measure 43
0002
0000
0000
0000
,  // measure 44
1003
0100
0010
0001
,  // measure 45
0200
0000
0000
0310
,  // measure 46
2000
0000
0000
3001
,  // measure 47
0002
0000
0000
0103
,  // measure 48
0100
0010
0000
1000
,  // measure 49
0000
0010
0000
0100
,  // measure 50
0000
0001
0000
0010
,  // measure 51
0002
0000
0000
1003
,  // measure 52
0100
1000
0020
0000
,  // measure 53
0130
0000
0000
0001
,  // measure 54
0010
0100
1000
0000
,  // measure 55
1001
0000
1001
0000
,  // measure 56
1001
0000
0000
0000
,  // measure 57
2200
0000
0000
0000
,  // measure 58
3300
0000
0000
0000
,  // measure 59
0022
0000
0000
0000
,  // measure 60
0033
0000
0000
2002
,  // measure 61
0000
0000
0000
0000
,  // measure 62
3003
0000
0000
0000
;

//---------------dance-single - ----------------
#NOTES:
     dance-single:
     :
     Hard:
     6:
     0.387,0.491,0.301,0.204,0.000: // measure 1
0000
0000
0000
0000
,  // measure 2
0000
0000
0000
0000
,  // measure 3
0000
0000
0000
0000
,  // measure 4
0000
0000
0000
0000
,  // measure 5
0000
0000
0000
0000
,  // measure 6
1001
0000
0000
0000
0000
0000
0000
0110
,  // measure 7
0000
0000
0000
0000
,  // measure 8
1001
0000
0000
0000
0000
0000
0000
0110
,  // measure 9
0000
0000
0000
0000
,  // measure 10
1000
0000
0100
0000
,  // measure 11
0001
0000
0000
1000
0000
0000
0000
0000
,  // measure 12
0001
0000
0010
0000
,  // measure 13
1000
0000
0000
0001
0000
0000
0000
0000
,  // measure 14
1001
0000
0100
1000
0000
0010
0000
0100
,  // measure 15
0000
0001
0000
0001
0010
0100
1000
0000
,  // measure 16
0010
0000
0100
0001
0000
0010
0000
1001
,  // measure 17
0000
0100
0010
0000
1001
0000
0000
0000
,  // measure 18
2000
0000
0002
3000
,  // measure 19
1003
0000
0110
0000
0001
1000
0000
1001
,  // measure 20
0000
1000
0100
0010
,  // measure 21
0001
0000
0010
0000
0100
1000
0100
0010
,  // measure 22
0001
0100
0000
1001
0000
0000
0010
0100
,  // measure 23
0000
0001
0100
0010
0000
1100
0000
0011
,  // measure 24
0000
0000
1000
0000
0010
0100
0010
0100
,  // measure 25
0001
0000
0100
0000
0010
0000
1000
0100
,  // measure 26
1000
0000
0001
0010
0000
0001
1000
0000
,  // measure 27
0010
0100
0010
0100
0010
0100
0010
0000
,  // measure 28
1001
1000
0100
0010
,  // measure 29
0001
0100
0010
0010
,  // measure 30
1000
0100
1000
0010
,  // measure 31
0100
0001
0010
0010
,  // measure 32
0001
0100
0010
1000
,  // measure 33
0100
0100
1000
0010
,  // measure 34
0100
0000
0001
0000
0010
0001
0000
0000
,  // measure 35
0100
0000
0010
0000
1000
0100
0000
0000
,  // measure 36
1001
0000
0010
1001
0000
0100
0100
0000
,  // measure 37
0002
0000
0000
0203
,  // measure 38
0320
0000
0000
2030
,  // measure 39
3200
0000
0000
1300
,  // measure 40
0100
0000
0010
0001
0010
0100
1000
0020
,  // measure 41
0000
0000
0000
0000
1030
0100
0010
0001
,  // measure 42
0000
0100
0000
0010
0000
1001
0000
0000
,  // measure 43
1000
0100
0000
1000
0000
0010
0000
0100
,  // measure 44
0000
0001
0010
0100
1000
0010
0100
0010
,  // measure 45
0200
0000
0000
0302
,  // measure 46
0023
0000
0000
0032
,  // measure 47
2003
0000
0000
0000
0000
0000
3001
0100
,  // measure 48
0000
1010
0000
1000
0100
0010
0001
0200
,  // measure 49
0000
0000
0000
0000
0301
0010
0100
1000
,  // measure 50
0000
0010
0000
0100
0000
0001
0000
0000
,  // measure 51
0100
0010
0000
1000
0000
0100
0000
0010
,  // measure 52
0000
0001
0000
0100
0000
0020
0000
0000
,  // measure 53
1030
0100
0000
1000
0000
0010
0000
0100
,  // measure 54
0000
0001
0000
0010
0000
0001
0000
0000
,  // measure 55
1100
0000
0011
0000
,  // measure 56
2002
0000
0000
3003
,  // measure 57
0110
0000
1000
0010
0000
0101
0000
1001
,  // measure 58
0000
0001
0010
0100
1000
0000
0000
0000
,  // measure 59
0110
0000
0001
0100
0000
1010
0000
1001
,  // measure 60
0000
1000
0100
0000
0011
0000
0100
2002
,  // measure 61
0000
0000
0000
0000
,  // measure 62
3003
0000
0000
0000
;

//---------------dance-single - ----------------
#NOTES:
     dance-single:
     :
     Challenge:
     7:
     0.528,0.524,0.537,0.279,0.005: // measure 1
0000
0000
0000
0000
,  // measure 2
0000
0000
0000
0000
,  // measure 3
0000
0000
0000
0000
,  // measure 4
0000
0000
0000
0000
,  // measure 5
0000
0000
0000
0000
,  // measure 6
1001
0000
0001
0100
0000
1010
0000
1001
,  // measure 7
0000
0001
0010
0100
1000
0000
1001
0000
,  // measure 8
1001
0000
0100
0001
0000
1010
0000
0101
,  // measure 9
0000
0001
1000
0000
1001
0000
0000
0000
,  // measure 10
0001
0100
1000
0100
,  // measure 11
0002
0000
0000
0103
0000
0000
0000
0000
,  // measure 12
1000
0010
0001
0010
,  // measure 13
2000
0000
0001
3001
0000
0000
0000
0000
,  // measure 14
1001
0000
0010
1000
0000
0101
0000
1010
,  // measure 15
0000
1000
0000
0001
0010
0100
1000
0000
,  // measure 16
0101
0000
0010
0100
0000
1001
0000
1001
,  // measure 17
0000
0100
0001
0000
1010
0000
0000
0000
,  // measure 18
0011
0000
0000
0000
1000
0100
0000
1001
,  // measure 19
0000
0010
0100
0001
0000
1100
0000
1001
,  // measure 20
0000
0000
0100
0000
0010
0100
0001
0010
,  // measure 21
0001
0000
1001
0000
0001
0010
0100
1000
,  // measure 22
0100
1000
0000
1001
0000
0010
0100
0001
,  // measure 23
0000
1000
0010
0001
0000
1010
0000
1001
,  // measure 24
0000
0000
0001
0000
0100
0010
1000
0100
,  // measure 25
1000
0000
0010
0100
0000
0100
0001
0100
,  // measure 26
0010
0000
0010
1000
0000
0010
0100
0001
,  // measure 27
0100
0010
0100
0010
0100
0010
0100
0000
,  // measure 28
1001
0000
0100
0000
0001
0100
1000
0000
,  // measure 29
0011
0000
0101
0000
1000
0010
0001
0000
,  // measure 30
0010
0000
0001
0000
1000
0100
0001
0000
,  // measure 31
1100
0000
1001
0000
0001
0010
1000
0000
,  // measure 32
0010
0000
1000
0000
0001
0010
1000
0010
,  // measure 33
0200
0000
0010
0000
0010
0310
0000
0000
,  // measure 34
1000
0100
0001
0100
0010
1000
0000
0000
,  // measure 35
0001
0010
1000
0010
0100
0001
0000
0100
,  // measure 36
0010
0000
0000
0100
0010
0000
1000
0000
0000
0000
0001
0000
1001
0000
0000
0000
,  // measure 37
2100
0010
0010
3020
,  // measure 38
0230
0001
0001
0302
,  // measure 39
2003
0000
0001
0000
3001
0000
0100
0010
,  // measure 40
0000
1001
0000
1000
0100
0010
0001
0010
,  // measure 41
0002
0000
0000
0000
0103
0010
1000
0100
,  // measure 42
0000
0011
0000
0101
0000
1001
0000
0000
,  // measure 43
0001
0200
0000
0010
0000
0310
0000
1000
,  // measure 44
0100
0010
0001
0010
0100
1000
0010
0100
,  // measure 45
0002
0100
0100
0203
,  // measure 46
0320
1000
1000
2030
,  // measure 47
3002
0000
1000
0000
1003
0000
0010
0100
,  // measure 48
0001
0010
0000
0001
0010
0100
1000
0100
,  // measure 49
2000
0000
0000
0000
3010
0100
0001
0010
,  // measure 50
0000
1100
0000
1010
0000
1001
0000
0000
,  // measure 51
0001
0200
0000
0010
0000
0310
0000
1000
,  // measure 52
0100
0010
0001
0100
0010
1000
0000
0000
,  // measure 53
0010
2000
0000
0010
0000
3010
0000
1000
,  // measure 54
0100
0010
0001
0100
0010
1000
0010
0100
,  // measure 55
0022
0033
2200
3300
,  // measure 56
2002
0000
3003
0110
,  // measure 57
1100
0000
0010
0001
0000
0101
0000
1010
,  // measure 58
0000
1000
0100
0010
0001
0000
0000
0000
,  // measure 59
1001
0000
0010
0100
0000
0011
0000
1100
,  // measure 60
0000
0001
1000
0000
0011
0000
1100
2002
,  // measure 61
0000
0000
0000
0000
,  // measure 62
3003
0000
0000
0000
;

//---------------dance-single - ----------------
#NOTES:
     dance-single:
     :
     Medium:
     5:
     0.310,0.393,0.172,0.140,0.000: // measure 1
0000
0000
0000
0000
,  // measure 2
0000
0000
0000
0000
,  // measure 3
0000
0000
0000
0000
,  // measure 4
0000
0000
0000
0000
,  // measure 5
0000
0000
0000
0000
,  // measure 6
0100
0000
0000
0000
0000
0000
0000
1001
,  // measure 7
0000
0000
0000
0000
,  // measure 8
0010
0000
0000
0000
0000
0000
0000
1001
,  // measure 9
0000
0000
0000
0000
,  // measure 10
0001
0000
1000
0000
,  // measure 11
0010
0000
0100
0000
,  // measure 12
0010
0000
1000
0000
,  // measure 13
0002
0000
0000
0000
,  // measure 14
0103
0010
0100
0010
,  // measure 15
1000
0001
1000
0100
,  // measure 16
1000
0010
0100
0001
,  // measure 17
0010
0001
1001
0000
,  // measure 18
0010
0000
0100
0000
,  // measure 19
0011
0000
1000
0100
0000
1001
0000
1001
,  // measure 20
0000
1000
0100
0100
,  // measure 21
1000
0010
0100
0100
,  // measure 22
0001
0000
0010
0000
0001
0000
1000
0100
,  // measure 23
0000
1000
0100
0001
0000
1100
0000
0011
,  // measure 24
0000
0100
0010
0010
,  // measure 25
1000
0001
0010
0001
,  // measure 26
0100
0010
1000
0010
,  // measure 27
0100
0010
0100
0010
,  // measure 28
1001
0100
0010
0010
,  // measure 29
1000
0100
1000
0001
,  // measure 30
0010
0001
0100
0100
,  // measure 31
0010
1000
0001
0001
,  // measure 32
0100
0010
1000
1000
,  // measure 33
0100
1000
0010
0010
,  // measure 34
0100
0001
0020
0000
,  // measure 35
0031
1000
0200
0000
,  // measure 36
1300
0000
0010
1001
0000
0000
0000
0000
,  // measure 37
0200
0000
0000
0310
,  // measure 38
0020
0000
0000
1030
,  // measure 39
2000
0000
0000
3001
,  // measure 40
0002
0000
0000
0000
,  // measure 41
0103
0010
0000
0100
,  // measure 42
0000
0010
0000
1000
,  // measure 43
0001
0010
0100
1000
,  // measure 44
0100
0010
0001
0000
,  // measure 45
0200
0000
0000
0310
,  // measure 46
0020
0000
0000
1030
,  // measure 47
2000
0000
0000
3001
,  // measure 48
0002
0000
0000
0000
,  // measure 49
0103
0010
0100
0001
,  // measure 50
0010
0100
1000
0010
,  // measure 51
0100
0001
0100
0000
0010
0000
0100
0000
,  // measure 52
0001
0010
0100
1000
,  // measure 53
0010
1000
0010
0000
0100
0000
0010
0000
,  // measure 54
1000
0100
0010
0001
,  // measure 55
0101
0000
1010
0000
,  // measure 56
1001
0000
0000
1001
,  // measure 57
0010
0000
1000
0100
0000
1000
0000
0100
,  // measure 58
0000
1000
0100
0010
0001
0000
0000
0000
,  // measure 59
1001
0000
0010
0001
0000
0010
0000
0001
,  // measure 60
0000
0100
0010
0000
1001
0000
0002
2000
,  // measure 61
0000
0000
0000
0000
,  // measure 62
3003
0000
0000
0000
;

//---------------dance-single - ----------------
#NOTES:
     dance-single:
     :
     Beginner:
     1:
     0.078,0.160,0.064,0.000,0.000: // measure 1
0000
0000
0000
0000
,  // measure 2
0000
0000
0000
0000
,  // measure 3
0000
0000
0000
0000
,  // measure 4
0000
0000
0000
0000
,  // measure 5
0000
0000
0000
0000
,  // measure 6
1000
0000
0000
0000
,  // measure 7
0000
0000
0000
0000
,  // measure 8
0001
0000
0000
0000
,  // measure 9
0000
0000
0000
0000
,  // measure 10
1000
0000
0000
0000
,  // measure 11
0000
0000
0000
0000
,  // measure 12
0100
0000
0000
0000
,  // measure 13
0000
0000
0000
0000
,  // measure 14
1000
0000
0000
0000
,  // measure 15
0000
0000
0000
0000
,  // measure 16
0001
0000
0000
0000
,  // measure 17
0000
0000
0000
0000
,  // measure 18
0010
0000
0000
0000
,  // measure 19
0000
0000
0000
0000
,  // measure 20
0000
1000
0000
0000
,  // measure 21
0000
1000
0000
0000
,  // measure 22
0000
0001
0000
0000
,  // measure 23
0000
0001
0000
0000
,  // measure 24
0000
1000
0000
0000
,  // measure 25
0000
1000
0000
0000
,  // measure 26
0000
0001
0000
0000
,  // measure 27
0000
0001
0000
0000
,  // measure 28
1001
0000
0010
0000
,  // measure 29
0000
0000
0000
0000
,  // measure 30
0000
0000
0001
0000
,  // measure 31
0000
0000
0000
0000
,  // measure 32
1000
0000
0000
0000
,  // measure 33
0000
0000
0000
0000
,  // measure 34
0100
0000
0000
0000
,  // measure 35
1000
0000
0000
0000
,  // measure 36
1001
0000
0000
0000
,  // measure 37
1000
0000
0000
0000
,  // measure 38
0001
0000
0000
0000
,  // measure 39
1000
0000
0000
0000
,  // measure 40
0001
0000
0000
0000
,  // measure 41
0000
0000
1000
0000
,  // measure 42
0000
0000
0000
0000
,  // measure 43
0001
0000
0001
0000
,  // measure 44
0001
0000
0000
0000
,  // measure 45
0100
0000
0000
0000
,  // measure 46
0010
0000
0000
0000
,  // measure 47
0100
0000
0000
0000
,  // measure 48
0010
0000
0000
0000
,  // measure 49
0000
0000
1000
0000
,  // measure 50
0000
0000
0000
0000
,  // measure 51
0001
0000
0001
0000
,  // measure 52
0001
0000
0000
0000
,  // measure 53
1000
0000
1000
0000
,  // measure 54
1000
0000
0000
0000
,  // measure 55
1001
0000
0000
0000
,  // measure 56
0000
0000
0000
0000
,  // measure 57
1001
0000
0000
0000
,  // measure 58
0000
0000
0000
0000
,  // measure 59
1001
0000
0000
0000
,  // measure 60
0000
0000
0000
1001
;
