#TITLE:ACT;
#SUBTITLE:;
#ARTIST:RAM;
#TITLETRANSLIT:;
#SUBTITLETRANSLIT:;
#ARTISTTRANSLIT:;
#CREDIT:DMAxel;
#BANNER:ACT.png;
#BACKGROUND:ACT-bg.png;
#LYRICSPATH:;
#CDTITLE:beatmaniaIIDX.png;
#MUSIC:ACT.mp3;
#OFFSET:-12.040;
#SAMPLESTART:54.686;
#SAMPLELENGTH:12.000;
#SELECTABLE:YES;
#BPMS:0.000=180.000;
#STOPS:;
#BGCHANGES:-40.000=ACT.avi=1.000=1=1=0,
99999=-nosongbg-=1.000=0=0=0 // don't automatically add -songbackground-
;

//---------------dance-single - ----------------
#NOTES:
     dance-single:
     :
     Easy:
     3:
     0.239,0.289,0.062,0.107,0.000: // measure 1
1000
0000
1000
0000
,  // measure 2
2000
0000
0000
0000
,  // measure 3
3001
0000
0001
0000
,  // measure 4
0002
0000
0000
0000
,  // measure 5
1003
0000
0010
0000
,  // measure 6
0200
0000
0000
0000
,  // measure 7
0302
0000
0000
0000
,  // measure 8
0000
0000
0000
0000
,  // measure 9
1003
0000
1000
0000
,  // measure 10
2000
0000
0000
0000
,  // measure 11
3001
0000
0001
0000
,  // measure 12
0002
0000
0000
0000
,  // measure 13
1003
0000
1000
0000
,  // measure 14
2000
0000
0000
0000
,  // measure 15
3001
0000
0001
0000
,  // measure 16
0100
0000
0010
0000
,  // measure 17
1000
0001
1000
0000
,  // measure 18
0001
1000
0001
0000
,  // measure 19
0100
0010
0100
0000
,  // measure 20
0010
0100
0010
0000
,  // measure 21
1000
0001
1000
0000
,  // measure 22
0001
1000
0001
0000
,  // measure 23
0200
0000
0010
0000
,  // measure 24
0310
0000
0000
0000
,  // measure 25
1000
0010
0100
0000
,  // measure 26
0010
0100
0010
0000
,  // measure 27
1000
0010
0100
0000
,  // measure 28
0010
0100
0010
0000
,  // measure 29
0100
0001
0010
0000
,  // measure 30
0001
1000
0001
0000
,  // measure 31
0100
0001
0010
0000
,  // measure 32
0001
1000
0001
1000
,  // measure 33
0001
0100
0010
0000
,  // measure 34
0100
0010
0100
0000
,  // measure 35
0010
1000
0100
0000
,  // measure 36
1000
0001
1000
0000
,  // measure 37
0100
0010
0001
0000
,  // measure 38
0100
0010
0100
0000
,  // measure 39
0002
0000
0000
0000
,  // measure 40
1003
1001
0001
1000
,  // measure 41
0000
0001
0000
0100
0000
0000
0000
0000
,  // measure 42
0000
0000
0000
0001
0000
1000
0000
0000
,  // measure 43
0000
1000
0000
0010
0000
0000
0000
1000
,  // measure 44
0000
0001
0000
0100
0000
0001
0000
0000
,  // measure 45
0000
0001
0000
1000
0000
0000
0000
0000
,  // measure 46
0000
0000
0000
0010
0000
1000
0000
0000
,  // measure 47
0000
0001
0000
0002
0000
0000
0000
1003
,  // measure 48
0000
0000
0000
0000
,  // measure 49
1001
0000
0000
1000
0000
0000
1001
0000
,  // measure 50
0000
0000
1000
0000
,  // measure 51
1001
0000
0000
0001
0000
0000
1001
0000
,  // measure 52
0000
0000
0001
0000
,  // measure 53
1001
0000
0000
1000
0000
0000
1001
0000
,  // measure 54
0000
0000
1000
0000
,  // measure 55
0002
0000
0000
0000
,  // measure 56
1000
1000
1000
1003
,  // measure 57
0100
0010
0001
0000
,  // measure 58
1000
0010
0100
0000
,  // measure 59
0001
0010
0100
0000
,  // measure 60
1000
0001
1000
0000
,  // measure 61
0010
1000
0100
0000
,  // measure 62
0010
0001
0100
0000
,  // measure 63
0010
0100
0010
0100
,  // measure 64
0010
0010
0010
0010
,  // measure 65
0100
0000
0001
0000
,  // measure 66
1000
0000
0100
0000
,  // measure 67
0010
0000
0100
0000
,  // measure 68
1000
0000
0001
0000
,  // measure 69
0100
0000
0001
0000
,  // measure 70
0010
0000
0100
0000
,  // measure 71
0010
0001
0010
0001
,  // measure 72
2000
0000
0000
0000
,  // measure 73
3000
0000
0000
0000
;

//---------------dance-single - ----------------
#NOTES:
     dance-single:
     :
     Medium:
     6:
     0.391,0.385,0.089,0.143,0.000: // measure 1
0001
0000
0100
0000
0001
0000
0000
1000
,  // measure 2
0000
0000
0100
0000
0000
1000
0000
0000
,  // measure 3
0001
0100
0001
0000
,  // measure 4
0000
0000
0100
0000
0000
0001
0000
0000
,  // measure 5
0100
0000
0010
0000
1000
0000
0000
0010
,  // measure 6
0000
0000
0100
0000
0000
0010
0000
0000
,  // measure 7
2000
0000
0000
0000
,  // measure 8
0001
0000
3001
0000
,  // measure 9
1001
0000
0000
1000
0000
0000
0010
0000
,  // measure 10
0200
0000
0000
0020
0000
0000
0330
0000
,  // measure 11
1000
0000
0000
0001
0000
0000
0100
0000
,  // measure 12
0020
0000
0000
0200
0000
0000
0330
0000
,  // measure 13
0001
0000
0000
1000
0000
0000
0010
0000
,  // measure 14
0200
0000
0000
0020
0000
0000
0330
0000
,  // measure 15
1000
0000
0000
0001
0000
0000
0100
0000
,  // measure 16
0020
0000
0000
0200
0000
0000
0330
0000
,  // measure 17
0001
0100
0001
0100
,  // measure 18
0001
0010
0100
0000
,  // measure 19
1000
0010
1000
0010
,  // measure 20
1000
0100
0010
0000
,  // measure 21
0001
0010
0001
0010
,  // measure 22
0001
0100
0010
0000
,  // measure 23
1000
0100
1000
0100
,  // measure 24
2000
0000
0001
0000
,  // measure 25
3001
0100
0000
0001
0100
0000
0001
0000
,  // measure 26
1000
0001
0100
0100
,  // measure 27
0010
1000
0000
0010
1000
0000
0010
0000
,  // measure 28
0100
0000
0010
0000
1000
0001
1000
0000
,  // measure 29
0100
1000
0000
0100
1000
0000
0001
0000
,  // measure 30
0100
0001
1000
1000
,  // measure 31
0001
0010
0000
0001
0010
0000
0001
0000
,  // measure 32
0100
0010
0000
0100
0010
0000
1000
0001
,  // measure 33
1000
0100
0000
1000
0100
0000
1000
0000
,  // measure 34
0001
0100
0001
0001
,  // measure 35
0010
0001
0000
0010
0001
0000
0010
0000
,  // measure 36
0001
0000
1000
0000
0010
0100
0010
0000
,  // measure 37
1000
0010
0000
1000
0010
0000
0100
0000
,  // measure 38
0001
1000
0010
0010
,  // measure 39
0200
0000
0000
0000
,  // measure 40
0310
0110
0001
1001
,  // measure 41
0000
0010
0000
1000
0000
0001
0010
0000
,  // measure 42
0001
1000
0000
0001
0000
0010
0000
0000
,  // measure 43
0000
0001
0000
0100
0010
0000
0000
0100
,  // measure 44
0010
0100
0000
0010
0100
0010
0000
0000
,  // measure 45
1000
0010
0000
1000
0000
0001
0000
0100
,  // measure 46
0001
0100
0000
0001
0000
1000
0100
0000
,  // measure 47
0000
2000
0000
3002
0000
0000
0000
0203
,  // measure 48
0000
0000
0000
0300
,  // measure 49
1001
0000
1000
0010
0000
0100
0001
0000
,  // measure 50
0000
0001
1000
0000
1000
0000
0000
0000
,  // measure 51
1001
0000
0001
0100
0000
0010
1000
0000
,  // measure 52
0000
1000
0001
0000
0001
0000
0000
0000
,  // measure 53
1001
0000
1000
0100
0000
0010
0001
0000
,  // measure 54
0000
0001
1000
0000
1000
0000
0001
0000
,  // measure 55
0200
0000
0001
0000
0000
0001
0000
0000
,  // measure 56
0301
0000
0100
0000
0010
0000
1000
0001
,  // measure 57
1000
0010
0000
1000
0010
0000
0100
0001
,  // measure 58
0000
0100
0001
0000
1000
0000
1000
0000
,  // measure 59
0001
0010
0000
0001
0010
0000
0100
1000
,  // measure 60
0000
0100
1000
0000
0001
0000
0001
0000
,  // measure 61
0100
0001
0000
0100
0001
0000
1000
0001
,  // measure 62
0000
1000
0001
0000
0100
0000
0100
0000
,  // measure 63
0010
1000
0000
0010
1000
0000
0001
0000
,  // measure 64
0100
0110
1000
1001
,  // measure 65
0010
1000
0000
1000
0100
0000
0010
0001
,  // measure 66
0000
0001
0100
0000
0010
0100
0010
0000
,  // measure 67
0100
0001
0000
0001
0010
0000
0100
1000
,  // measure 68
0000
1000
0010
0000
0100
0010
0100
0000
,  // measure 69
0001
0100
0000
0100
0010
0000
1000
0010
,  // measure 70
0000
0010
0100
0000
0010
0100
0010
0000
,  // measure 71
0100
0110
0001
1001
,  // measure 72
2000
0000
0001
0001
,  // measure 73
3000
0000
0000
0000
;

//---------------dance-single - ----------------
#NOTES:
     dance-single:
     :
     Beginner:
     1:
     0.070,0.127,0.045,0.000,0.000: // measure 1
1000
0000
0000
0000
,  // measure 2
0000
0000
0000
0000
,  // measure 3
1000
0000
0000
0000
,  // measure 4
0000
0000
0000
0000
,  // measure 5
0001
0000
0000
0000
,  // measure 6
0000
0000
0000
0000
,  // measure 7
0001
0000
0000
0000
,  // measure 8
0000
0000
0000
0000
,  // measure 9
1001
0000
0000
0000
,  // measure 10
0000
0000
0000
0000
,  // measure 11
1000
0000
0000
0000
,  // measure 12
0000
0000
0000
0000
,  // measure 13
1000
0000
0000
0000
,  // measure 14
0000
0000
0000
0000
,  // measure 15
0001
0000
0000
0000
,  // measure 16
0000
0000
0000
0000
,  // measure 17
0001
0000
0000
0000
,  // measure 18
1000
0000
0000
0000
,  // measure 19
0001
0000
0000
0000
,  // measure 20
1000
0000
0000
0000
,  // measure 21
0001
0000
0000
0000
,  // measure 22
1000
0000
0000
0000
,  // measure 23
0001
0000
0000
0000
,  // measure 24
0000
0000
0000
0000
,  // measure 25
0100
0000
0000
0000
,  // measure 26
0000
0000
0000
0000
,  // measure 27
0010
0000
0000
0000
,  // measure 28
0000
0000
0000
0000
,  // measure 29
0100
0000
0000
0000
,  // measure 30
0000
0000
0000
0000
,  // measure 31
0010
0000
0000
0000
,  // measure 32
0000
0000
0000
0000
,  // measure 33
0100
0000
0000
0000
,  // measure 34
0000
0000
0000
0000
,  // measure 35
0001
0000
0000
0000
,  // measure 36
1000
0000
0000
0000
,  // measure 37
0001
0000
0000
0000
,  // measure 38
1000
0000
0000
0000
,  // measure 39
0001
0000
0000
0000
,  // measure 40
1001
0000
0000
0000
,  // measure 41
1000
0000
0000
0000
,  // measure 42
0001
0000
0000
0000
,  // measure 43
1000
0000
0000
0000
,  // measure 44
1000
0000
0000
0000
,  // measure 45
0001
0000
0000
0000
,  // measure 46
1000
0000
0000
0000
,  // measure 47
0001
0000
0000
0000
,  // measure 48
0000
0000
0000
0000
,  // measure 49
1001
0000
0000
0000
,  // measure 50
0000
0000
0000
0000
,  // measure 51
1001
0000
0000
0000
,  // measure 52
0000
0000
0000
0000
,  // measure 53
1001
0000
0000
0000
,  // measure 54
0000
0000
0000
0000
,  // measure 55
1000
0000
0000
0000
,  // measure 56
0000
0000
0000
0000
,  // measure 57
0010
0000
0000
0000
,  // measure 58
0100
0000
0000
0000
,  // measure 59
0010
0000
0000
0000
,  // measure 60
0100
0000
0000
0000
,  // measure 61
0001
0000
0000
0000
,  // measure 62
1000
0000
0000
0000
,  // measure 63
0001
0000
0000
0000
,  // measure 64
1000
0000
0000
0000
,  // measure 65
0001
0000
0000
0000
,  // measure 66
0000
0000
0000
0000
,  // measure 67
0010
0000
0000
0000
,  // measure 68
0000
0000
0000
0000
,  // measure 69
0100
0000
0000
0000
,  // measure 70
0000
0000
0000
0000
,  // measure 71
1000
0000
0000
0000
,  // measure 72
1000
0000
0000
0000
;

//---------------dance-single - ----------------
#NOTES:
     dance-single:
     :
     Hard:
     8:
     0.547,0.512,0.392,0.232,0.036: // measure 1
0001
0100
0020
0000
1030
0000
1000
0001
,  // measure 2
0000
0001
0010
0000
0100
1000
0000
0000
,  // measure 3
0001
0100
0020
0000
1000
0000
0000
1000
,  // measure 4
0000
0000
0000
0000
1030
0000
0000
0001
0000
0000
1000
0000
0000
0001
0000
0000
,  // measure 5
1000
0010
0200
0000
0301
0000
0001
1000
,  // measure 6
0000
1000
0100
0000
0010
0001
0000
0000
,  // measure 7
0200
0000
0000
0000
0010
0000
0000
0020
,  // measure 8
0000
0000
0000
0330
,  // measure 9
0100
0001
0000
2000
0000
0000
3100
0000
,  // measure 10
1000
0002
0000
0100
0000
0000
0103
0000
,  // measure 11
0010
1000
0000
0002
0000
0000
0013
0000
,  // measure 12
0001
2000
0000
0010
0000
0000
3010
0000
,  // measure 13
0100
0002
0000
1000
0000
1000
1003
0000
,  // measure 14
0100
2000
0000
3002
0000
0000
0103
0000
,  // measure 15
0010
2000
0000
0001
0000
0001
3001
0000
,  // measure 16
0010
0002
0000
2003
0000
0000
0000
0000
,  // measure 17
3001
0100
0001
0000
0100
0001
1000
0000
,  // measure 18
0100
2000
0000
0001
0001
0000
3001
0000
,  // measure 19
1000
0010
1000
0000
0010
1000
0001
0000
,  // measure 20
0010
0002
0000
1000
1000
0000
1003
0000
,  // measure 21
0001
0010
0001
0000
0010
0001
1000
0000
,  // measure 22
0010
2000
0000
0001
0001
0000
3001
0000
,  // measure 23
1000
0100
1000
0000
0100
1000
0001
0010
,  // measure 24
0200
0010
0020
0330
,  // measure 25
0001
0100
0000
0100
0010
0000
0100
0010
,  // measure 26
0000
0010
1000
0000
0010
0100
0010
0000
,  // measure 27
1000
0010
0000
0010
0100
0000
0010
0100
,  // measure 28
0000
0100
0001
0000
0100
0010
0100
0010
,  // measure 29
0100
0001
0000
0001
1000
0000
0010
1000
,  // measure 30
0100
0010
0001
0000
1000
0000
1001
0000
,  // measure 31
0010
1000
0000
1000
0001
0000
0100
0001
,  // measure 32
1000
0100
1000
0100
0010
0001
0010
0001
,  // measure 33
1000
0010
0000
0010
0100
0000
0001
0010
,  // measure 34
0100
1000
0100
0010
0100
0000
1001
0000
,  // measure 35
0001
0100
0000
0100
0010
0000
1000
0100
,  // measure 36
0010
0001
0010
0100
0010
0000
1001
0000
,  // measure 37
1000
0001
0000
0001
0100
0000
0010
1000
,  // measure 38
0001
0010
0100
0000
0110
0000
1001
0000
,  // measure 39
0200
0000
0000
1000
0000
0000
1300
0001
,  // measure 40
0100
0101
1010
1001
,  // measure 41
0010
1010
0000
1001
0000
0000
0000
1000
,  // measure 42
0000
0001
0100
0101
0000
1001
0000
0000
,  // measure 43
0100
1100
0000
1001
0000
0000
0000
0100
,  // measure 44
0001
1000
0000
1100
0000
1001
0000
0000
,  // measure 45
0100
1100
0000
1001
0000
1000
0000
0010
,  // measure 46
1000
0001
0000
0011
0000
1001
0000
0000
,  // measure 47
0000
0200
0000
0302
0000
0000
0000
2000
,  // measure 48
0000
0000
0000
3003
,  // measure 49
1001
0000
0100
1100
0000
0001
0101
0000
,  // measure 50
0000
1000
0010
0100
0001
1000
0001
0000
,  // measure 51
1001
0000
0100
0101
0000
1000
1100
0000
,  // measure 52
0000
0001
0100
0010
1000
0001
1000
0000
,  // measure 53
1001
0000
0100
1100
0000
0001
0101
0000
,  // measure 54
0000
1000
0010
0100
0001
1000
0001
0000
,  // measure 55
0020
0000
0000
0001
0000
0000
0031
0000
,  // measure 56
0100
1000
0100
1000
0010
0100
0010
0100
,  // measure 57
0001
0100
0000
0100
1000
0000
0100
0010
,  // measure 58
0001
1000
0010
0100
0010
0000
0110
0000
,  // measure 59
1000
0100
0000
0100
0001
0000
0010
0100
,  // measure 60
1000
0001
0100
0010
0100
0000
0110
0000
,  // measure 61
0001
1000
0000
1000
0100
0000
0100
0001
,  // measure 62
0000
0001
1000
0000
1001
0000
1001
0000
,  // measure 63
0001
1000
0000
1000
0100
0000
0100
0001
,  // measure 64
1000
1100
0011
1001
,  // measure 65
0010
0000
0000
1010
0000
0000
1000
0000
0001
0000
0000
0000
0010
0000
0001
0000
,  // measure 66
0100
0000
0000
0101
0000
0000
0001
0000
1000
0000
0000
0000
1001
0000
0000
0000
,  // measure 67
0010
0000
0000
0011
0000
0000
0001
0000
1000
0000
0000
0000
0010
0000
1000
0000
,  // measure 68
0100
0000
0000
1100
0000
0000
1000
0000
0001
0000
0000
0000
1001
0000
0000
0000
,  // measure 69
0100
0000
0000
0101
0000
0000
0001
0000
1000
0000
0100
0000
1000
0000
0000
0000
,  // measure 70
0010
0000
0000
1010
0000
0000
1000
0000
0001
0000
0010
0000
0001
0000
0000
0000
,  // measure 71
1000
0010
0100
0001
0100
1000
0100
0010
,  // measure 72
0200
0000
0010
0310
;
