#TITLE:24/7;
#SUBTITLE:(Breeze & Styles Remix);
#ARTIST:Eclipse feat. Melvina;
#TITLETRANSLIT:;
#SUBTITLETRANSLIT:;
#ARTISTTRANSLIT:;
#CREDIT:DMAxel;
#BANNER:24-7 (Breeze & Styles Remix).png;
#BACKGROUND:24-7 (Breeze & Styles Remix)-bg.png;
#LYRICSPATH:24-7 (Breeze & Styles Remix).lrc;
#CDTITLE:DMAxel original simfile.png;
#MUSIC:24-7 (Breeze & Styles Remix).mp3;
#OFFSET:-11.200;
#SAMPLESTART:99.446;
#SAMPLELENGTH:12.000;
#SELECTABLE:YES;
#BPMS:0.000=173.000;
#STOPS:;
#BGCHANGES:;

//---------------dance-single - ----------------
#NOTES:
     dance-single:
     :
     Easy:
     4:
     0.322,0.335,0.023,0.320,0.000: // measure 1
0020
0000
0000
0000
,  // measure 2
0030
0000
0000
0000
,  // measure 3
0200
0000
0000
0000
,  // measure 4
0320
0000
0000
0000
,  // measure 5
0230
0000
0000
0000
,  // measure 6
0300
0000
0000
0000
,  // measure 7
0020
0000
0000
0000
,  // measure 8
1030
0000
0000
0000
,  // measure 9
1000
1000
1000
1000
,  // measure 10
0001
0001
0001
0001
,  // measure 11
1000
1000
1000
1000
,  // measure 12
0001
0001
0001
0001
,  // measure 13
2001
0000
0000
0000
,  // measure 14
3020
0000
0000
0000
,  // measure 15
0230
0000
0000
0000
,  // measure 16
0320
0000
0000
0000
,  // measure 17
0130
0010
0100
0010
,  // measure 18
0100
0010
0100
0010
,  // measure 19
0100
0001
0100
0001
,  // measure 20
0100
0001
0100
0001
,  // measure 21
1000
0010
1000
0010
,  // measure 22
1000
0010
1000
0010
,  // measure 23
1000
0100
1000
0100
,  // measure 24
1000
0100
1000
0100
,  // measure 25
1000
0010
0100
0010
,  // measure 26
1000
0100
0010
0001
,  // measure 27
0100
0010
0100
0001
,  // measure 28
0010
0100
1000
0001
,  // measure 29
0100
0010
0100
0001
,  // measure 30
0010
0100
1000
0100
,  // measure 31
1000
0010
0100
0010
,  // measure 32
1000
0000
0000
0000
,  // measure 33
1001
1000
1000
0100
,  // measure 34
0010
0001
1000
0010
,  // measure 35
0001
0001
0001
0010
,  // measure 36
0100
1000
0001
0100
,  // measure 37
1000
1000
1000
0100
,  // measure 38
0010
0001
0010
1000
,  // measure 39
0001
0001
0001
0001
,  // measure 40
0010
0100
1000
0100
,  // measure 41
0001
1000
1000
1000
,  // measure 42
0001
0010
0100
1000
,  // measure 43
0001
0001
0001
0001
,  // measure 44
1000
0100
0010
0001
,  // measure 45
1000
1000
1000
0001
,  // measure 46
0010
0100
1000
0010
,  // measure 47
0100
0010
1000
0001
,  // measure 48
1001
0000
0000
0000
,  // measure 49
0002
0000
0000
0023
0000
0000
0230
0000
,  // measure 50
0000
2300
0000
0000
3001
0000
0000
0000
,  // measure 51
2000
0000
0000
3200
0000
0000
0320
0000
,  // measure 52
0000
0032
0000
0000
1003
0000
0000
0000
,  // measure 53
0002
0000
0000
0203
0000
0000
0320
0000
,  // measure 54
0000
2030
0000
0000
3001
0000
0000
0000
,  // measure 55
2000
0000
0000
3020
0000
0000
0230
0000
,  // measure 56
0000
0302
0000
0000
1003
0000
0000
0000
,  // measure 57
0002
0000
0000
0023
0000
0000
0230
0000
,  // measure 58
0000
2300
0000
0000
3001
0000
0000
0000
,  // measure 59
2000
0000
0000
3200
0000
0000
0320
0000
,  // measure 60
0000
0032
0000
0000
1003
0000
0000
0000
,  // measure 61
0200
0000
0000
0320
0000
0000
0230
0000
,  // measure 62
0000
0320
0000
0000
0130
0000
0000
0000
,  // measure 63
0002
0000
0000
2003
0000
0000
3002
0000
,  // measure 64
0000
2003
0000
0000
3001
0000
1000
0000
,  // measure 65
0010
0100
0010
1000
,  // measure 66
0010
0100
0010
1000
,  // measure 67
0100
0010
0001
0100
,  // measure 68
0010
0100
0001
0010
,  // measure 69
0100
1000
0010
0100
,  // measure 70
0010
1000
0100
0010
,  // measure 71
0001
0100
0010
0100
,  // measure 72
0001
1000
0100
0010
,  // measure 73
0001
1000
0100
1000
,  // measure 74
0010
1000
0100
1000
,  // measure 75
0001
0010
0100
1000
,  // measure 76
0100
0010
0100
1000
,  // measure 77
0001
0100
0010
0100
,  // measure 78
0001
0010
0100
0010
,  // measure 79
0001
1000
0010
0100
,  // measure 80
0002
0000
0000
0000
,  // measure 81
1003
0000
0000
0000
;

//---------------dance-single - ----------------
#NOTES:
     dance-single:
     :
     Medium:
     6:
     0.417,0.426,0.274,0.259,0.000: // measure 1
2002
0000
0000
0000
,  // measure 2
3003
0000
0000
0000
,  // measure 3
2010
0000
0000
0000
,  // measure 4
3020
0000
0000
0000
,  // measure 5
0230
0000
0000
0000
,  // measure 6
0300
0000
0000
0000
,  // measure 7
0102
0000
0000
0000
,  // measure 8
1003
0000
0000
0000
,  // measure 9
2020
0000
0000
3030
,  // measure 10
0202
0000
0000
0303
,  // measure 11
0220
0000
0000
0330
,  // measure 12
2002
0000
0000
3003
,  // measure 13
0020
0001
0001
0031
,  // measure 14
0002
1000
1000
1003
,  // measure 15
0200
1000
1000
1300
,  // measure 16
2000
0001
0001
3001
,  // measure 17
0011
0000
0100
0000
1000
0000
0001
0100
,  // measure 18
0000
0010
0000
1000
0000
0010
0000
1000
,  // measure 19
0001
0000
0010
0000
0100
0000
1000
0010
,  // measure 20
0000
0100
0000
0001
0000
0100
0000
0001
,  // measure 21
1000
0000
0100
0000
0010
0000
0001
1000
,  // measure 22
0000
0001
0000
0010
0000
0001
0000
0010
,  // measure 23
0001
0000
0010
0000
0100
0000
1000
0001
,  // measure 24
0000
1000
0000
0100
0000
1000
0000
0100
,  // measure 25
1000
0001
1000
0000
0100
0000
0010
0100
,  // measure 26
0000
1000
0000
0001
0000
0010
0000
0100
,  // measure 27
0010
0001
0010
0000
0100
0000
1000
0001
,  // measure 28
0000
1000
0000
0100
0000
0010
0100
1000
,  // measure 29
0100
0000
0010
0000
0001
0000
0100
0001
,  // measure 30
0000
0010
0000
0001
0000
1000
0010
0100
,  // measure 31
0010
0000
1000
0000
0001
0000
0010
0100
,  // measure 32
0000
0100
0000
0100
0000
0100
0000
0100
,  // measure 33
1001
0000
1000
0010
1000
0010
1000
0001
,  // measure 34
0000
0010
0000
0001
0000
0010
0000
0001
,  // measure 35
1000
0100
1000
0100
1000
0000
0001
0100
,  // measure 36
0000
0010
0000
0100
0000
0001
1000
0000
,  // measure 37
0001
0100
0001
0100
0001
0000
1000
0010
,  // measure 38
0000
0100
0000
0010
0000
1000
0000
0001
,  // measure 39
0010
0001
0010
0001
0010
0000
0001
1000
,  // measure 40
0000
0100
0000
1000
0000
0010
0000
0100
,  // measure 41
0001
0000
1000
0100
1000
0000
0010
0100
,  // measure 42
0000
0001
0000
0010
0000
0100
0000
1000
,  // measure 43
0001
0010
0001
0000
0100
0010
0100
0001
,  // measure 44
0000
0010
0000
0100
0000
1000
0100
1000
,  // measure 45
0001
0000
0011
0000
1000
0000
0001
0010
,  // measure 46
0000
0001
0000
1000
0000
0010
0000
0100
,  // measure 47
0001
0000
1100
0000
0001
0000
0100
0001
,  // measure 48
1000
1000
1000
1000
,  // measure 49
1001
0000
0000
0001
0000
0000
0101
0000
,  // measure 50
0000
0100
0000
0000
1001
0000
0000
0001
,  // measure 51
1000
0000
0000
1000
0000
0000
1100
0000
,  // measure 52
0000
0100
0000
0000
1001
0000
0000
1000
,  // measure 53
0001
0000
0000
0011
0000
0000
0011
0000
,  // measure 54
0000
1000
0000
0000
1001
0000
0000
0001
,  // measure 55
1000
0000
0000
1010
0000
0000
1010
0000
,  // measure 56
0000
0001
0000
0000
1001
0000
0000
1000
,  // measure 57
0002
0000
0000
0203
0000
0000
0320
0000
,  // measure 58
0000
0230
0000
0000
0301
0000
0000
0001
,  // measure 59
2000
0000
0000
3020
0000
0000
0230
0000
,  // measure 60
0000
0320
0000
0000
1030
0000
0000
1000
,  // measure 61
0002
0000
0000
2003
0000
0000
3200
0000
,  // measure 62
0000
0320
0000
0000
0031
0000
0000
0001
,  // measure 63
2000
0000
0000
3002
0000
0000
0023
0000
,  // measure 64
0000
0031
1000
0100
1000
0100
1000
0000
,  // measure 65
1100
0000
1100
0000
0001
0000
1000
0010
,  // measure 66
0000
0100
0000
0010
0000
0100
0000
0001
,  // measure 67
0100
0000
0101
0000
1000
0000
0001
0100
,  // measure 68
0000
0010
0000
0100
0000
0010
1000
0001
,  // measure 69
0010
0000
0011
0000
1000
0000
0001
0100
,  // measure 70
0000
0010
0000
0100
0000
0010
0000
1000
,  // measure 71
0010
0000
1010
0000
0001
0000
1000
0010
,  // measure 72
0000
0100
0000
0010
0000
0100
0001
1000
,  // measure 73
0100
0000
1100
0000
1001
0000
1000
0001
,  // measure 74
0010
0001
0000
0010
0000
0001
0000
1000
,  // measure 75
0001
0000
0011
0000
1001
0000
0001
1000
,  // measure 76
0100
1000
0000
0100
0000
1000
0001
0010
,  // measure 77
0001
0000
0011
0000
1001
0000
0001
1000
,  // measure 78
0100
1000
0000
0010
0000
0100
0000
0001
,  // measure 79
1000
0000
1100
0000
1001
0000
1000
0001
,  // measure 80
0020
0000
0000
0030
,  // measure 81
1001
0000
0000
0000
;

//---------------dance-single - ----------------
#NOTES:
     dance-single:
     :
     Hard:
     8:
     0.527,0.548,0.297,0.358,0.015: // measure 1
0102
0000
0000
2000
0000
0000
0000
0000
,  // measure 2
3003
0000
0000
0000
,  // measure 3
2100
0000
0000
0002
0000
0000
3000
0000
,  // measure 4
0203
0000
0000
0020
0000
0000
0330
0000
,  // measure 5
2010
0000
0000
0002
0000
0000
0000
0000
,  // measure 6
3003
0000
0000
0000
,  // measure 7
0012
0000
0000
2000
0000
0000
0003
0000
,  // measure 8
3020
0000
0000
0200
0000
0000
0330
0000
,  // measure 9
0011
0010
0010
0010
,  // measure 10
0100
0100
0100
0100
,  // measure 11
1100
1000
1000
1000
,  // measure 12
1001
0001
0001
0001
,  // measure 13
0101
0100
0001
1000
,  // measure 14
0010
1000
0001
0100
,  // measure 15
0001
1000
0001
1000
0001
1000
0001
1000
,  // measure 16
0002
1000
1000
1003
,  // measure 17
1010
0000
1010
0000
1001
0000
1000
0010
,  // measure 18
0000
0100
0000
0001
0000
0100
0000
0001
,  // measure 19
0100
0000
0101
0000
1001
0000
0001
0100
,  // measure 20
0000
0010
0000
1000
0000
0010
1000
0001
,  // measure 21
0100
0000
0101
0000
1001
0000
1000
0100
,  // measure 22
0000
0010
0000
0001
0000
0010
0000
0001
,  // measure 23
0010
0000
0011
0000
1001
0000
0001
0010
,  // measure 24
0000
0100
0000
1000
0000
0100
0000
1000
,  // measure 25
0001
0100
0010
0100
0001
0000
0010
0100
,  // measure 26
0000
1000
0010
1000
0001
0100
0000
0001
,  // measure 27
1000
0010
0100
0010
1000
0000
0100
0010
,  // measure 28
0000
0001
0100
0001
0000
1000
0010
1000
,  // measure 29
0001
0100
0010
0100
0001
0000
0010
0100
,  // measure 30
0000
1000
0100
1000
0000
0001
0010
0001
,  // measure 31
1000
0100
0010
0100
1000
0000
0001
1000
,  // measure 32
0100
0010
0001
1000
0100
0010
0001
0000
,  // measure 33
1001
0000
0001
0100
0010
1000
0100
0010
,  // measure 34
0000
0000
0001
0000
0100
0000
0001
0000
1000
0000
0000
0100
0000
0000
1000
0000
,  // measure 35
0002
0000
0100
0000
0103
0000
0010
1000
,  // measure 36
0200
1000
0000
1000
0000
1300
0001
0100
,  // measure 37
0001
0000
1000
0010
0100
0001
0010
0100
,  // measure 38
0000
0000
1000
0000
0010
0000
1000
0000
0001
0000
0000
0010
0000
0000
0001
0000
,  // measure 39
2000
0000
0010
0000
3010
0000
0100
0001
,  // measure 40
0020
0001
0000
0001
0000
0031
1000
0010
,  // measure 41
1000
0000
0001
0010
0100
1000
0010
0100
,  // measure 42
0000
0000
0001
0000
0010
0000
0001
0000
1000
0000
0000
0010
0000
0000
1000
0000
,  // measure 43
0002
0000
0010
0000
0013
0000
0001
1000
,  // measure 44
0200
1000
0000
1000
0000
1300
0001
1000
,  // measure 45
0010
0100
0010
1000
0100
0010
0001
0100
,  // measure 46
0000
0000
0010
0000
1000
0000
0100
0000
0010
0000
0000
0001
0000
0000
0100
0000
,  // measure 47
0002
0000
1000
0000
1003
0100
0010
0001
,  // measure 48
1001
0110
1001
0000
,  // measure 49
2001
0000
0000
3002
0000
0000
0203
0000
,  // measure 50
0000
0320
0000
0000
2030
0000
0000
3001
,  // measure 51
0200
0000
0000
0302
0000
0000
0023
0000
,  // measure 52
0000
0230
0000
0000
2300
0000
0000
3001
,  // measure 53
2000
0000
0000
3002
0000
0000
0203
0000
,  // measure 54
0000
0320
0000
0000
2030
0000
0000
3001
,  // measure 55
0200
0000
0000
0302
0000
0000
0023
0000
,  // measure 56
0000
0032
0000
0000
2003
0000
0000
3001
,  // measure 57
1000
0000
1000
0010
0000
0010
0100
0000
,  // measure 58
0100
0010
0000
0010
1000
0000
0000
1000
,  // measure 59
0001
0000
0001
0100
0000
0100
0010
0000
,  // measure 60
0010
0100
0000
0100
0001
0000
0000
0001
,  // measure 61
1000
0000
1000
0100
0000
0100
0010
0000
,  // measure 62
0010
0001
0000
0001
1000
0000
0000
1000
,  // measure 63
0001
0000
0001
0010
0000
0010
0100
0000
,  // measure 64
0100
1000
0000
0100
0010
0001
1000
0010
,  // measure 65
0110
0000
0110
0000
1000
0100
0010
0001
,  // measure 66
1000
0200
0000
0010
0000
0310
0001
0100
,  // measure 67
0110
0000
0110
0000
0001
0010
0100
1000
,  // measure 68
0001
0020
0000
0100
0000
0130
1000
0010
,  // measure 69
0110
0000
0110
0000
1000
0010
0100
0001
,  // measure 70
0010
0200
0000
1000
0000
1300
0001
0100
,  // measure 71
0110
0000
0110
0000
0001
0100
0010
1000
,  // measure 72
0100
0020
0000
0001
0000
0031
1000
0010
,  // measure 73
0110
0000
0110
0000
1000
0010
1000
0001
,  // measure 74
0010
2000
0000
0001
0000
3001
0010
0100
,  // measure 75
0110
0000
0110
0000
0001
0100
0001
1000
,  // measure 76
0100
0002
0000
1000
0000
1003
0100
0010
,  // measure 77
0110
0000
0110
0000
1000
0010
1000
0001
,  // measure 78
0010
2000
0000
0001
0000
3001
0010
0100
,  // measure 79
0110
0000
0110
0000
0001
0100
0001
1000
,  // measure 80
0100
0001
0010
0100
1000
0001
0010
0100
,  // measure 81
1001
0000
0000
0000
;

//---------------dance-single - ----------------
#NOTES:
     dance-single:
     :
     Beginner:
     1:
     0.074,0.122,0.038,0.000,0.000: // measure 1
0000
0000
0000
0000
,  // measure 2
0000
0000
0000
0000
,  // measure 3
0000
0000
0000
0000
,  // measure 4
0000
0000
0000
0000
,  // measure 5
0010
0000
0000
0000
,  // measure 6
0000
0000
0000
0000
,  // measure 7
0010
0000
0000
0000
,  // measure 8
0000
0000
0000
0000
,  // measure 9
0110
0000
0000
0000
,  // measure 10
0000
0000
0000
0000
,  // measure 11
1000
0000
0000
0000
,  // measure 12
0001
0000
0000
0000
,  // measure 13
1000
0000
0000
0000
,  // measure 14
0000
0000
0000
0000
,  // measure 15
0001
0000
0000
0000
,  // measure 16
0001
0000
0000
0000
,  // measure 17
1001
0000
0000
0000
,  // measure 18
0001
0000
0000
0000
,  // measure 19
1000
0000
0000
0000
,  // measure 20
0001
0000
0000
0000
,  // measure 21
0100
0000
0000
0000
,  // measure 22
0010
0000
0000
0000
,  // measure 23
0100
0000
0000
0000
,  // measure 24
0000
0000
0000
0000
,  // measure 25
0001
0000
0000
0000
,  // measure 26
1000
0000
0000
0000
,  // measure 27
0001
0000
0000
0000
,  // measure 28
0000
0000
0000
0000
,  // measure 29
0100
0000
0000
0000
,  // measure 30
0001
0000
0000
0000
,  // measure 31
0100
0000
0000
0000
,  // measure 32
0001
0000
0000
0000
,  // measure 33
1000
0000
0000
0000
,  // measure 34
0010
0000
0000
0000
,  // measure 35
1000
0000
0000
0000
,  // measure 36
1000
0000
0000
0000
,  // measure 37
0001
0000
0000
0000
,  // measure 38
0001
0000
0000
0000
,  // measure 39
1000
0000
0000
0000
,  // measure 40
1000
0000
0000
0000
,  // measure 41
0001
0000
0000
0000
,  // measure 42
0001
0000
0000
0000
,  // measure 43
0010
0000
0000
0000
,  // measure 44
0010
0000
0000
0000
,  // measure 45
0001
0000
0000
0000
,  // measure 46
1000
0000
0000
0000
,  // measure 47
0100
0000
0000
0000
,  // measure 48
0100
0000
0000
0000
,  // measure 49
1001
0000
0000
0000
,  // measure 50
0000
0000
0000
0000
,  // measure 51
0010
0000
0000
0000
,  // measure 52
0000
0000
0000
0000
,  // measure 53
0010
0000
0000
0000
,  // measure 54
0000
0000
0000
0000
,  // measure 55
0010
0000
0000
0000
,  // measure 56
0000
0000
0000
0000
,  // measure 57
1001
0000
0000
0000
,  // measure 58
0000
0000
0000
0000
,  // measure 59
0100
0000
0000
0000
,  // measure 60
0000
0000
0000
0000
,  // measure 61
0100
0000
0000
0000
,  // measure 62
0000
0000
0000
0000
,  // measure 63
0100
0000
0000
0000
,  // measure 64
0000
0000
0000
0000
,  // measure 65
0001
0000
0000
0000
,  // measure 66
1000
0000
0000
0000
,  // measure 67
0001
0000
0000
0000
,  // measure 68
1000
0000
0000
0000
,  // measure 69
0100
0000
0000
0000
,  // measure 70
0010
0000
0000
0000
,  // measure 71
0100
0000
0000
0000
,  // measure 72
0010
0000
0000
0000
,  // measure 73
0001
0000
0000
0000
,  // measure 74
1000
0000
0000
0000
,  // measure 75
0001
0000
0000
0000
,  // measure 76
1000
0000
0000
0000
,  // measure 77
0010
0000
0000
0000
,  // measure 78
0100
0000
0000
0000
,  // measure 79
0001
0000
0000
0000
,  // measure 80
1000
0000
0000
0000
,  // measure 81
1001
0000
0000
0000
;
