#TITLE:20,november;
#SUBTITLE:(FINAL EDIT);
#ARTIST:N.A.R.D. (arranged by TATSUYA NISHIWAKI);
#TITLETRANSLIT:;
#SUBTITLETRANSLIT:;
#ARTISTTRANSLIT:;
#CREDIT:DMAxel;
#BANNER:20,november (FINAL EDIT).png;
#BACKGROUND:20,november (FINAL EDIT)-bg.png;
#LYRICSPATH:;
#CDTITLE:beatmania.png;
#MUSIC:20,november (FINAL EDIT).mp3;
#OFFSET:-7.540;
#SAMPLESTART:29.712;
#SAMPLELENGTH:12.000;
#SELECTABLE:YES;
#BPMS:0.000=129.900;
#STOPS:;
#BGCHANGES:;

//---------------dance-single - ----------------
#NOTES:
     dance-single:
     :
     Easy:
     3:
     0.248,0.246,0.108,0.140,0.000: // measure 1
0001
0100
0001
0100
,  // measure 2
0001
0100
0001
0010
,  // measure 3
0100
1000
0100
1000
,  // measure 4
0100
1000
0010
0100
,  // measure 5
0001
0010
0001
0010
,  // measure 6
0001
0010
0100
1000
,  // measure 7
0010
1000
0010
1000
,  // measure 8
0010
1000
0010
0100
,  // measure 9
0002
0000
0000
0000
,  // measure 10
2003
0000
0000
0000
,  // measure 11
3002
0000
0000
0000
,  // measure 12
0203
0000
0000
0310
,  // measure 13
0110
1000
0100
0000
,  // measure 14
0110
0001
0010
0000
,  // measure 15
0110
1000
0100
0000
,  // measure 16
0110
0001
0010
0000
,  // measure 17
1001
0100
0010
0001
,  // measure 18
1000
0010
0100
0010
,  // measure 19
1000
0001
0010
0100
,  // measure 20
1000
0001
0100
0010
,  // measure 21
0100
0001
2000
0000
,  // measure 22
0000
0000
3020
0000
,  // measure 23
0000
0000
0230
0000
,  // measure 24
0000
0000
0302
0000
,  // measure 25
0000
0000
1003
0100
,  // measure 26
1000
0000
0001
0100
,  // measure 27
0001
0000
0100
0010
,  // measure 28
0100
0000
0010
1000
,  // measure 29
0010
0000
1001
0001
,  // measure 30
1000
0001
0010
0100
,  // measure 31
1000
0010
1000
0010
,  // measure 32
1000
0010
0100
0001
,  // measure 33
0010
0100
1000
0001
,  // measure 34
0100
0001
0010
0100
,  // measure 35
1000
0010
0100
0010
,  // measure 36
1000
0001
0010
0100
,  // measure 37
1000
0000
0001
0000
2001
0000
0000
0001
,  // measure 38
0000
0000
3001
0100
,  // measure 39
1000
0000
0000
0000
1002
0000
0000
1000
,  // measure 40
0000
0000
1003
0100
,  // measure 41
0001
0000
0000
0000
2001
0000
0000
0001
,  // measure 42
0000
0000
3001
0100
,  // measure 43
1000
0000
0000
0000
1002
0000
0000
1000
,  // measure 44
0000
1000
0103
0001
,  // measure 45
0100
1000
0020
0000
,  // measure 46
0000
0000
0030
0000
;

//---------------dance-single - ----------------
#NOTES:
     dance-single:
     :
     Medium:
     5:
     0.341,0.369,0.097,0.151,0.000: // measure 1
2000
0001
0000
3001
,  // measure 2
0100
0000
0001
0000
1000
0001
1000
0000
,  // measure 3
0002
1000
0000
1003
,  // measure 4
0010
0000
1000
0000
0001
1000
0001
0000
,  // measure 5
0200
0010
0000
0310
,  // measure 6
1000
0000
0010
0000
0100
0010
0100
0000
,  // measure 7
0020
0100
0000
0130
,  // measure 8
0001
0000
0100
0000
0010
0100
0010
0000
,  // measure 9
1000
0000
0000
1000
0000
0000
1000
0000
,  // measure 10
0001
0000
0000
0001
0000
0000
0001
0000
,  // measure 11
0100
0000
0000
0010
0000
0000
0100
0000
,  // measure 12
0001
0000
0000
1000
0000
0000
0001
0000
,  // measure 13
0100
0001
0100
0001
1000
0000
1000
0000
,  // measure 14
0010
1000
0010
1000
0001
0000
0001
0000
,  // measure 15
0010
0001
0010
0001
1000
0000
1000
0000
,  // measure 16
0100
1000
0100
1000
0001
0000
0001
0000
,  // measure 17
0100
0010
0100
0010
1000
0001
0000
0000
,  // measure 18
0100
0010
0100
0010
1000
0001
1000
0000
,  // measure 19
0010
0100
0010
0100
0001
1000
0000
0000
,  // measure 20
0010
0100
0010
0100
0001
1000
0001
0000
,  // measure 21
0010
0100
2000
0001
,  // measure 22
0001
3001
0200
0010
,  // measure 23
0010
0310
0002
1000
,  // measure 24
1000
1003
0020
0100
,  // measure 25
0100
0130
0001
0010
,  // measure 26
0100
1000
0100
0001
,  // measure 27
0100
1000
0100
0010
,  // measure 28
0001
0100
1000
0100
,  // measure 29
0001
0000
1000
0001
1000
0000
0000
1001
,  // measure 30
0000
0001
0000
0000
1000
0010
0100
0000
,  // measure 31
0010
0100
0010
0000
1000
0100
0010
0001
,  // measure 32
1000
0010
0110
0110
,  // measure 33
1001
0000
1001
0000
0001
0000
0000
1001
,  // measure 34
0000
1000
0000
0000
0001
0100
0010
0000
,  // measure 35
0100
0010
0100
0000
0001
0010
0100
1000
,  // measure 36
0001
0000
0100
0000
0010
0100
0010
0000
,  // measure 37
1000
0000
0001
1000
0002
0000
0000
0103
,  // measure 38
0000
0001
0100
0010
,  // measure 39
1000
0000
0001
0000
2000
0000
0000
3010
,  // measure 40
0000
1000
0010
0100
,  // measure 41
0001
0000
1000
0000
1002
0000
0000
0103
,  // measure 42
0000
0001
0010
0100
,  // measure 43
1000
0000
0001
0000
2001
0000
0000
3010
,  // measure 44
0000
1000
0100
0010
,  // measure 45
0001
1000
0220
0000
,  // measure 46
0000
0000
0330
0000
;

//---------------dance-single - ----------------
#NOTES:
     dance-single:
     :
     Hard:
     7:
     0.438,0.442,0.130,0.086,0.027: // measure 1
1000
0100
0001
0000
0100
0000
0001
0100
,  // measure 2
1000
0000
0001
0010
0001
1000
0010
1000
,  // measure 3
0001
0100
1000
0000
0100
0000
1000
0100
,  // measure 4
0001
0000
1000
0010
1000
0001
0010
0001
,  // measure 5
1000
0100
0001
0000
0100
0000
0001
0100
,  // measure 6
1000
0000
0001
0010
0001
1000
0010
1000
,  // measure 7
0001
0100
1000
0000
0100
0000
1000
0100
,  // measure 8
0001
0000
1000
0010
1000
0001
0010
0001
,  // measure 9
2000
0000
0000
0100
0000
0000
3100
0000
,  // measure 10
0020
0000
0000
0001
0000
0000
0031
0000
,  // measure 11
0200
0000
0000
0010
0000
0000
0310
0000
,  // measure 12
2000
0000
0000
0001
0000
0000
3001
0000
,  // measure 13
0001
1000
0001
1000
0001
1000
0001
1000
,  // measure 14
0001
0100
0001
0100
0001
0100
0001
0100
,  // measure 15
0010
1000
0010
1000
0010
1000
0010
1000
,  // measure 16
0010
0100
0010
0100
0010
0100
0010
1000
,  // measure 17
1100
0001
1000
0001
1000
0001
1000
0001
,  // measure 18
0100
0001
0100
0001
0100
0001
0100
0001
,  // measure 19
1000
0010
1000
0010
1000
0010
1000
0010
,  // measure 20
0100
0010
0100
0010
1000
0100
0010
0001
,  // measure 21
1000
0100
0010
0001
1000
0000
0100
0000
,  // measure 22
1000
0000
0001
0100
0101
0000
0001
0000
,  // measure 23
0100
0001
1001
0010
,  // measure 24
0001
0000
1000
0010
1010
0000
1000
0000
,  // measure 25
0010
1000
2001
0100
,  // measure 26
0001
0000
0100
0000
3001
0010
0100
1000
,  // measure 27
0001
0100
0002
0100
,  // measure 28
1000
0000
0100
0000
1003
0100
0010
0001
,  // measure 29
1000
0000
0001
1000
1001
0000
0000
1000
,  // measure 30
0001
0100
0000
0000
0001
0100
0001
0100
,  // measure 31
0010
1000
0100
0001
0100
1000
0010
0100
,  // measure 32
0001
1000
0000
0000
0100
1000
1100
0000
,  // measure 33
0010
0001
1001
0000
1001
0000
0000
0001
,  // measure 34
1000
0010
0000
0000
1000
0010
1000
0010
,  // measure 35
0100
0001
0100
1000
0100
0001
0100
0010
,  // measure 36
1000
0001
0000
0000
0010
0001
0011
0000
,  // measure 37
0100
1000
0001
0100
0101
0000
0001
0100
,  // measure 38
1000
0000
0000
0000
0100
0000
0001
0000
1000
0000
0000
0100
0000
0000
1000
0000
,  // measure 39
0000
0000
1000
0000
1000
0100
0001
0000
,  // measure 40
0100
0000
0001
0000
0000
1000
0000
0000
0100
0000
0000
0010
0000
0000
0001
0000
,  // measure 41
0000
0000
0100
0001
1000
0100
0001
0000
,  // measure 42
0100
1000
0001
0010
0100
0000
1000
0001
,  // measure 43
1000
0000
0001
0000
0001
0100
1000
0000
,  // measure 44
0100
0000
0001
0000
0000
1000
0000
0000
0100
0000
0000
0010
0000
0000
0001
0000
,  // measure 45
0000
0100
0220
0000
,  // measure 46
0000
0000
0330
0000
;

//---------------dance-single - ----------------
#NOTES:
     dance-single:
     :
     Challenge:
     8:
     0.512,0.490,0.184,0.140,0.232: // measure 1
0001
0100
0010
1000
0100
0001
0100
0000
,  // measure 2
1100
1000
1001
0001
,  // measure 3
1000
0010
0100
0001
0100
1000
0100
0000
,  // measure 4
0101
0001
1001
1000
,  // measure 5
0001
0010
0100
1000
0010
0001
0010
0000
,  // measure 6
1010
1000
1001
0001
,  // measure 7
1000
0100
0010
0001
0010
1000
0010
0000
,  // measure 8
0011
0001
1001
1000
,  // measure 9
0002
0000
0000
0203
0000
0000
1300
0000
,  // measure 10
0200
0000
0000
0302
0000
0000
1003
0000
,  // measure 11
2000
0000
0000
3200
0000
0000
0301
0000
,  // measure 12
0200
0000
0000
2300
0000
0000
3001
0000
,  // measure 13
0100
0001
0100
1000
0100
0010
1000
0001
,  // measure 14
0100
0001
0100
1000
0100
0010
1000
0001
,  // measure 15
0010
0001
0010
1000
0010
0100
1000
0001
,  // measure 16
0010
0001
0010
1000
0010
0100
1000
0001
,  // measure 17
0100
0001
0000
1000
0000
0100
1000
0100
0000
0000
1100
0000
0000
0000
0001
0000
,  // measure 18
0100
0001
1000
0100
0001
0100
1000
1000
,  // measure 19
0100
1000
0000
0001
0000
0100
0001
0100
0000
0000
0101
0000
0000
0000
1000
0000
,  // measure 20
0100
1000
0001
0100
1001
0100
0010
0001
,  // measure 21
1001
0000
0010
0000
0100
0000
1000
0000
0001
0000
0000
0100
0000
0001
0000
0100
,  // measure 22
0000
0010
0000
1000
0001
0000
0001
0000
1000
0000
0000
0100
0000
1000
0000
0100
,  // measure 23
0000
0010
0000
0001
1000
0000
1000
0000
0001
0000
0000
0010
0000
0001
0000
0010
,  // measure 24
0000
0100
0000
1000
0001
0000
0001
0000
1000
0000
0000
0010
0000
1000
0000
0010
,  // measure 25
0000
0100
0000
0001
1000
0000
1000
0000
0001
0000
0100
0000
1000
0000
0100
0000
,  // measure 26
0001
0000
0000
0000
0100
0010
0100
0001
,  // measure 27
0100
0010
0100
0001
1000
0100
0001
0100
,  // measure 28
1000
0000
0000
0000
0010
0100
0010
1000
,  // measure 29
0010
0000
0100
0000
0001
1000
0001
1000
0001
0000
0100
0000
0001
0000
0101
0000
,  // measure 30
1000
0001
1000
0000
0001
0100
0010
1000
,  // measure 31
0100
0001
0100
0010
0001
1000
0100
0010
,  // measure 32
0001
0101
1000
0001
1000
0100
0001
0100
,  // measure 33
1000
0001
0101
0000
1000
0010
1000
1010
,  // measure 34
0001
1000
0001
0000
1000
0010
0100
0001
,  // measure 35
0100
1000
0100
0010
1000
0100
0010
0001
,  // measure 36
1000
1010
0001
1000
0001
0100
1000
0100
,  // measure 37
0001
0000
1000
0000
0010
0100
0010
0100
0020
0000
0000
0000
0000
0000
1030
0000
,  // measure 38
0001
0000
0000
0000
0001
0000
1000
0100
1000
0000
0000
0010
0000
0000
0200
0000
,  // measure 39
0000
0000
0301
0000
0200
0000
0000
0301
,  // measure 40
1000
0000
0010
0000
0000
0100
0000
0000
0001
0000
0000
0100
0000
0000
1000
0000
,  // measure 41
0100
0001
0100
0010
0200
0000
0000
0301
,  // measure 42
1000
0000
0000
0000
1000
0000
0001
0100
0001
0000
0000
0000
0100
0000
0010
0000
,  // measure 43
1000
0000
0010
0100
0020
0000
0000
1030
,  // measure 44
0001
0000
0100
0000
0000
0001
0000
0000
0100
0000
0000
1000
0000
0000
0100
0000
,  // measure 45
0001
0000
0010
0000
0100
0000
1000
0000
0010
0000
0000
0010
0100
0000
0100
0000
,  // measure 46
0000
0001
0000
0001
1000
0001
1000
0000
0000
0000
0000
0000
0000
0000
0000
0000
;

//---------------dance-single - ----------------
#NOTES:
     dance-single:
     :
     Beginner:
     1:
     0.059,0.096,0.032,0.000,0.000:
1000
0000
0000
0000
,
0000
0000
0000
0000
,
1000
0000
0000
0000
,
0000
0000
0000
0000
,
0001
0000
0000
0000
,
0000
0000
0000
0000
,
0001
0000
0000
0000
,
0000
0000
0000
0000
,
0100
0000
0000
0000
,
0100
0000
0000
0000
,
0100
0000
0000
0000
,
0100
0000
0000
0000
,
1001
0000
0000
0000
,
0001
0000
0000
0000
,
0001
0000
0000
0000
,
0001
0000
0000
0000
,
1000
0000
0000
0000
,
1000
0000
0000
0000
,
1000
0000
0000
0000
,
1000
0000
0000
0000
,
0000
0000
1001
0000
,
0000
0000
0001
0000
,
0000
0000
1000
0000
,
0000
0000
0001
0000
,
0000
0000
0100
0000
,
0000
0000
0000
0000
,
0000
0000
0100
0000
,
0000
0000
0000
0000
,
0000
0000
1001
0000
,
0000
0000
1000
0000
,
0000
0000
0001
0000
,
0000
0000
1000
0000
,
0000
0000
0010
0000
,
0000
0000
0100
0000
,
0000
0000
0010
0000
,
0000
0000
0100
0000
,
0000
0000
0001
0000
,
0000
0000
0000
0000
,
0000
0000
0001
0000
,
0000
0000
0000
0000
,
0000
0000
0001
0000
,
0000
0000
0000
0000
,
0000
0000
0000
0001
,
0000
0000
0000
0000
,
0000
0000
1000
0000
;
