#TITLE:@n H@ppy Choice;
#SUBTITLE:;
#ARTIST:Sana;
#TITLETRANSLIT:;
#SUBTITLETRANSLIT:;
#ARTISTTRANSLIT:;
#CREDIT:DMAxel;
#BANNER:@n H@ppy Choice.png;
#BACKGROUND:@n H@ppy Choice-bg.png;
#LYRICSPATH:@n H@ppy Choice.lrc;
#CDTITLE:Konami original REMIX.png;
#MUSIC:@n H@ppy Choice.mp3;
#OFFSET:-7.840;
#SAMPLESTART:48.717;
#SAMPLELENGTH:12.000;
#SELECTABLE:YES;
#BPMS:0.000=162.000;
#STOPS:;
#BGCHANGES:;

//---------------dance-single - ----------------
#NOTES:
     dance-single:
     :
     Easy:
     3:
     0.263,0.308,0.154,0.068,0.000: // measure 1
1001
0000
0001
0000
,  // measure 2
0010
0000
0001
0000
,  // measure 3
1000
1001
1000
0000
,  // measure 4
0002
0000
0020
0033
,  // measure 5
1001
0000
1000
0000
,  // measure 6
1000
0000
0100
0000
,  // measure 7
0010
0000
0010
0000
,  // measure 8
0001
0000
0001
0000
,  // measure 9
1001
0000
0001
0000
,  // measure 10
0010
0000
0001
0000
,  // measure 11
0100
0000
0100
0000
,  // measure 12
0020
0000
0000
1030
,  // measure 13
1001
0000
1000
0000
,  // measure 14
1000
0000
0010
0000
,  // measure 15
0100
0000
0100
0000
,  // measure 16
0001
0000
0001
0000
,  // measure 17
1000
0000
0001
0000
,  // measure 18
1000
0000
0001
0000
,  // measure 19
0100
0000
0010
0000
,  // measure 20
0200
0000
0000
0301
,  // measure 21
1001
0000
0001
0000
,  // measure 22
0100
0100
0100
0000
,  // measure 23
0010
0000
1000
0000
,  // measure 24
0010
0010
0010
0000
,  // measure 25
1001
0000
1000
0000
,  // measure 26
0100
0100
0100
0000
,  // measure 27
2000
0000
0000
0000
,  // measure 28
0000
3002
0000
0003
,  // measure 29
1001
1000
1000
1000
,  // measure 30
0100
0010
0001
1000
,  // measure 31
0001
0001
0001
0001
,  // measure 32
0010
0100
1000
0001
,  // measure 33
1000
1000
1000
1000
,  // measure 34
0100
0010
0001
1000
,  // measure 35
0001
1001
0000
1001
,  // measure 36
0000
0000
0000
1000
,  // measure 37
0001
0001
0001
0001
,  // measure 38
0010
0100
1000
0001
,  // measure 39
1000
1000
1000
1000
,  // measure 40
0100
0010
0001
1000
,  // measure 41
0001
0001
0001
0001
,  // measure 42
0010
0100
1000
0001
,  // measure 43
1000
1001
0000
1001
,  // measure 44
0000
0000
0000
0000
,  // measure 45
1001
1000
1000
0100
,  // measure 46
0000
1000
0001
1000
,  // measure 47
0001
0001
0001
0010
,  // measure 48
0001
0000
1000
0001
,  // measure 49
1000
0010
0010
0010
,  // measure 50
0010
0100
0010
0100
,  // measure 51
0001
1000
0001
1000
,  // measure 52
0000
0000
0001
0000
,  // measure 53
1001
0000
0000
0001
0000
0000
0100
0000
,  // measure 54
0000
0000
0000
0000
,  // measure 55
1001
0000
0000
1000
,  // measure 56
0001
0000
0000
0001
,  // measure 57
1000
0000
1000
0000
,  // measure 58
1000
0000
0000
0010
,  // measure 59
0100
0100
0100
0000
,  // measure 60
0010
0010
0010
0000
,  // measure 61
1000
0001
1000
0001
,  // measure 62
1000
0001
0010
0001
,  // measure 63
1001
0000
0001
0000
,  // measure 64
1000
0010
0100
0010
,  // measure 65
1000
0000
0001
0000
,  // measure 66
1000
0000
0001
0100
,  // measure 67
0010
0000
0100
0000
,  // measure 68
0001
1000
0001
1000
,  // measure 69
0010
0000
0100
0000
,  // measure 70
0010
0000
1000
0000
,  // measure 71
1001
0000
0000
1000
0000
0000
0000
2002
,  // measure 72
0000
0000
0000
0000
,  // measure 73
3003
0000
0000
0000
;

//---------------dance-single - ----------------
#NOTES:
     dance-single:
     :
     Medium:
     6:
     0.400,0.432,0.300,0.128,0.000: // measure 1
1001
1000
0100
0000
,  // measure 2
1000
0100
0010
0001
,  // measure 3
0001
1001
0001
0100
,  // measure 4
0010
0100
0000
0000
0100
0010
0000
0000
,  // measure 5
1001
0001
1000
0001
,  // measure 6
1000
0001
0100
0010
,  // measure 7
0100
0000
0001
0000
,  // measure 8
1000
0000
1000
0000
,  // measure 9
1001
1000
0001
1000
,  // measure 10
0001
1000
0100
0010
,  // measure 11
0001
0100
0010
0100
,  // measure 12
0002
0000
0000
0103
,  // measure 13
1001
0001
1000
0001
,  // measure 14
1000
0001
1000
0001
,  // measure 15
0100
0010
0100
0010
,  // measure 16
1000
0000
1000
0000
,  // measure 17
1001
1000
0001
1000
,  // measure 18
0001
1000
0100
0010
,  // measure 19
0001
0100
0010
0100
,  // measure 20
0020
0000
0000
1030
,  // measure 21
1001
0000
1000
0000
1000
0010
0000
0100
,  // measure 22
0000
0100
0000
0100
0010
0000
0000
1000
,  // measure 23
0001
0000
0001
0000
0001
0100
0000
0010
,  // measure 24
0000
0010
0000
0010
0100
0000
0001
0000
,  // measure 25
1000
0000
1000
0000
1000
0100
0000
0010
,  // measure 26
0000
0010
0000
0010
0100
0000
0000
1000
,  // measure 27
0002
0000
0010
0000
,  // measure 28
0100
0000
1003
0000
,  // measure 29
1002
1000
1000
1000
,  // measure 30
1003
0001
0010
0100
,  // measure 31
2001
0001
0001
0001
,  // measure 32
3001
1000
0100
0010
,  // measure 33
1002
1000
1000
1000
,  // measure 34
1003
0000
0000
0010
0000
0000
1000
0000
,  // measure 35
0001
1001
1000
1001
,  // measure 36
0100
1000
0000
1000
0000
1000
0001
0000
,  // measure 37
2001
0001
0001
0001
,  // measure 38
3001
1000
0100
0010
,  // measure 39
1002
1000
1000
1000
,  // measure 40
1003
0001
0010
0100
,  // measure 41
2001
0001
0001
0001
,  // measure 42
3001
1000
0100
0010
,  // measure 43
0001
1001
1000
1001
,  // measure 44
0010
0001
0000
0001
0100
0000
0110
0000
,  // measure 45
1001
0000
0010
0000
0100
0000
1000
0001
,  // measure 46
0000
0100
0010
0100
,  // measure 47
1001
0000
0100
0000
0010
0000
0001
1000
,  // measure 48
0000
1000
0001
0000
0100
0000
0010
0000
,  // measure 49
1001
0010
1000
0100
,  // measure 50
0001
0010
0100
0010
,  // measure 51
1001
0000
0100
0000
0010
0000
0001
1000
,  // measure 52
0000
1000
0000
1000
0010
0000
0110
0000
,  // measure 53
1001
0000
0000
1001
0000
0000
0011
0000
,  // measure 54
0000
0010
1000
0000
0100
0000
0010
0000
,  // measure 55
2001
0000
0000
3010
,  // measure 56
0100
0010
1000
1000
,  // measure 57
0001
0100
0001
1000
,  // measure 58
0200
0000
0000
1300
,  // measure 59
0100
0001
0010
1000
,  // measure 60
0100
0000
0001
0000
0010
0000
1000
0001
,  // measure 61
1000
0100
0001
0010
,  // measure 62
1000
0100
0001
0110
,  // measure 63
1001
0000
0001
1000
0001
0000
0100
0010
,  // measure 64
0000
1000
0100
0010
,  // measure 65
1001
0000
1000
0001
1000
0000
0010
0100
,  // measure 66
0000
0001
0010
0100
,  // measure 67
1001
0000
0020
0000
1000
0000
1030
0001
,  // measure 68
1000
0001
1000
0000
0100
0000
0010
0000
,  // measure 69
1001
0000
0200
0000
0001
0000
0301
1000
,  // measure 70
0001
1000
0001
0000
0010
0000
0100
0000
,  // measure 71
1001
0000
0000
0101
0000
0000
1000
2002
,  // measure 72
0000
0000
0000
0000
,  // measure 73
3003
0000
0000
0000
;

//---------------dance-single - ----------------
#NOTES:
     dance-single:
     :
     Hard:
     7:
     0.558,0.524,0.462,0.051,0.000: // measure 1
1001
0000
0001
0010
0100
1000
0001
0000
,  // measure 2
0001
1000
0010
0000
0110
0000
1000
0000
,  // measure 3
0001
0001
1001
0000
1000
0100
0010
0001
,  // measure 4
0200
0010
0000
0300
0020
0100
0000
0030
,  // measure 5
1001
0000
1000
0010
0000
1000
0010
0000
,  // measure 6
0100
0000
0100
0001
0000
0100
0001
0000
,  // measure 7
0001
0000
0010
0100
0000
0010
0100
0000
,  // measure 8
1000
0100
0000
1000
0001
0000
0110
0000
,  // measure 9
1001
0000
0001
0100
0000
0001
0100
0000
,  // measure 10
0010
0000
0010
1000
0000
0010
1000
0000
,  // measure 11
1000
0000
0100
0010
0000
0100
0010
0000
,  // measure 12
0001
1000
0001
1000
0001
0000
0101
0000
,  // measure 13
1001
0000
0001
0010
0000
0001
1000
0001
,  // measure 14
1000
0000
1000
0100
0000
1000
0001
1000
,  // measure 15
0001
0000
0100
0001
0000
0100
0010
0100
,  // measure 16
0010
0000
1000
0010
0000
0010
0100
0000
,  // measure 17
1001
0000
1000
0100
0000
1000
0001
1000
,  // measure 18
0001
0000
0001
0010
0000
0001
1000
0001
,  // measure 19
1000
0000
0010
1000
0000
0010
0100
0010
,  // measure 20
1000
0001
1000
0001
1000
0000
1010
0000
,  // measure 21
1001
0000
0001
0010
0001
0100
0000
0110
,  // measure 22
0000
0110
0000
0010
1000
0000
0100
0010
,  // measure 23
0001
0000
1000
0100
1000
0010
0000
0110
,  // measure 24
0000
0110
0000
0100
0001
0000
0011
0000
,  // measure 25
1001
0000
0001
0100
0001
0010
0000
0110
,  // measure 26
0000
0110
0000
0100
1000
0000
0010
0100
,  // measure 27
0002
0000
1000
0000
,  // measure 28
1000
0000
0003
0000
0010
0100
0000
1000
,  // measure 29
0001
0010
0001
0010
0001
0010
0001
0010
,  // measure 30
0001
1000
0000
0010
0000
0100
0001
0100
,  // measure 31
1000
0010
1000
0010
1000
0010
1000
0010
,  // measure 32
1000
0001
0000
0100
0000
0010
1000
0010
,  // measure 33
0001
0100
0001
0100
0001
0100
0001
0100
,  // measure 34
0001
0000
0001
1000
0000
1000
0010
0100
,  // measure 35
0010
1001
0100
1001
,  // measure 36
0010
0001
0000
0001
0000
0001
1000
0100
,  // measure 37
0001
0010
0001
0010
0001
0010
0001
0010
,  // measure 38
0001
1000
0000
0100
0000
0010
0001
0010
,  // measure 39
1000
0100
1000
0100
1000
0100
1000
0100
,  // measure 40
1000
0010
0000
0100
0000
0010
1000
0010
,  // measure 41
0001
0100
0001
0100
0001
0100
0001
0100
,  // measure 42
0001
0000
0001
0000
1000
0010
0100
0000
,  // measure 43
0100
1001
0010
1001
,  // measure 44
0100
1000
0000
1000
0010
0100
0010
1000
,  // measure 45
1001
0000
0010
0100
1000
0100
1000
0010
,  // measure 46
0000
1000
0000
0001
0100
0000
0110
0000
,  // measure 47
1001
0000
0100
0010
0001
0010
0001
0100
,  // measure 48
0000
0001
1000
0001
0001
0000
0110
0000
,  // measure 49
1001
0000
0010
1000
0010
1000
0001
0100
,  // measure 50
0001
0100
0010
0000
1001
0000
0110
0000
,  // measure 51
1001
0000
0100
0001
0100
0001
1000
0010
,  // measure 52
0000
0100
0000
0010
0100
0000
0110
0000
,  // measure 53
1000
1000
0000
0010
0010
0000
0100
0001
,  // measure 54
0000
0001
1000
0001
1000
0001
1000
0001
,  // measure 55
1000
0000
0000
0000
0000
0000
0010
1000
,  // measure 56
0010
0000
0010
0100
0000
0100
0001
0000
,  // measure 57
1000
0000
0001
0100
0001
0000
0001
2000
,  // measure 58
0000
0000
0000
3001
,  // measure 59
0110
1000
0110
0001
,  // measure 60
0110
0000
1000
0000
0110
0000
0001
0100
,  // measure 61
0001
0000
1000
0100
1000
0100
1000
0100
,  // measure 62
1000
0001
1001
0110
,  // measure 63
1001
0000
1000
0001
1000
0100
0010
0001
,  // measure 64
0000
0100
0000
0001
0010
0000
0110
0000
,  // measure 65
1001
0000
0001
1000
0001
0100
0010
1000
,  // measure 66
0000
1000
0001
0000
1001
0000
0110
0000
,  // measure 67
1001
0000
0011
0000
0001
1000
0100
1000
,  // measure 68
0100
1000
0001
0000
1001
0000
0110
0000
,  // measure 69
1001
0000
1100
0000
1000
0001
0010
0001
,  // measure 70
0010
0001
1000
0000
1001
0000
0110
0000
,  // measure 71
0001
0101
0000
1000
1010
0000
0001
2002
,  // measure 72
0000
0000
0000
0000
,  // measure 73
3003
0000
0000
0000
;

//---------------dance-single - ----------------
#NOTES:
     dance-single:
     :
     Challenge:
     8:
     0.652,0.616,0.608,0.120,0.026: // measure 1
1000
0001
1000
0000
0100
0000
0010
0000
0001
0000
0100
0000
0001
0000
1000
0000
,  // measure 2
0001
0010
0100
1000
1010
0000
1001
0000
,  // measure 3
0001
1000
0001
0000
0110
0000
0000
0000
0001
0000
0010
0000
0100
0000
1000
0000
,  // measure 4
1010
0010
0000
0000
0101
0100
0000
0000
,  // measure 5
1001
0100
0010
0001
0000
0100
0010
0001
,  // measure 6
0000
0100
0010
1000
0100
0010
0001
1000
,  // measure 7
0001
0010
0100
1000
0000
1000
0001
0000
,  // measure 8
0001
0010
0000
0001
1000
0000
1100
0000
,  // measure 9
1001
0010
0100
1000
0000
0010
0100
1000
,  // measure 10
0000
0010
0100
0001
0010
0100
1000
0001
,  // measure 11
1000
0100
0010
0001
0000
0001
1000
0000
,  // measure 12
0100
0010
0001
0010
0100
0000
0110
0000
,  // measure 13
1001
0100
0010
0001
0000
0100
0010
0001
,  // measure 14
0000
0100
0010
1000
0100
0010
0001
1000
,  // measure 15
0001
0010
0100
1000
0000
0010
1000
0100
,  // measure 16
0010
0000
0000
0000
0001
0000
1000
0000
0010
0000
0100
0010
0100
0000
0001
0000
,  // measure 17
1001
0010
0100
1000
0000
0010
0100
1000
,  // measure 18
0000
0010
0100
0001
0010
0100
1000
0001
,  // measure 19
1000
0100
0010
0001
0000
0100
0010
0100
,  // measure 20
0001
1000
1000
0010
1000
0000
1100
0000
,  // measure 21
1001
0000
0100
0010
0001
0200
0000
0010
,  // measure 22
0000
0310
0000
0100
0001
0000
0010
0100
,  // measure 23
1000
0000
0001
0010
0100
2000
0000
0001
,  // measure 24
0000
3001
0000
0100
0010
0000
0011
0000
,  // measure 25
1001
0000
0010
0100
1000
0020
0000
0100
,  // measure 26
0000
0130
0000
1000
0001
0000
0100
0010
,  // measure 27
2000
0001
0000
0000
0001
0000
0000
0000
,  // measure 28
3002
0000
1000
0000
1003
1001
0000
0000
,  // measure 29
1000
0100
0010
0001
1000
0100
0010
0001
,  // measure 30
1000
1100
0000
0101
0000
1100
1000
0010
,  // measure 31
0001
0010
0100
1000
0001
0010
0100
1000
,  // measure 32
0001
0011
0000
1010
0000
0011
0000
1001
,  // measure 33
1000
0100
0010
0001
1000
0100
0010
0001
,  // measure 34
1000
0000
0010
0100
0001
0001
0100
0010
,  // measure 35
0100
1001
0001
0110
,  // measure 36
1000
0010
0000
0100
0000
0001
0010
0100
,  // measure 37
1000
0100
0010
0001
1000
0100
0010
0001
,  // measure 38
1000
1010
0000
0110
0000
1010
1000
0100
,  // measure 39
0001
0010
0100
1000
0001
0010
0100
1000
,  // measure 40
0001
0101
0000
0110
0000
0101
0000
1001
,  // measure 41
1000
0100
0010
0001
1000
0100
0010
0001
,  // measure 42
1000
0000
0001
0100
0001
0000
1000
0010
,  // measure 43
0100
0000
0110
0000
0001
0100
0110
0000
,  // measure 44
1000
0000
0001
0000
0001
0000
1000
0000
0010
0100
0010
0000
1000
0000
0001
0000
,  // measure 45
1001
0000
0100
0010
0001
0010
0001
2000
,  // measure 46
0000
0001
0000
3001
0101
0000
0110
0000
,  // measure 47
1001
0000
0010
0100
1000
0100
1000
0002
,  // measure 48
0000
1000
0000
1003
1010
0000
0110
0000
,  // measure 49
1001
0000
0100
0010
0001
0010
1000
0010
,  // measure 50
0001
1000
0100
0010
1001
0000
0110
0000
,  // measure 51
1001
0000
0010
0100
1000
0100
0001
0010
,  // measure 52
0000
0100
0000
1000
0001
0000
1001
0000
,  // measure 53
0101
0101
0000
1010
1010
0000
0101
1001
,  // measure 54
0000
1000
1000
1000
0001
0001
0001
1000
,  // measure 55
0020
0000
1000
0000
1030
0000
1000
0010
,  // measure 56
1000
0001
0100
0000
0010
0100
0001
0010
,  // measure 57
0001
0000
0100
0010
0100
0000
0010
0000
1000
0000
0100
0000
0010
0000
0001
0000
,  // measure 58
1000
0000
0010
0100
0010
0000
0100
0000
0000
0000
0001
0000
0010
0000
0100
0000
,  // measure 59
1000
0001
1000
0100
1000
0001
0010
1000
,  // measure 60
0001
1000
0001
0010
0001
1000
0100
0001
,  // measure 61
0100
0010
0100
0001
0010
1000
0010
0001
,  // measure 62
0100
0010
0100
0001
1001
0000
0110
0000
,  // measure 63
1001
0000
0001
0100
0001
1000
0100
0020
,  // measure 64
0000
0001
0031
0101
,  // measure 65
1001
0000
1000
0010
1000
0001
0010
0200
,  // measure 66
0000
1000
1300
1010
,  // measure 67
1001
0000
1200
0000
1300
0100
0010
0001
,  // measure 68
0100
0010
1000
0001
1001
0000
0110
0000
,  // measure 69
1001
0000
0021
0000
0031
0010
0100
1000
,  // measure 70
0010
0100
0001
1000
1001
0000
0110
0000
,  // measure 71
1010
1010
0000
0101
0101
0000
1010
2002
,  // measure 72
0000
0000
0000
0000
,  // measure 73
3003
0000
0000
0000
;

//---------------dance-single - ----------------
#NOTES:
     dance-single:
     :
     Beginner:
     1:
     0.075,0.150,0.111,0.000,0.000: // measure 1
1000
0000
0000
0000
,  // measure 2
0001
0000
0000
0000
,  // measure 3
0001
0000
0000
0000
,  // measure 4
1001
0000
0000
0000
,  // measure 5
1000
0000
0000
0000
,  // measure 6
0010
0000
0000
0000
,  // measure 7
1000
0000
0000
0000
,  // measure 8
0010
0000
0000
0000
,  // measure 9
1000
0000
0000
0000
,  // measure 10
0001
0000
0000
0000
,  // measure 11
0100
0000
0000
0000
,  // measure 12
0001
0000
0000
0000
,  // measure 13
1001
0000
0000
0000
,  // measure 14
0100
0000
0000
0000
,  // measure 15
0001
0000
0000
0000
,  // measure 16
0100
0000
0000
0000
,  // measure 17
0110
0000
0000
0000
,  // measure 18
1000
0000
0000
0000
,  // measure 19
0001
0000
0000
0000
,  // measure 20
1000
0000
0000
0000
,  // measure 21
1001
0000
0000
0000
,  // measure 22
0000
0000
0000
0000
,  // measure 23
0001
0000
0000
0000
,  // measure 24
0000
0000
0000
0000
,  // measure 25
1000
0000
0000
0000
,  // measure 26
0000
0000
0000
0000
,  // measure 27
0010
0000
0000
0000
,  // measure 28
0000
0000
0000
0000
,  // measure 29
1001
0000
0000
0000
,  // measure 30
0000
0000
0000
0000
,  // measure 31
1000
0000
0000
0000
,  // measure 32
0000
0000
0000
0000
,  // measure 33
0001
0000
0000
0000
,  // measure 34
0000
0000
0000
0000
,  // measure 35
0000
1001
0000
1001
,  // measure 36
0000
0000
0000
0000
,  // measure 37
1000
0000
0000
0000
,  // measure 38
0000
0000
0000
0000
,  // measure 39
0001
0000
0000
0000
,  // measure 40
0000
0000
0000
0000
,  // measure 41
1000
0000
0000
0000
,  // measure 42
0000
0000
0000
0000
,  // measure 43
0000
1001
0000
1001
,  // measure 44
0000
0000
0000
0000
,  // measure 45
0001
0000
0000
0000
,  // measure 46
0000
0000
0000
0000
,  // measure 47
1000
0000
0000
0000
,  // measure 48
0000
0000
0000
0000
,  // measure 49
0001
0000
0000
0000
,  // measure 50
0000
0000
0000
0000
,  // measure 51
1000
0000
0000
0000
,  // measure 52
0000
0000
0000
0000
,  // measure 53
1001
0000
0000
0000
,  // measure 54
0000
0000
0000
0000
,  // measure 55
1001
0000
0000
0000
,  // measure 56
0000
0000
0000
0000
,  // measure 57
1000
0000
0000
0000
,  // measure 58
0000
0000
0000
0000
,  // measure 59
0001
0000
0000
0000
,  // measure 60
0000
0000
0000
0000
,  // measure 61
0001
0000
0000
0000
,  // measure 62
0000
0000
0000
0000
,  // measure 63
1001
0000
0000
0000
,  // measure 64
0000
0000
0000
0000
,  // measure 65
1000
0000
0000
0000
,  // measure 66
0000
0000
0000
0000
,  // measure 67
0001
0000
0000
0000
,  // measure 68
0000
0000
0000
0000
,  // measure 69
1000
0000
0000
0000
,  // measure 70
0000
0000
0000
0000
,  // measure 71
1001
0000
0000
0000
;
