#TITLE:(fly higher than) the stars;
#SUBTITLE:;
#ARTIST:SUGI & REO;
#TITLETRANSLIT:;
#SUBTITLETRANSLIT:;
#ARTISTTRANSLIT:;
#CREDIT:DMAxel;
#BANNER:(fly higher than) the stars.png;
#BACKGROUND:(fly higher than) the stars-bg.png;
#LYRICSPATH:(fly higher than) the stars.lrc;
#CDTITLE:pop'n music.png;
#MUSIC:(fly higher than) the stars.mp3;
#OFFSET:-0.820;
#SAMPLESTART:19.501;
#SAMPLELENGTH:12.000;
#SELECTABLE:YES;
#BPMS:0.000=154.000;
#STOPS:;
#BGCHANGES:;

//---------------dance-single - ----------------
#NOTES:
     dance-single:
     :
     Easy:
     2:
     0.152,0.281,0.219,0.115,0.000: // measure 1
0000
0000
0000
0000
,  // measure 2
0000
0000
0000
0000
,  // measure 3
0000
0000
0000
0000
,  // measure 4
0000
0000
0000
0000
,  // measure 5
0001
0000
1000
0000
,  // measure 6
0001
0000
1000
0000
,  // measure 7
0001
0000
0000
0000
0100
0000
0000
0220
,  // measure 8
0000
0000
0000
0330
,  // measure 9
1001
0000
0000
0000
,  // measure 10
1000
0000
0000
0000
,  // measure 11
0100
0000
0000
0000
,  // measure 12
0010
0000
0000
0000
,  // measure 13
0001
0000
0000
0000
,  // measure 14
0001
0000
0000
0000
,  // measure 15
1000
0000
0000
0000
,  // measure 16
1000
0000
0000
0000
,  // measure 17
1000
0000
0000
0000
,  // measure 18
0010
0000
0000
0000
,  // measure 19
1000
0000
0000
0000
,  // measure 20
0000
0000
0000
0000
,  // measure 21
0010
0000
0000
0000
,  // measure 22
0010
0000
0000
0000
,  // measure 23
0010
0000
0000
0000
,  // measure 24
0000
0000
0000
0000
,  // measure 25
1000
0000
0000
0000
,  // measure 26
0001
0000
0000
0000
,  // measure 27
0100
0000
0000
0000
0000
0000
0000
0220
,  // measure 28
0000
0000
0000
0330
,  // measure 29
1001
0000
0000
0000
,  // measure 30
1001
0000
0000
0000
,  // measure 31
0110
0000
0000
0000
,  // measure 32
1001
0000
0000
0000
,  // measure 33
1001
0000
0000
0000
,  // measure 34
0110
0000
0000
0000
,  // measure 35
0000
0001
0000
0010
,  // measure 36
0000
0000
0000
0000
,  // measure 37
0000
1001
0000
0100
,  // measure 38
0000
1000
0000
0100
,  // measure 39
0000
1001
0000
0010
,  // measure 40
0000
0001
0000
0010
,  // measure 41
0000
0001
0000
0010
,  // measure 42
0000
0100
0000
1000
,  // measure 43
0000
0000
0100
0000
0000
0000
0000
0220
,  // measure 44
0000
0000
0000
0330
,  // measure 45
1001
0000
0010
0000
,  // measure 46
0001
0000
0010
0000
,  // measure 47
1001
0000
0100
0000
,  // measure 48
1000
0000
0100
0000
,  // measure 49
1001
0000
0100
0000
,  // measure 50
1001
0000
0010
0000
,  // measure 51
1001
0000
0000
0000
0100
0000
0000
0220
,  // measure 52
0000
0000
0000
0000
0000
0330
0000
2002
,  // measure 53
0000
0000
0000
0000
,  // measure 54
0000
0000
0000
0000
,  // measure 55
0000
3003
0000
0000
;

//---------------dance-single - ----------------
#NOTES:
     dance-single:
     :
     Hard:
     6:
     0.425,0.500,0.288,0.219,0.000: // measure 1
0000
0000
0000
0000
,  // measure 2
0000
0000
0000
0000
,  // measure 3
0000
0000
0000
0000
,  // measure 4
0000
0000
0000
0000
,  // measure 5
0010
0000
0010
0000
0010
1000
0000
0001
,  // measure 6
0100
0000
0100
0000
0100
0001
0000
1000
,  // measure 7
0010
0000
0010
0000
0010
0100
0000
1001
,  // measure 8
0000
1001
0000
1001
0000
1001
0000
0000
,  // measure 9
0200
0000
0000
0001
0000
0000
0301
0000
,  // measure 10
0020
0000
0000
1000
0000
0000
1030
0000
,  // measure 11
0200
0000
0000
0001
0000
0000
0301
0000
,  // measure 12
0020
0000
0000
1000
0000
0000
1030
0000
,  // measure 13
0001
0000
0000
0100
0010
0000
0010
0000
,  // measure 14
1000
0000
0000
0010
0100
0000
0100
0000
,  // measure 15
0001
0000
0000
0100
0010
0000
0010
0000
,  // measure 16
1000
0000
0000
0010
0100
0001
0001
0000
,  // measure 17
0001
1000
0100
1000
,  // measure 18
0001
0010
1000
0100
,  // measure 19
0020
0000
0001
0000
0031
0000
1000
0200
,  // measure 20
0000
0000
1000
0000
1300
0001
0001
0000
,  // measure 21
1000
0000
0000
0010
0100
0000
0100
0000
,  // measure 22
0001
0000
0000
0100
0010
0000
0010
0000
,  // measure 23
1000
0000
0000
0010
0100
0000
0100
0000
,  // measure 24
0001
0000
0000
0100
0010
1000
1000
0000
,  // measure 25
1000
0001
0010
0001
,  // measure 26
1000
0100
0001
0010
,  // measure 27
2000
0000
0000
0001
0001
3001
0000
0011
,  // measure 28
0000
0011
0000
1100
0000
1100
0000
0000
,  // measure 29
0202
0000
0300
1003
,  // measure 30
1002
0000
0000
1003
0100
0010
0001
0000
,  // measure 31
2020
0000
0030
3001
,  // measure 32
2001
0000
0000
3001
0010
0100
1000
0000
,  // measure 33
0202
0000
0300
1003
,  // measure 34
2020
0000
0030
3001
,  // measure 35
1000
0000
0010
0100
0000
0001
0000
1000
,  // measure 36
0000
0010
0100
0010
0100
0010
0100
0010
,  // measure 37
0100
0000
1001
0000
1000
0010
0100
0001
,  // measure 38
0000
0010
0100
1000
0001
0000
0001
1000
,  // measure 39
0100
0000
1001
0000
0001
0100
0010
1000
,  // measure 40
0000
0100
0010
0001
1000
0000
1000
0001
,  // measure 41
0100
0000
0001
0100
0000
0010
1000
0000
,  // measure 42
0100
0000
1000
0010
0000
0100
0001
0000
,  // measure 43
0010
0000
0001
1000
0100
1000
0001
1001
,  // measure 44
0000
1001
0000
1001
0000
1001
0000
0000
,  // measure 45
1001
0000
1000
0000
1000
0010
0000
1000
,  // measure 46
0000
0010
0000
0001
0000
1000
0100
0010
,  // measure 47
0001
0000
0001
0000
0001
0100
0000
0001
,  // measure 48
0000
0100
0000
1000
0000
0001
0010
0100
,  // measure 49
1000
0000
0001
0000
0001
1000
0100
0010
,  // measure 50
0001
0000
1000
0000
1000
0001
0010
0100
,  // measure 51
1000
0001
0010
0001
0000
0010
0100
1000
,  // measure 52
0000
1100
0000
0101
0000
0101
0000
2002
,  // measure 53
0000
0000
0000
0000
,  // measure 54
0000
0000
0000
0000
,  // measure 55
0000
3003
0000
0000
;

//---------------dance-single - ----------------
#NOTES:
     dance-single:
     :
     Beginner:
     1:
     0.066,0.179,0.104,0.000,0.000: // measure 1
0000
0000
0000
0000
,  // measure 2
0000
0000
0000
0000
,  // measure 3
0000
0000
0000
0000
,  // measure 4
0000
0000
0000
0000
,  // measure 5
1000
0000
0000
0000
,  // measure 6
0000
0000
0000
0000
,  // measure 7
0001
0000
0000
0000
,  // measure 8
0000
0000
0000
0000
,  // measure 9
1001
0000
0000
0000
,  // measure 10
0000
0000
0000
0000
,  // measure 11
1000
0000
0000
0000
,  // measure 12
0000
0000
0000
0000
,  // measure 13
0001
0000
0000
0000
,  // measure 14
0001
0000
0000
0000
,  // measure 15
0001
0000
0000
0000
,  // measure 16
0000
0000
0000
0000
,  // measure 17
1000
0000
0000
0000
,  // measure 18
0000
0000
0000
0000
,  // measure 19
1000
0000
0000
0000
,  // measure 20
0000
0000
0000
0000
,  // measure 21
1001
0000
0000
0000
,  // measure 22
1000
0000
0000
0000
,  // measure 23
1000
0000
0000
0000
,  // measure 24
0000
0000
0000
0000
,  // measure 25
0001
0000
0000
0000
,  // measure 26
0000
0000
0000
0000
,  // measure 27
1000
0000
0000
0000
,  // measure 28
0000
0000
0000
0000
,  // measure 29
0110
0000
0000
0000
,  // measure 30
0110
0000
0000
0000
,  // measure 31
0110
0000
0000
0000
,  // measure 32
0110
0000
0000
0000
,  // measure 33
1001
0000
0000
0000
,  // measure 34
0001
0000
0000
0000
,  // measure 35
1000
0000
0000
0000
,  // measure 36
0000
0000
0000
0000
,  // measure 37
1000
0000
0000
0000
,  // measure 38
0000
0000
0000
0000
,  // measure 39
0001
0000
0000
0000
,  // measure 40
0000
0000
0000
0000
,  // measure 41
1000
0000
0000
0000
,  // measure 42
0001
0000
0000
0000
,  // measure 43
1000
0000
0000
0000
,  // measure 44
0000
0000
0000
0000
,  // measure 45
0110
0000
0000
0000
,  // measure 46
0000
0000
0000
0000
,  // measure 47
0001
0000
0000
0000
,  // measure 48
0000
0000
0000
0000
,  // measure 49
0100
0000
0000
0000
,  // measure 50
0000
0000
0000
0000
,  // measure 51
0010
0000
0000
0000
,  // measure 52
0000
0000
0000
0000
0000
0000
0000
1001
;

//---------------dance-single - ----------------
#NOTES:
     dance-single:
     :
     Medium:
     4:
     0.237,0.281,0.184,0.058,0.000: // measure 1
0000
0000
0000
0000
,  // measure 2
0000
0000
0000
0000
,  // measure 3
0000
0000
0000
0000
,  // measure 4
0000
0000
0000
0000
,  // measure 5
1000
0001
1000
0000
,  // measure 6
0001
1000
0001
0000
,  // measure 7
0100
0000
0010
0000
0100
0000
0000
0001
,  // measure 8
0000
0001
0000
0001
0000
0001
0000
0000
,  // measure 9
1001
0000
0000
0000
,  // measure 10
0001
0000
0000
0000
,  // measure 11
0010
0000
0000
0000
,  // measure 12
0100
0000
0000
0000
,  // measure 13
1000
1000
1000
0000
,  // measure 14
0001
0001
0001
0000
,  // measure 15
1000
1000
1000
0000
,  // measure 16
0001
0001
0001
0100
,  // measure 17
0010
0100
0000
0010
,  // measure 18
0000
0100
0000
0001
,  // measure 19
2000
0000
0000
0000
0000
0000
0000
0002
,  // measure 20
0000
0000
3003
0000
,  // measure 21
0100
0100
0100
0000
,  // measure 22
0010
0010
0010
0000
,  // measure 23
0100
0100
0100
0000
,  // measure 24
0010
0010
0010
1000
,  // measure 25
0001
1000
0000
0001
,  // measure 26
0000
1000
0000
0010
,  // measure 27
0110
0000
0000
0000
0000
0000
0000
1000
,  // measure 28
0000
1000
0000
1000
0000
0000
0000
0000
,  // measure 29
1001
0000
0100
0000
,  // measure 30
1001
0000
0100
0000
,  // measure 31
1001
0000
0010
0000
,  // measure 32
1001
0000
0010
0000
,  // measure 33
1001
0000
0100
0000
,  // measure 34
1001
0000
0010
0100
,  // measure 35
0010
0000
2000
0000
0000
0000
0000
3001
,  // measure 36
0000
0100
0010
0000
0010
0000
0010
0000
,  // measure 37
0010
1001
0000
0010
,  // measure 38
0000
0001
0000
0010
,  // measure 39
0010
1001
0000
0100
,  // measure 40
0000
1000
0000
0100
,  // measure 41
0100
1000
0000
0010
,  // measure 42
0010
0001
0000
0010
,  // measure 43
0100
0000
1000
0000
0010
0000
0000
1000
,  // measure 44
0000
1000
0000
1000
0000
0001
0000
0000
,  // measure 45
1001
0000
0100
1000
,  // measure 46
0100
0000
0100
0000
,  // measure 47
1001
0000
0010
0001
,  // measure 48
0010
0000
0010
0000
,  // measure 49
1001
0000
0010
0000
,  // measure 50
1001
0000
0100
0000
,  // measure 51
1001
0000
0000
0000
0010
0000
0000
0001
,  // measure 52
0000
0001
0000
0001
0000
1000
0000
2002
,  // measure 53
0000
0000
0000
0000
,  // measure 54
0000
0000
0000
0000
,  // measure 55
0000
3003
0000
0000
;
