#TITLE:「名探偵コナン」メイン・テーマ;
#SUBTITLE:;
#ARTIST:♪♪♪♪♪;
#TITLETRANSLIT:'MEITANTEI CONAN' MAIN THEME;
#SUBTITLETRANSLIT:;
#ARTISTTRANSLIT:(ANIME);
#CREDIT:DMAxel;
#BANNER:'MEITANTEI CONAN' MAIN THEME.png;
#BACKGROUND:'MEITANTEI CONAN' MAIN THEME-bg.png;
#LYRICSPATH:;
#CDTITLE:pop'n music.png;
#MUSIC:'MEITANTEI CONAN' MAIN THEME.mp3;
#OFFSET:-7.160;
#SAMPLESTART:8.476;
#SAMPLELENGTH:12.000;
#SELECTABLE:YES;
#BPMS:0.000=134.000;
#STOPS:155.500=0.448
;
#BGCHANGES:;

//---------------dance-single - ----------------
#NOTES:
     dance-single:
     :
     Easy:
     3:
     0.238,0.267,0.190,0.155,0.000: // measure 1
1001
0000
0000
0010
,  // measure 2
0002
0000
0000
1003
,  // measure 3
0010
1000
0001
0000
,  // measure 4
0100
0100
0001
0010
,  // measure 5
0200
0000
0000
0300
,  // measure 6
1001
1000
1001
0001
,  // measure 7
1001
1000
1001
0001
,  // measure 8
0200
0000
0000
0000
,  // measure 9
0320
0000
0000
0130
,  // measure 10
0010
0100
0000
0001
,  // measure 11
0010
0100
1000
0000
,  // measure 12
0001
1000
0001
0100
,  // measure 13
0010
0100
0001
0000
,  // measure 14
1001
0001
1001
1000
,  // measure 15
1001
0001
1001
1000
,  // measure 16
1002
0000
0000
0000
,  // measure 17
0203
0000
0000
0310
,  // measure 18
0010
1000
0000
0100
,  // measure 19
0000
0010
0000
0001
,  // measure 20
0000
0100
0000
0010
,  // measure 21
0000
1000
0000
0010
,  // measure 22
0000
0100
0000
0001
,  // measure 23
0000
0000
0010
0000
0000
0000
0000
2002
,  // measure 24
0000
0000
0000
3003
,  // measure 25
0100
0000
0000
1001
0000
0000
0000
0000
,  // measure 26
0010
0010
0001
1001
,  // measure 27
0010
0100
0010
0000
,  // measure 28
1000
0010
1000
0010
,  // measure 29
0100
0010
1000
0000
,  // measure 30
1001
0010
0001
0010
,  // measure 31
0001
1000
0001
1000
,  // measure 32
0100
1000
0100
1000
,  // measure 33
0002
0000
0000
0000
,  // measure 34
1003
1000
0100
0010
,  // measure 35
0001
0001
0010
0100
,  // measure 36
1000
1000
0100
0010
,  // measure 37
2002
0000
0000
3003
,  // measure 38
0010
0010
0010
0010
,  // measure 39
1000
0100
0010
0001
,  // measure 40
2002
0000
0000
0000
,  // measure 41
0000
0000
0000
3003
;

//---------------dance-single - ----------------
#NOTES:
     dance-single:
     :
     Hard:
     7:
     0.423,0.388,0.357,0.178,0.030: // measure 1
1002
0000
0000
0020
0000
0033
0000
0000
,  // measure 2
0100
0000
1000
0100
0010
0000
0001
0010
,  // measure 3
0100
1000
0020
0000
1000
1030
0000
0000
,  // measure 4
0100
0010
0001
0100
1000
0000
0100
0001
,  // measure 5
1000
0000
0020
0000
0100
0130
0000
0010
,  // measure 6
0100
1010
1001
1010
,  // measure 7
1001
0000
0101
0000
1001
0000
0100
0001
,  // measure 8
1000
0000
0010
0000
0000
0010
0000
0000
0010
0000
0000
0010
0000
0000
0010
0000
,  // measure 9
0100
0000
0001
1000
0000
1000
0001
0010
,  // measure 10
0100
0000
1001
0000
1000
0000
0001
0010
,  // measure 11
0100
0000
2000
0000
0001
3001
0000
0000
,  // measure 12
0100
0010
0100
0001
1000
0000
0100
0010
,  // measure 13
0001
0000
2000
0000
0001
3001
0000
1000
,  // measure 14
0001
0101
1001
0101
,  // measure 15
1001
0000
1010
0000
1001
0000
0010
1000
,  // measure 16
0001
0000
0100
0000
0000
0100
0000
0000
0100
0000
0000
0100
0000
0000
0100
0000
,  // measure 17
0010
0000
0000
1000
0000
0000
0001
0000
0000
0000
0001
0000
1000
0000
0100
0000
,  // measure 18
0010
0000
1001
0000
1000
0100
0010
0001
,  // measure 19
1000
0020
0000
1000
0000
1030
0001
0010
,  // measure 20
0100
0000
1000
0100
0000
0010
0001
2000
,  // measure 21
0000
0001
0000
3001
0000
1000
0100
1000
,  // measure 22
0002
0000
1000
1003
0000
0000
0000
0000
,  // measure 23
1001
0000
0010
1000
0001
0100
0000
1001
,  // measure 24
0000
0010
0001
0010
0001
0010
0001
0010
,  // measure 25
0100
1000
0001
1001
0000
0000
0100
0000
,  // measure 26
0101
0000
1001
0000
0010
0000
0010
1000
,  // measure 27
0001
0000
2000
0000
0001
3001
0000
0000
,  // measure 28
0010
0001
1000
0100
1000
1000
0001
0100
,  // measure 29
1000
0000
1001
0000
0010
0110
0000
2002
,  // measure 30
0000
0000
0000
3003
,  // measure 31
0001
0000
1000
0000
0001
0010
0100
1000
,  // measure 32
0001
0100
1000
0100
,  // measure 33
0001
0010
0100
1000
0000
0010
0100
0010
,  // measure 34
1001
0000
0000
1000
0100
0010
0001
0000
,  // measure 35
0110
0000
0000
0100
0001
1000
0000
0000
,  // measure 36
0110
0000
0000
0001
0010
0100
1000
0000
,  // measure 37
1001
0000
0000
1001
0000
0100
0010
0100
,  // measure 38
2001
0000
0001
0000
0001
0000
3001
0010
,  // measure 39
0100
1000
0100
0010
0001
0010
0100
1000
,  // measure 40
2002
0000
0000
0000
,  // measure 41
0000
0000
0000
3003
;

//---------------dance-single - ----------------
#NOTES:
     dance-single:
     :
     Challenge:
     8:
     0.506,0.557,0.119,0.226,0.220: // measure 1
1000
0001
0010
0100
0000
0000
1000
0100
,  // measure 2
0002
0000
1000
0000
1003
0000
0001
0100
,  // measure 3
2000
0000
0001
0000
3001
0100
0000
0000
,  // measure 4
0010
1000
0001
0100
0001
0000
0010
0100
,  // measure 5
2000
0000
0000
0000
0001
0000
0000
0000
3001
0000
0100
0000
0000
0000
0010
0100
,  // measure 6
0010
1000
0002
0000
0103
0001
2000
0000
,  // measure 7
3010
0000
1000
0000
0002
0000
0000
0000
0103
0000
0001
0000
1000
0000
0100
1000
,  // measure 8
0100
0000
1000
0000
0000
0010
0000
0000
0100
0000
0000
0001
0000
0000
0100
0000
,  // measure 9
0010
0000
0000
0100
0010
0000
0000
0010
1000
0000
0000
1000
0001
0000
0100
0000
,  // measure 10
2000
0000
0100
0000
3100
0000
1000
0100
,  // measure 11
0002
0000
1000
0000
1003
0010
0000
0000
,  // measure 12
0100
0001
0010
0100
1000
0000
0100
0010
,  // measure 13
0002
0000
0000
0000
1000
0000
0000
0000
1003
0000
0010
0000
0000
0000
0100
0010
,  // measure 14
0100
0001
0200
0000
0301
1000
0020
0000
,  // measure 15
0130
0000
0001
0000
2000
0000
0000
0000
3010
0000
1000
0000
0001
0000
0010
0001
,  // measure 16
0010
0000
0001
0000
0000
0100
0000
0000
0010
0000
0000
1000
0000
0000
0010
0000
,  // measure 17
0100
0000
0000
0010
0100
0000
0000
0100
0001
0000
0000
0001
1000
0000
0100
0000
,  // measure 18
0010
0000
1001
0000
0001
0100
0010
1000
,  // measure 19
0100
0010
0001
1000
0000
0010
0100
0010
,  // measure 20
2000
0000
0001
3001
0000
0010
0001
1000
,  // measure 21
0000
0100
0010
0001
0000
1000
0010
0100
,  // measure 22
0002
0000
0010
0013
0000
0100
1000
0001
,  // measure 23
0100
0000
0001
0010
0100
1000
0000
1001
,  // measure 24
0000
0010
0100
0010
0100
0010
0100
0010
,  // measure 25
1000
0100
0001
0110
0000
0000
1000
0100
,  // measure 26
0002
0000
1000
0000
1003
0000
0001
0100
,  // measure 27
2000
0000
0001
0000
3001
0100
0000
0000
,  // measure 28
0010
1000
0001
0100
0010
1000
0100
0010
,  // measure 29
0001
0000
0101
0000
0101
1001
0000
0100
,  // measure 30
0001
0100
0000
0001
0100
0000
0001
0000
1000
0000
0100
0000
1000
0000
0001
0000
,  // measure 31
1000
0010
0000
1000
0010
0000
1000
0000
0001
0000
0010
0000
0001
0000
1000
0000
,  // measure 32
0001
0010
0000
0001
0010
0000
0001
0000
1000
0000
0010
0000
1000
0000
0001
0000
,  // measure 33
0100
0000
0110
0000
0010
0000
1000
0000
0000
0000
0001
1000
0001
1000
0001
1000
,  // measure 34
0001
0000
0100
0000
0010
0000
1000
0100
1000
0100
1000
0100
1000
0000
0001
0000
,  // measure 35
0100
0010
0000
0100
0001
0000
1000
0000
1000
0000
0001
0000
0100
0000
0000
0000
,  // measure 36
0010
0100
0000
0010
1000
0000
0001
0010
0001
0010
0001
0010
0001
0000
0000
0000
,  // measure 37
1001
0000
0000
0000
0000
0000
1010
0000
0000
0000
0100
0001
0100
0001
0100
0001
,  // measure 38
2000
0000
0000
0000
0001
0000
0000
0000
0001
0000
0000
0000
3001
0000
1000
0010
,  // measure 39
1000
0100
0010
0001
1000
0100
0010
0001
,  // measure 40
2002
0000
0000
0000
,  // measure 41
0000
0000
3000
1003
;

//---------------dance-single - ----------------
#NOTES:
     dance-single:
     :
     Medium:
     4:
     0.340,0.339,0.357,0.167,0.000: // measure 1
0002
0000
0000
2000
0000
0000
3003
0000
,  // measure 2
0010
1001
0100
0010
,  // measure 3
0001
0000
0010
0000
0001
1000
0000
0000
,  // measure 4
0001
0000
0010
0000
0100
0000
1000
0010
,  // measure 5
0100
0000
0001
0000
1001
0000
0000
0010
,  // measure 6
0001
1001
1000
1001
,  // measure 7
0001
0000
1001
0000
1000
0000
0010
0100
,  // measure 8
0020
0100
0100
0130
,  // measure 9
0110
0000
0110
0000
0110
0000
0100
0001
,  // measure 10
1000
0000
1001
0000
0000
0000
0010
1000
,  // measure 11
0010
1000
1001
0000
,  // measure 12
1000
0100
0010
0001
,  // measure 13
1000
0000
0001
0000
0010
0001
0000
1000
,  // measure 14
0001
1001
0001
1001
,  // measure 15
1000
0000
1001
0000
0001
0000
0100
0010
,  // measure 16
0200
0010
0010
0310
,  // measure 17
0110
0000
0110
0000
0110
0000
0010
1000
,  // measure 18
0001
0000
1001
0000
0000
0100
0001
0000
,  // measure 19
0010
0100
0000
2000
0000
0000
0000
0001
,  // measure 20
3001
0000
0100
0001
0000
0001
1000
0002
,  // measure 21
0000
0000
0000
1000
0000
1003
0010
0000
,  // measure 22
0100
0000
0010
1000
0000
0000
0010
0000
,  // measure 23
1001
0000
1000
0010
0100
0001
0000
2002
,  // measure 24
0000
0000
0000
3003
,  // measure 25
0010
0000
0010
0010
0000
0000
0000
0000
,  // measure 26
0010
0000
1001
0000
0000
0000
0100
0001
,  // measure 27
0100
0000
0001
0000
0010
0100
0000
0000
,  // measure 28
1001
0000
0010
0000
1001
0000
0100
1000
,  // measure 29
0100
0000
1001
0000
0100
0001
0000
0220
,  // measure 30
0000
0000
0000
0000
,  // measure 31
0000
0330
0001
0010
,  // measure 32
0100
1000
0001
1000
,  // measure 33
0001
0100
0010
1000
0000
0000
0000
0000
,  // measure 34
1001
0000
1000
0001
0010
0001
0010
0000
,  // measure 35
0001
0000
1000
0010
0100
0010
0000
0000
,  // measure 36
1001
0000
0001
1000
0100
1000
0100
0000
,  // measure 37
1001
0000
0000
0110
0000
0000
0000
0000
,  // measure 38
2002
0000
0000
0000
0000
3003
0000
0010
,  // measure 39
1000
0000
1000
0000
0001
0000
0001
0100
,  // measure 40
2002
0000
0000
0000
,  // measure 41
0000
0000
0000
3003
;

//---------------dance-single - ----------------
#NOTES:
     dance-single:
     :
     Beginner:
     1:
     0.046,0.093,0.024,0.000,0.000: // measure 1
0000
0000
0000
0000
,  // measure 2
1000
0000
0000
0000
,  // measure 3
0000
0000
0000
0000
,  // measure 4
0001
0000
0000
0000
,  // measure 5
0000
0000
0000
0000
,  // measure 6
1000
0000
0000
0000
,  // measure 7
0001
0000
0000
0000
,  // measure 8
0000
0000
0000
0000
,  // measure 9
0000
0000
0000
0000
,  // measure 10
0100
0000
0000
0000
,  // measure 11
0010
0000
0000
0000
,  // measure 12
0100
0000
0000
0000
,  // measure 13
0000
0000
0001
0000
,  // measure 14
0000
0000
0000
0000
,  // measure 15
1000
0000
0000
0000
,  // measure 16
0000
0000
0000
0000
,  // measure 17
0000
0000
0000
0000
,  // measure 18
0010
0000
0000
0000
,  // measure 19
0000
0000
0000
0000
,  // measure 20
0010
0000
0000
0000
,  // measure 21
0000
0000
0000
0000
,  // measure 22
0100
0000
0000
0000
,  // measure 23
0100
0000
0000
0000
,  // measure 24
0000
0000
0000
0000
,  // measure 25
0000
0000
0000
0000
,  // measure 26
0001
0000
0000
0000
,  // measure 27
0000
0000
0000
0000
,  // measure 28
0001
0000
0000
0000
,  // measure 29
0000
0000
0000
0000
,  // measure 30
1000
0000
0000
0000
,  // measure 31
0010
0000
0000
0000
,  // measure 32
1000
0000
0000
0000
,  // measure 33
0010
0000
0000
0000
,  // measure 34
0100
0000
0000
0000
,  // measure 35
0001
0000
0000
0000
,  // measure 36
0100
0000
0000
0000
,  // measure 37
1001
0000
0000
0000
,  // measure 38
1000
0000
0000
0000
,  // measure 39
0000
0000
0000
0000
,  // measure 40
1001
0000
0000
0000
;
