#VERSION:0.83;
#TITLE:When I'm Bored;
#SUBTITLE:;
#ARTIST:Sporty-O;
#TITLETRANSLIT:;
#SUBTITLETRANSLIT:;
#ARTISTTRANSLIT:;
#GENRE:MEME RAVE;
#ORIGIN:;
#CREDIT:;
#BANNER:;
#BACKGROUND:;
#PREVIEWVID:;
#JACKET:;
#CDIMAGE:;
#DISCIMAGE:;
#LYRICSPATH:;
#CDTITLE:;
#MUSIC:When I'm Bored.ogg;
#OFFSET:0.065000;
#SAMPLESTART:0.850000;
#SAMPLELENGTH:12.000000;
#SELECTABLE:YES;
#DISPLAYBPM:256.000000;
#BPMS:0.000=512.000,
4.000=1024.000,
6.000=512.000,
7.000=256.000,
8.000=1024.000,
10.000=512.000,
11.000=256.000,
12.000=1024.000,
14.000=512.000,
15.000=256.000,
16.000=1024.000,
18.000=512.000,
19.000=256.000,
24.000=1024.000,
26.000=512.000,
27.000=256.000,
28.000=1024.000,
30.000=512.000,
31.000=256.000,
32.000=1024.000,
34.000=512.000,
35.000=256.000,
36.000=1024.000,
38.000=512.000,
39.000=256.000,
48.000=1024.000,
50.000=512.000,
51.000=256.000,
52.000=1024.000,
54.000=512.000,
55.000=256.000,
56.000=1024.000,
58.000=512.000,
59.000=256.000,
60.000=1024.000,
62.000=512.000,
63.000=256.000,
68.000=1024.000,
70.000=512.000,
71.000=256.000,
72.000=1024.000,
74.000=512.000,
75.000=256.000,
76.000=1024.000,
78.000=512.000,
79.000=256.000,
80.000=1024.000,
82.000=512.000,
83.000=256.000,
88.000=128.000,
88.500=751.800,
91.500=512.000,
92.000=1024.000,
94.000=512.000,
95.000=256.000,
96.000=1024.000,
98.000=512.000,
99.000=256.000,
100.000=1024.000,
102.000=512.000,
103.000=256.000,
104.000=1024.000,
106.000=512.000,
107.000=256.000,
108.000=512.000,
116.000=1024.000,
118.000=512.000,
119.000=256.000,
120.000=1024.000,
122.000=512.000,
123.000=256.000,
124.000=1024.000,
126.000=512.000,
127.000=256.000,
128.000=1024.000,
130.000=512.000,
131.000=256.000,
132.000=384.000,
135.000=256.000,
137.000=128.000,
138.000=56.000,
138.500=28.000;
#STOPS:3.500=0.468,
20.000=0.117,
20.500=0.117,
21.000=0.117,
21.500=0.117,
22.000=0.117,
22.500=0.117,
23.000=0.117,
23.500=0.117,
64.000=0.117,
64.500=0.117,
65.000=0.117,
65.500=0.117,
66.000=0.117,
66.500=0.117,
67.000=0.117,
67.500=0.117,
91.500=0.400,
108.000=0.117,
109.000=0.117,
110.000=0.117,
111.000=0.117,
112.000=0.117,
113.000=0.117,
114.000=0.117,
115.000=0.117,
139.000=1.000;
#DELAYS:;
#WARPS:;
#TIMESIGNATURES:0.000=4=4;
#TICKCOUNTS:0.000=4;
#COMBOS:0.000=1;
#SPEEDS:0.000=1.000=0.000=0;
#SCROLLS:0.000=1.000;
#FAKES:;
#LABELS:0.000=Song Start;
#BGCHANGES:;
#KEYSOUNDS:;
#ATTACKS:
;

//---------------dance-single - ----------------
#NOTEDATA:;
#CHARTNAME:;
#STEPSTYPE:dance-single;
#DESCRIPTION:;
#CHARTSTYLE:;
#DIFFICULTY:Hard;
#METER:7;
#RADARVALUES:0.769691,1.478805,1.710425,2.095271,0.128282,126.000000,86.000000,40.000000,49.000000,0.000000,0.000000,0.000000,0.000000,0.000000,0.769691,1.478805,1.710425,2.095271,0.128282,126.000000,86.000000,40.000000,49.000000,0.000000,0.000000,0.000000,0.000000,0.000000;
#CREDIT:;
#DISPLAYBPM:256.000000;
#NOTES:
0000
0000
0000
0000
,
2020
0000
0000
3030
,
0202
0000
0000
0303
,
2200
0000
0000
3300
,
0022
0000
0000
0033
,
0001
0001
0100
0100
1000
1000
0010
0010
,
0022
0000
0000
0033
,
2200
0000
0000
3300
,
0202
0000
0000
0303
,
2020
0000
0000
3030
,
0001
0100
0001
0100
1000
0100
1000
0100
,
0001
0010
0001
0010
1000
0010
1000
0010
,
0220
0000
0000
0330
,
2002
0000
0000
3003
,
2200
0000
0000
3300
,
0022
0000
0000
0033
,
0011
1100
0101
1010
0101
1100
0011
1010
,
0220
0000
0000
0330
,
2002
0000
0000
3003
,
0202
0000
0000
0303
,
2020
0000
0000
3030
,
0010
0100
0010
0100
0001
1000
0001
1000
,
0200
0000
0000
0000
0000
0000
0000
0310
,
0022
0000
0000
0033
,
0202
0000
0000
0303
,
2200
0000
0000
3300
,
2020
0000
0000
3030
,
0011
0110
1100
0101
,
1001
1010
0110
1001
,
2020
0000
0000
3030
,
0202
0000
0000
0303
,
2200
0000
0000
3300
,
0022
0000
0000
0033
,
1000
0000
0000
1000
0000
0000
1000
0000
0000
0010
0000
0010
,
0000
0000
0010
0000
0000
0000
0100
0000
0100
0000
0100
0000
0001
0001
0001
0000
0000
0000
0000
0000
0000
0000
0000
0000
;

//---------------dance-single - ----------------
#NOTEDATA:;
#CHARTNAME:;
#STEPSTYPE:dance-single;
#DESCRIPTION:;
#CHARTSTYLE:;
#DIFFICULTY:Challenge;
#METER:8;
#RADARVALUES:0.769691,1.478805,1.710425,2.095271,0.128282,126.000000,86.000000,40.000000,49.000000,126.000000,0.000000,0.000000,0.000000,0.000000,0.769691,1.478805,1.710425,2.095271,0.128282,126.000000,86.000000,40.000000,49.000000,126.000000,0.000000,0.000000,0.000000,0.000000;
#CREDIT:;
#DISPLAYBPM:256.000000;
#NOTES:
// measure 0
0000
0000
0000
0000
,  // measure 1
2M2M
0000
0000
3030
,  // measure 2
M2M2
0000
0000
0303
,  // measure 3
22MM
0000
0000
3300
,  // measure 4
MM22
0000
0000
0033
,  // measure 5
MM01
MM01
M1M0
M1M0
10MM
10MM
0M1M
0M1M
,  // measure 6
0022
0000
0000
0033
,  // measure 7
2200
0000
0000
3300
,  // measure 8
0202
0000
0000
0303
,  // measure 9
2020
0000
0000
3030
,  // measure 10
M001
01M0
M001
01M0
100M
01M0
100M
01M0
,  // measure 11
0M01
M010
0M01
M010
100M
0M10
100M
0M10
,  // measure 12
M22M
0000
0000
0330
,  // measure 13
2MM2
0000
0000
3003
,  // measure 14
22MM
0000
0000
3300
,  // measure 15
MM22
0000
0000
0033
,  // measure 16
MM11
11MM
M1M1
1M1M
M1M1
11MM
MM11
1M1M
,  // measure 17
M22M
0000
0000
0330
,  // measure 18
2MM2
0000
0000
3003
,  // measure 19
M2M2
0000
0000
0303
,  // measure 20
2M2M
0000
0000
3030
,  // measure 21
M010
010M
M010
010M
0M01
10M0
0M01
10M0
,  // measure 22
020M
0000
0000
0000
0000
0000
0000
M310
,  // measure 23
MM22
0000
0000
0033
,  // measure 24
M2M2
0000
0000
0303
,  // measure 25
22MM
0000
0000
3300
,  // measure 26
2M2M
0000
0000
3030
,  // measure 27
MM11
M11M
11MM
M1M1
,  // measure 28
1MM1
1M1M
M11M
1MM1
,  // measure 29
2M2M
0000
0000
3030
,  // measure 30
M2M2
0000
0000
0303
,  // measure 31
22MM
0000
0000
3300
,  // measure 32
MM22
0000
0000
0033
,  // measure 33
1MMM
0000
0000
1000
0000
0000
1000
0000
0000
MM1M
0000
0010
,  // measure 34
0000
0000
0010
0000
0000
0000
M1MM
0000
0100
0000
0100
0000
MMM1
0001
0001
0000
0000
0000
0000
0000
0000
0000
0000
0000
;
