#VERSION:0.83;
#TITLE:Rudolph the Red-Nosed Reindeer;
#SUBTITLE:;
#ARTIST:Billy May and His Orchestra;
#TITLETRANSLIT:;
#SUBTITLETRANSLIT:;
#ARTISTTRANSLIT:;
#GENRE:CHRISTMAS MAMBO?;
#ORIGIN:;
#CREDIT:;
#BANNER:;
#BACKGROUND:;
#PREVIEWVID:;
#JACKET:;
#CDIMAGE:;
#DISCIMAGE:;
#LYRICSPATH:;
#CDTITLE:cdtitle.png;
#MUSIC:Rudolph the Red-Nosed Reindeer.ogg;
#OFFSET:-0.050000;
#SAMPLESTART:3.960000;
#SAMPLELENGTH:15.250000;
#SELECTABLE:YES;
#DISPLAYBPM:108.000000:126.000000;
#BPMS:0.000=122.000,
8.000=126.200,
68.000=119.000,
76.000=126.200,
82.000=125.000,
83.000=124.000,
84.000=123.000,
85.000=122.000,
86.000=121.000,
87.000=120.000,
88.000=119.000,
89.000=118.000,
97.000=108.000,
101.000=123.000,
113.000=126.200,
124.000=121.000,
148.000=60.000,
152.000=120.000,
164.000=121.000,
166.000=122.000,
178.000=123.000,
182.000=122.000,
197.500=120.000,
217.000=58.000,
218.000=228.000,
219.000=114.000;
#STOPS:67.750=1.468,
82.000=0.951,
96.750=1.000,
181.000=1.468,
197.500=0.300,
209.500=4.000,
217.000=0.530,
218.000=0.280,
220.000=1.700;
#DELAYS:;
#WARPS:;
#TIMESIGNATURES:0.000=4=4;
#TICKCOUNTS:0.000=4;
#COMBOS:0.000=1;
#SPEEDS:0.000=1.000=0.000=0;
#SCROLLS:0.000=1.000,
1.000=2.000,
2.000=3.000,
3.000=4.000,
4.000=5.000,
5.000=6.000,
7.000=1.000,
125.000=2.000,
148.000=1.000,
197.500=2.000,
218.000=1.000,
219.000=2.000,
220.000=1.000;
#FAKES:;
#LABELS:0.000=Song Start;
#LASTSECONDHINT:123.000000;
#BGCHANGES:;
#KEYSOUNDS:;
#ATTACKS:
;

//---------------dance-single - ----------------
#NOTEDATA:;
#CHARTNAME:;
#STEPSTYPE:dance-single;
#DESCRIPTION:;
#CHARTSTYLE:;
#DIFFICULTY:Hard;
#METER:8;
#RADARVALUES:0.426347,0.550079,0.552079,0.360052,0.252036,373.000000,304.000000,69.000000,45.000000,22.000000,0.000000,4.000000,0.000000,0.000000,0.426347,0.550079,0.552079,0.360052,0.252036,373.000000,304.000000,69.000000,45.000000,22.000000,0.000000,4.000000,0.000000,0.000000;
#CREDIT:;
#DISPLAYBPM:108.000000:126.000000;
#NOTES:
// measure 0
000M
0M00
00M0
M000
,  // measure 1
0M00
00M0
0000
MMMM
,  // measure 2
0002
0000
0000
0000
0000
0000
0000
0000
0000
0013
0000
0000
0000
0000
0000
0000
0000
0000
0000
0000
0100
0000
0000
0000
1000
0000
0000
0000
0000
0000
0100
0000
0000
0000
0000
0000
0010
0000
0000
0000
0000
0000
0001
0000
0000
0000
0000
0000
,  // measure 3
2000
0000
0000
0000
3010
0000
0100
0000
0004
4000
0000
0000
0000
0000
3003
0000
,  // measure 4
1000
0000
0020
0000
0031
0000
0020
0000
1030
0000
0000
0100
0020
0000
0000
0031
,  // measure 5
0000
0010
0010
0000
0001
0001
0000
1000
,  // measure 6
2000
0000
0000
3010
0000
0000
0100
0000
0001
0000
0100
0000
0010
0000
1000
0000
,  // measure 7
0002
0000
0000
0000
0013
0000
0100
0000
4000
0004
0000
0000
0000
0000
3003
0000
,  // measure 8
0001
0000
0100
0000
1000
0000
0100
0000
0001
0000
0000
0000
0020
0000
0000
0130
,  // measure 9
0000
0000
0000
0000
1000
0000
0000
0011
0000
0000
1001
0000
1010
0000
0000
0000
,  // measure 10
2000
0000
0000
3010
0000
0000
0100
0000
0001
0000
1000
0000
0100
0000
0010
0000
,  // measure 11
0002
0000
0000
0000
1003
0000
0000
1100
0000
0000
0110
0000
0011
0000
0000
0000
,  // measure 12
0002
0000
0013
0000
0002
0000
0013
0000
0001
0000
0000
0100
0020
0000
0000
1030
,  // measure 13
0000
0000
0000
0000
0000
0000
0000
0110
0000
0000
1001
0000
0110
0000
0000
0000
,  // measure 14
0002
0000
0000
0013
0000
0000
0100
0000
1000
0000
0001
0000
0100
0000
0010
0000
,  // measure 15
2000
0000
0000
0000
3001
0000
0000
0011
0000
0000
0110
0000
1100
0000
0000
0000
,  // measure 16
2000
0000
3010
0000
2000
0000
3010
0000
1000
0000
0000
0000
0110
0000
0000
10M1
,  // measure 17
0100
0000
0000
0000
0001
0000
0000
0010
0000
0000
1000
0000
0010
0000
0000
0000
,  // measure 18
0001
0000
0000
0000
0000
0000
0000
0000
0010
0000
0000
0000
0100
0000
0000
0000
0000
0000
0000
0000
0000
0000
0000
0000
2000
0000
0000
0000
0000
0000
0000
0000
0000
3010
0000
0000
0000
0000
0000
0000
0000
0000
0010
0000
0000
0000
0000
0000
,  // measure 19
1000
0000
0001
0000
0100
0000
0000
0001
0000
0000
0010
0000
0100
0000
0000
0000
,  // measure 20
2000
0000
0000
0000
0000
0000
0000
0000
3001
0000
0000
0000
0000
0000
0000
0000
0000
0000
0000
0000
0000
0000
0000
0000
0M10
0000
0000
0000
0000
0000
0000
0000
0000
0000
0000
0000
0000
0000
0000
0000
0000
0000
0000
0000
0000
0001
0000
0000
,  // measure 21
0000
0200
0310
0000
1000
0000
0110
0000
,  // measure 22
1001
0000
0220
0000
0030
0010
0000
0310
,  // measure 23
0000
0010
1000
0000
0100
0000
0110
0000
,  // measure 24
0002
0000
0000
M200
0303
0000
0001
0000
0010
0000
0100
0000
2000
0000
0000
0000
,  // measure 25
3010
0000
0000
0000
2000
0000
3000
0100
0000
0000
0010
0000
0001
1000
0001
1000
,  // measure 26
0001
0000
0000
0000
1000
0000
0010
0000
0001
0000
0010
0000
1000
0000
0000
0100
,  // measure 27
0020
0000
0000
0031
0000
0000
1000
0000
1000
0000
0000
0000
0001
0000
0001
0000
,  // measure 28
0000
0000
0100
0000
0100
0000
0000
0010
0000
0000
1000
0000
0001
0000
0010
0000
,  // measure 29
0100
0000
1000
0000
0002
0000
0000
0000
1003
0000
0000
0000
0010
0100
0010
0100
,  // measure 30
0010
0000
1000
0100
0001
0100
1000
0000
,  // measure 31
0010
1M10
0011
2020
,  // measure 32
0000
0000
3030
0110
0000
0000
0101
0000
0000
0000
0011
0000
0220
0000
0000
0330
,  // measure 33
0100
0000
0100
0000
1100
0000
0000
0000
0011
0000
0000
0000
0202
0000
0000
0303
,  // measure 34
1100
0000
0000
0000
0000
0000
0000
0000
0000
0110
0000
0000
0000
0000
0000
0000
0000
0000
0011
0000
0000
0000
0000
0000
0000
0000
0000
0000
0000
0000
0000
0000
1001
0000
0000
0000
0110
0000
0000
0000
0000
0000
0000
0000
0000
0000
0000
0000
,  // measure 35
0100
0100
0011
0000
1010
0000
0022
0000
,  // measure 36
0000
0000
0033
0110
0000
0000
1100
0000
0000
0000
0101
0000
1001
0000
0000
0000
,  // measure 37
M110
0000
0001
0100
1000
0100
0001
0100
0010
0000
0010
1000
0100
1000
0010
0000
,  // measure 38
1M01
0000
0000
0000
0000
0000
0000
0000
0000
0100
0000
0000
0001
0000
0000
0000
0000
0000
0000
0000
0000
0010
0000
0000
0000
0000
0000
0000
0000
0000
0000
0000
0100
0000
0000
0000
1000
0000
0000
0000
0000
0000
0010
0000
0000
0000
0000
0000
,  // measure 39
0100
0000
0000
0001
0000
0000
1000
0000
0000
0000
0010
0000
1000
0000
0000
0000
0000
0000
1100
0000
0000
0000
0000
0000
,  // measure 40
0011
0000
0000
0000
0000
0000
0000
0000
0000
0000
0000
0000
1000
0000
0000
0000
0000
0000
0000
0000
0000
0010
0000
0000
0000
0000
0000
0000
0000
0000
0000
0000
0100
0000
0000
0000
0001
0000
0000
0000
0000
0000
0010
0000
0000
0000
0000
0000
,  // measure 41
0100
0000
0000
1000
0000
0000
0100
0000
0000
0000
0001
0000
0100
0000
0000
0000
0000
0000
1000
0000
0000
0000
0000
0000
,  // measure 42
0010
0000
0000
0100
0001
0000
0000
0010
0000
0000
0001
0000
2000
0000
0000
0000
,  // measure 43
3100
0011
1010
0012
,  // measure 44
0000
0000
1003
0020
0000
0000
0130
0000
0000
0002
0000
0000
,  // measure 45
1003
0000
0000
0000
0000
0000
0000
0000
0000
0000
0000
0000
10M1
0000
0000
0000
0000
0000
0000
0000
0000
0100
0000
0000
1000
0000
0000
0000
0000
0000
0000
0000
0000
0010
0000
0000
0000
0000
0000
0000
0000
0000
0000
0000
0100
0000
0000
0000
,  // measure 46
0001
0000
0000
0010
0000
0000
0100
0000
0000
1000
0000
0000
0001
0000
0000
0000
0010
0000
0001
0000
0000
0000
0000
0000
,  // measure 47
0101
0000
0000
0000
0000
0000
0000
0000
0000
0000
0000
0000
1010
0000
0000
0000
0000
0000
0000
0000
0000
0000
0000
0000
0100
0000
0000
0000
0000
0000
0000
0000
0000
0010
0000
0000
0000
0000
0000
0000
0000
0000
0000
0000
1000
0000
0000
0000
,  // measure 48
0001
0000
0000
0010
0000
0000
0100
0000
0000
1000
0000
0000
0100
0000
0000
0000
0001
0000
0100
0000
0000
0000
0000
0000
,  // measure 49
1100
0000
0011
M000
0011
0000
1010
1100
,  // measure 50
0000
0101
0000
0110
0000
1001
0000
0220
,  // measure 51
0000
0000
0000
0000
0000
0000
0330
0000
0000
0000
0000
0000
0000
0000
0000
0010
0000
0000
0000
0000
0000
0000
0000
0000
0000
0000
0010
0000
0000
0000
1000
0000
0000
0000
0000
0000
0000
0000
0000
0000
0000
0000
0002
0000
0000
0000
0000
0000
,  // measure 52
0000
0103
0000
1M01
1010
0000
0011
0000
,  // measure 53
2020
0000
0000
0000
0000
0000
3030
0110
0000
0000
0101
0000
0000
0000
0001
0000
,  // measure 54
1000
0000
0000
0000
M110
0100
0001
1000
01M0
0000
0000
0000
0011
0000
1010
0000
,  // measure 55
1M01
0000
0000
0000
;

//---------------dance-single - ----------------
#NOTEDATA:;
#CHARTNAME:;
#STEPSTYPE:dance-single;
#DESCRIPTION:;
#CHARTSTYLE:;
#DIFFICULTY:Medium;
#METER:5;
#RADARVALUES:0.354337,0.440063,0.464067,0.200029,0.036005,310.000000,252.000000,58.000000,25.000000,16.000000,0.000000,0.000000,0.000000,0.000000,0.354337,0.440063,0.464067,0.200029,0.036005,310.000000,252.000000,58.000000,25.000000,16.000000,0.000000,0.000000,0.000000,0.000000;
#CREDIT:;
#DISPLAYBPM:108.000000:126.000000;
#NOTES:
0000
0000
0000
0000
,
0000
0000
0000
MMMM
,
1000
0010
0000
0100
0001
0000
0010
0000
,
0002
0000
1003
0000
0020
0000
0000
0030
,
1000
0010
1000
0010
1000
0000
0010
0100
,
0000
0010
0010
0000
1000
1000
0000
0001
,
0001
0010
0000
0100
1000
0000
0010
0000
,
2000
3001
0200
0000
,
0301
0010
0001
0010
0001
0000
0010
0100
,
0000
0000
0000
1010
0000
0011
1010
0000
,
0100
0010
0000
1000
0001
0000
0010
0000
,
0002
0000
0103
0010
0000
0100
0010
0000
,
1000
0010
1000
0010
1000
0000
0010
0100
,
0000
0000
0000
0011
0000
1010
0021
0000
,
0130
0010
0000
0001
1000
0000
0010
0000
,
2000
0000
3100
0010
0000
0100
0010
0000
,
0001
0000
0010
0000
0001
0000
0010
0000
0001
0000
0000
0000
0010
0000
0100
000M
,
1001
0000
1000
0010
0000
0001
0010
0000
,
0000
1000
0001
0000
0001
1000
0000
0010
,
0100
0001
0000
0001
0000
0010
0100
0000
,
1000
0001
0000
0000
M020
0030
0000
0001
,
0000
0100
0010
0000
1000
0000
1010
0000
,
0011
0000
2002
0000
3003
0110
0000
1001
,
0000
0010
1100
0000
0101
0000
0110
0000
,
2000
0000
0002
0M00
3003
0000
1000
0000
0010
0000
0100
0000
0001
0000
0000
0000
,
0010
0000
0001
1000
0000
0000
0020
0000
,
0000
0000
1030
0010
1000
0010
1000
0000
,
0010
0100
0000
0001
0001
0000
0010
0010
,
0000
0100
0100
0010
0000
0001
1000
0000
,
0010
0200
0301
0020
,
0000
0000
0031
0010
0001
0010
0001
0000
,
0110
M011
1010
0011
,
0000
1001
0000
0110
0000
0110
1001
0000
,
0000
1100
0011
0101
,
0010
1000
0000
1001
0000
0110
1001
0000
,
0000
1010
1100
1010
,
0000
0011
0000
0101
0000
0011
0110
0000
,
2M02
0000
0000
0000
0000
0000
0000
0003
,
3M10
0000
1000
0010
0000
0010
0100
0000
,
0100
0000
0000
0001
0000
0000
0010
0000
0000
0000
0100
0000
0010
0000
0000
0000
0000
0000
0001
0000
0000
0000
0000
0000
,
0010
0000
0001
0010
0000
0010
0100
0000
,
0100
0000
0000
1000
0000
0000
0100
0000
0000
0000
0010
0000
0100
0000
0000
0000
0000
0000
1000
0000
0000
0000
0000
0000
,
0010
0000
0100
0010
0000
1000
0001
0000
,
0100
1001
0110
2002
,
0000
0003
3100
0020
0000
0000
0031
0000
0000
0200
0000
0000
,
1300
0000
011M
0000
1000
0010
0000
0100
,
0001
0000
0000
0000
0000
0000
0010
0000
0000
0100
0000
0000
1000
0000
0000
0000
0010
0000
1000
0000
0000
0000
0000
0000
,
0100
0000
0010
0000
0001
0010
0000
0100
,
1000
0000
0000
0000
0000
0000
0010
0000
0000
0100
0000
0000
0001
0000
0000
0000
0100
0000
0001
0000
0000
0000
0000
0000
,
1000
0000
0001
0M00
0011
0000
1100
1001
,
0000
0101
0000
1010
0000
0110
0000
2002
,
0000
3003
0010
0000
0010
1000
0000
0001
,
0000
0010
0000
M110
0011
0000
1100
0000
,
2020
0000
3030
0101
0000
0110
0000
1010
,
1001
0000
0000
0000
M011
0100
1000
0001
01M0
0000
0000
0000
0010
0000
0010
0000
,
1M01
0000
0000
0000
;

//---------------dance-single - ----------------
#NOTEDATA:;
#CHARTNAME:;
#STEPSTYPE:dance-single;
#DESCRIPTION:;
#CHARTSTYLE:;
#DIFFICULTY:Easy;
#METER:3;
#RADARVALUES:0.267467,0.352051,0.392056,0.096014,0.008001,234.000000,185.000000,49.000000,12.000000,16.000000,0.000000,0.000000,0.000000,0.000000,0.267467,0.352051,0.392056,0.096014,0.008001,234.000000,185.000000,49.000000,12.000000,16.000000,0.000000,0.000000,0.000000,0.000000;
#CREDIT:;
#DISPLAYBPM:108.000000:126.000000;
#NOTES:
0000
0000
0000
0000
,
0000
0000
0000
MMMM
,
1000
0010
0100
0001
,
0010
0100
2000
0000
,
3001
0010
0001
0010
,
0001
0001
0200
0000
,
0301
0010
0100
1000
,
0010
0100
0002
0000
,
1003
0010
1000
0010
,
0100
0000
0110
1001
,
0001
0010
1000
0010
,
0001
0100
0110
0110
,
1000
0010
0001
0010
,
0100
0000
1001
1001
,
1000
0100
0001
0100
,
0010
0001
1001
1001
,
1000
0000
0000
0000
0010
0000
0000
0000
0001
0000
0000
0000
0020
0000
0000
0M30
,
0000
0000
1000
0010
,
0000
0100
0001
1000
,
0000
0001
0010
0100
,
1000
0000
0000
0000
0M20
0030
0000
0000
,
1000
0100
0010
0011
,
0011
0011
0000
1001
,
1001
1010
1010
0110
,
0200
0000
0000
000M
0300
0000
0000
0000
0010
0000
0000
0000
1000
0000
0000
0000
,
0010
0100
0000
0002
,
0000
1003
0010
1000
,
0010
1000
1000
0200
,
0000
1300
0010
0100
,
0001
0010
0100
2000
,
0000
3001
0010
1000
,
0010
0M11
0011
0011
,
0000
1001
1001
1001
,
0000
1010
1010
1010
,
0000
0110
0110
0110
,
0000
0101
0101
0101
,
0000
1100
1100
1100
,
10M1
0000
0000
0000
,
M010
0100
0010
1000
,
1000
0100
0001
0100
,
0010
0100
0010
0001
,
0001
0100
1000
0100
,
0010
1000
0010
0100
,
0001
1001
1001
2002
,
3000
0010
2003
0010
,
3100
011M
0100
0010
,
0001
1000
0010
0010
,
0001
0010
0100
0010
,
1000
0001
0100
0100
,
1000
0000
0100
000M
0010
0000
0010
1000
,
0000
0100
0000
0010
0000
0001
0000
1000
,
0000
0000
0000
0010
0000
0100
0000
0001
,
0000
1000
0000
1M01
0110
0000
0110
0000
,
0110
0000
1010
0101
,
1100
0M11
M000
0110
,
10M1
0000
0000
0000
;

//---------------dance-single - ----------------
#NOTEDATA:;
#CHARTNAME:;
#STEPSTYPE:dance-single;
#DESCRIPTION:;
#CHARTSTYLE:;
#DIFFICULTY:Beginner;
#METER:1;
#RADARVALUES:0.153165,0.220032,0.176025,0.032005,0.008001,134.000000,112.000000,22.000000,4.000000,16.000000,0.000000,0.000000,0.000000,0.000000,0.153165,0.220032,0.176025,0.032005,0.008001,134.000000,112.000000,22.000000,4.000000,16.000000,0.000000,0.000000,0.000000,0.000000;
#CREDIT:;
#DISPLAYBPM:108.000000:126.000000;
#NOTES:
0000
0000
0000
0000
,
0000
0000
0000
MMMM
,
1000
0000
0100
0000
,
0010
0000
0002
0003
,
0001
0000
0010
0000
,
0100
0000
2000
3000
,
0001
0000
0100
0000
,
0010
0000
2000
3000
,
1000
0000
0010
0000
,
0100
0000
1001
0000
,
0001
0000
0100
0000
,
0010
0000
0110
0000
,
1000
0000
0010
0000
,
0100
0000
1001
0000
,
1000
0000
0100
0000
,
0010
0000
0110
0000
,
0001
0000
0000
0000
0000
0000
0000
0000
0010
0000
0000
0000
0000
0000
0000
0M00
,
0000
0000
0010
0010
,
0000
0001
0000
1000
,
0000
0000
0010
0010
,
0000
0000
0100
0000
002M
0030
0000
0000
,
1000
1000
0000
0001
,
0001
0001
0000
0010
,
0000
0100
0000
1001
,
0100
0000
0000
00M0
0000
0000
0000
0000
0000
0000
0000
0000
0000
0000
0000
0000
,
0000
1000
0000
0001
,
0000
1000
0000
0010
,
0000
0100
0000
0001
,
0000
1000
0000
0100
,
0000
0010
0000
0001
,
0000
1000
0000
0001
,
0000
M011
0000
0011
,
0000
1010
0000
1010
,
0000
1100
0000
1100
,
0000
0101
0000
0101
,
0000
0110
0000
0110
,
0000
1001
0000
1001
,
00M0
0000
0000
0000
,
0M00
1000
0000
0010
,
0000
0100
0000
0100
,
0000
0001
0000
0010
,
0000
0100
0000
0100
,
0000
1000
0000
0100
,
0000
0010
0010
0010
,
0000
0001
0000
1000
,
0000
011M
0001
0000
,
0010
0000
0100
0000
,
0100
0000
1000
0000
,
0010
0000
0100
0000
,
0100
0000
0000
000M
0010
0000
0000
0100
,
0000
0000
0000
0110
0000
0110
0000
0110
,
0000
0000
0000
0010
0000
0000
0000
1000
,
0000
0000
0000
0M01
0010
0000
0010
0000
,
0010
0000
0100
0100
,
0100
10M1
0M00
0010
,
M100
0000
0000
0000
;
