#VERSION:0.83;
#TITLE:Monochrome no kiss;
#SUBTITLE:;
#ARTIST:SID;
#TITLETRANSLIT:;
#SUBTITLETRANSLIT:;
#ARTISTTRANSLIT:;
#GENRE:;
#ORIGIN:;
#CREDIT:;
#BANNER:Monochrome no kiss-bn.png;
#BACKGROUND:Monochrome no kiss-bg.png;
#PREVIEWVID:;
#JACKET:Monochrome no kiss-jacket.png;
#CDIMAGE:;
#DISCIMAGE:;
#LYRICSPATH:;
#CDTITLE:;
#MUSIC:Monochrome no kiss.mp3;
#OFFSET:-0.375000;
#SAMPLESTART:52.400002;
#SAMPLELENGTH:12.000000;
#SELECTABLE:YES;
#BPMS:0.000=75.040,
32.000=150.080;
#STOPS:97.500=0.750;
#DELAYS:;
#WARPS:;
#TIMESIGNATURES:0.000=4=4;
#TICKCOUNTS:0.000=4;
#COMBOS:0.000=1;
#SPEEDS:0.000=1.000=0.000=0;
#SCROLLS:0.000=1.000;
#FAKES:;
#LABELS:0.000=Song Start;
#LASTSECONDHINT:100.000000;
#BGCHANGES:;
#KEYSOUNDS:;
#ATTACKS:
;

//---------------dance-single - ----------------
#NOTEDATA:;
#CHARTNAME:;
#STEPSTYPE:dance-single;
#DESCRIPTION:;
#CHARTSTYLE:;
#DIFFICULTY:Beginner;
#METER:1;
#RADARVALUES:0.115800,0.195895,0.048250,0.048250,0.000000,84.000000,79.000000,5.000000,5.000000,0.000000,0.000000,0.000000,0.000000,0.000000,0.115800,0.195895,0.048250,0.048250,0.000000,84.000000,79.000000,5.000000,5.000000,0.000000,0.000000,0.000000,0.000000,0.000000;
#CREDIT:;
#NOTES:
0000
0000
0000
0000
,
0000
0000
0000
0000
,
1000
0000
0100
0000
,
0010
0000
0001
0000
,
0100
0100
0001
0000
,
0010
0010
1000
0000
,
0001
0001
1000
0000
,
1000
0010
0100
0001
,
1000
0000
1000
0000
,
0100
0000
0000
0000
,
0001
0000
0001
0000
,
0100
0000
0000
0000
,
0010
0000
0010
0000
,
0001
0000
0000
0000
,
0010
0000
0010
0000
,
1000
0000
1001
0000
,
0100
0000
0000
0000
,
1001
0000
0000
0000
,
0010
0000
0000
0000
,
0110
0000
0000
0000
,
1000
0000
0000
0000
,
1001
0000
0000
0000
,
0001
0000
0000
0000
,
0020
0000
0000
0000
,
0130
0000
0000
0000
,
0100
0000
0100
0000
,
0000
0000
0010
0000
,
0010
0000
0010
0000
,
0000
0000
1000
0000
,
0100
0000
0010
0000
,
0001
0000
0100
0000
,
0010
0000
1000
0000
,
0000
0000
0001
0000
,
0001
0000
0001
0000
,
0000
0000
1000
0000
,
1000
0000
1000
0000
,
0000
0000
0100
0000
,
0001
0000
1000
0000
,
0010
0000
1000
0000
,
0001
0000
0100
0000
,
0000
0000
0002
0000
,
0003
0000
2000
0000
,
3000
0000
0020
0000
,
0030
0000
0200
0000
,
0300
0000
0001
0000
,
0010
0000
0100
0000
,
0010
0000
0001
0000
,
0100
0000
0010
0000
,
0000
1000
0000
0000
,
0100
0000
0000
1000
,
0000
0000
0000
0110
;

//---------------dance-single - ----------------
#NOTEDATA:;
#CHARTNAME:;
#STEPSTYPE:dance-single;
#DESCRIPTION:;
#CHARTSTYLE:;
#DIFFICULTY:Easy;
#METER:5;
#RADARVALUES:0.215057,0.245472,0.144750,0.067550,0.000000,156.000000,141.000000,15.000000,7.000000,0.000000,0.000000,0.000000,0.000000,0.000000,0.215057,0.245472,0.144750,0.067550,0.000000,156.000000,141.000000,15.000000,7.000000,0.000000,0.000000,0.000000,0.000000,0.000000;
#CREDIT:;
#NOTES:
0000
0000
0000
0000
,
0000
0000
0000
0000
,
2000
0100
0000
3100
,
0002
0010
0000
0013
,
0100
1000
0100
0100
,
0010
0001
0010
0010
,
0001
0100
0001
0001
,
1000
0010
1000
1000
,
1000
0100
1000
0000
,
0001
0100
0001
0000
,
0010
0001
0010
0000
,
0100
1000
0010
0000
,
0100
0010
0100
0000
,
0001
0000
1000
0000
,
0100
0000
1000
0001
,
0010
0000
0110
0110
,
0110
0000
0000
0000
0000
1000
0000
1000
,
0000
0000
0010
0100
,
1001
0000
0000
0000
0000
0001
0000
0001
,
0000
0000
0100
0010
,
1010
0000
0000
0000
0000
0001
0000
0100
,
0000
0000
0010
1000
,
0100
0010
0001
0100
,
0002
0000
2003
0000
,
3010
0000
0000
0100
0010
0000
0000
0000
,
0010
1000
0010
0000
,
0100
0001
0100
0000
,
0001
1000
0001
0000
,
1000
0000
0100
0000
,
0100
0100
1000
0010
,
0100
0000
0010
0010
,
0001
0100
0010
0000
,
1001
0000
1000
1000
,
0100
0010
0001
0000
,
0110
0000
0001
0001
,
0010
0100
1000
0000
,
1001
0000
0001
0000
,
0010
0001
1000
0010
,
0100
0000
0100
0001
,
1000
0100
0010
0000
,
1001
0000
2000
0000
,
3100
0000
0002
0000
,
0103
0000
0001
1000
,
0001
0010
0100
2000
,
0000
0000
3100
0000
,
0011
0000
0101
0000
,
1010
0000
1100
0000
,
0110
0000
0000
0000
0001
0000
0000
0010
,
0000
0000
0100
0000
0000
1000
0000
0000
,
0010
0000
0000
1000
0000
0000
0100
0000
,
0000
0000
0010
0000
0001
0000
0000
1001
;

//---------------dance-single - ----------------
#NOTEDATA:;
#CHARTNAME:;
#STEPSTYPE:dance-single;
#DESCRIPTION:;
#CHARTSTYLE:;
#DIFFICULTY:Medium;
#METER:9;
#RADARVALUES:0.357050,0.368208,0.202650,0.154400,0.024125,259.000000,238.000000,21.000000,16.000000,0.000000,0.000000,0.000000,0.000000,0.000000,0.357050,0.368208,0.202650,0.154400,0.024125,259.000000,238.000000,21.000000,16.000000,0.000000,0.000000,0.000000,0.000000,0.000000;
#CREDIT:;
#NOTES:
0000
0000
0000
0000
,
0000
0000
0000
0000
,
0002
0000
0000
0010
0000
0000
0013
0000
2000
0000
0000
0010
0000
0000
3010
0000
,
0002
0000
0000
0100
0000
0000
0103
0000
2000
0000
0000
0100
0000
0000
3100
0000
,
0010
0001
0010
0000
0100
1000
0010
1000
,
0000
0100
1000
0000
0001
1000
0001
0100
,
0000
0010
1000
0000
0001
0000
0100
0010
,
0100
0000
0000
0000
0001
0000
0000
0000
1000
0000
0000
0010
0000
0000
0001
0000
,
0100
0000
0010
1000
0010
0000
0110
0000
,
0001
0100
0000
0100
0001
0100
0000
0100
,
0001
0000
0010
0100
1000
0000
1001
0000
,
1000
0000
0010
0200
0000
0310
1000
0000
,
1000
0000
0010
0100
0001
0000
0000
1000
,
0001
0000
0000
0010
0100
0000
1000
0100
,
1000
0000
1000
0010
0000
0100
0001
0000
,
0010
0100
0010
0000
1001
0000
0110
0000
,
1001
0000
1000
0100
0000
1100
0000
0101
,
0000
0020
0000
0000
0000
0130
1000
0000
,
0110
0000
0010
0001
0000
0011
0000
1010
,
0000
0000
0100
0000
0010
1000
0001
0000
,
1100
0000
0100
0010
0000
0110
0000
0011
,
0000
0001
1000
0000
0010
0100
0010
0100
,
0001
0000
0001
1000
0000
1000
0100
0000
,
0020
0032
2003
3200
,
1300
0001
0010
0100
0020
0000
0030
0010
,
0002
0000
0003
0001
1000
0000
1000
0100
,
0010
0001
0100
0010
2000
0000
3000
1000
,
0020
0000
0030
0010
0100
0000
0001
0100
,
0010
1000
0100
0010
0001
0000
0000
1000
,
0000
1000
0000
0100
0000
0100
0000
0001
,
0000
0000
0001
0100
0010
0000
0001
0010
,
0000
0100
0000
1000
0000
0000
0010
0100
,
0010
0100
0010
0000
1010
0000
0000
1000
,
0100
0000
0000
0010
0001
0000
0101
0000
,
0100
0010
0100
0001
0010
0000
0000
0001
,
0100
0000
0000
0010
1000
0000
1100
0000
,
0100
0010
0100
0010
0001
0000
0000
0010
,
0000
0010
0000
0100
0000
0100
0000
1000
,
0000
0000
0000
0100
0001
0000
0010
0100
,
0000
1000
0000
0100
0000
0010
0001
0000
,
1000
0001
1000
0001
0100
0000
0100
0000
,
0110
0000
1000
1000
,
1001
0000
0001
0001
,
1001
1000
0010
0220
,
0000
0000
0330
0000
1000
0000
0100
1000
,
0000
1000
0000
0001
0000
0001
0000
0100
,
0000
0110
0000
0000
0001
0000
0100
0001
,
0000
0001
0010
0000
0100
0000
0100
1000
,
0000
1000
0100
0000
0010
0000
0100
1000
,
0001
0000
0001
0100
0000
0100
0001
0000
,
0010
0000
0100
0000
1000
0000
0010
0100
;

//---------------dance-single - ----------------
#NOTEDATA:;
#CHARTNAME:;
#STEPSTYPE:dance-single;
#DESCRIPTION:;
#CHARTSTYLE:;
#DIFFICULTY:Hard;
#METER:12;
#RADARVALUES:0.556943,0.703485,0.376350,0.096500,0.381175,404.000000,365.000000,39.000000,10.000000,0.000000,0.000000,0.000000,0.000000,0.000000,0.556943,0.703485,0.376350,0.096500,0.381175,404.000000,365.000000,39.000000,10.000000,0.000000,0.000000,0.000000,0.000000,0.000000;
#CREDIT:;
#NOTES:
// measure 0
0000
0000
0000
0000
,  // measure 1
0000
0000
0000
0000
,  // measure 2
0001
0000
0000
0001
0100
0000
0010
0000
0000
0010
0100
0000
0001
0000
0000
0000
1000
0000
0000
1000
0100
0000
0010
0000
0000
0010
0100
0000
1000
0000
0000
0000
,  // measure 3
0010
0000
0000
0010
0100
0000
0001
0000
0000
0001
0100
0000
0010
0000
0000
0000
1000
0000
0000
0000
0100
0000
0010
0000
0000
0000
0001
0000
1000
0000
0000
0000
,  // measure 4
0001
0100
0010
0100
0001
0000
0000
1000
0100
1000
0000
1000
0001
0100
0000
0000
,  // measure 5
0000
0000
0001
0000
0100
0000
0001
0000
0010
0000
0000
0000
0000
0000
0100
0000
0010
0000
0000
0001
0000
0000
2000
0000
0000
0000
3100
0000
0000
0000
0000
0000
,  // measure 6
0000
0000
0010
0000
0100
0000
1000
0000
0001
0000
0000
0000
0000
0000
1000
0000
0200
0000
0000
0000
0000
0000
0000
0000
0000
0000
0310
0000
0001
0010
0001
0010
,  // measure 7
0002
0000
0000
0000
0000
0000
0103
0001
0200
0000
0000
0000
0000
0000
0310
0100
0010
0000
0000
1000
0000
0000
0001
0000
1000
0010
0000
0000
0110
0000
0000
0000
,  // measure 8
0001
0000
0000
0100
0001
0000
1000
0000
0000
0000
0010
0000
0110
0000
0000
0000
,  // measure 9
1000
0000
0000
0100
1000
0000
0001
0000
0010
0000
0001
0000
0100
0000
0000
0000
,  // measure 10
0010
0000
0000
1000
0001
0000
1000
0000
0000
0000
0010
0000
0110
0000
0000
0000
,  // measure 11
0100
0000
0000
0001
1000
0000
0010
0000
0100
0000
0001
0000
1000
0000
0000
0000
,  // measure 12
0100
0000
0000
1000
0100
0000
0010
0000
0000
0000
0001
0000
0010
0000
0100
0000
,  // measure 13
1000
0000
0000
0001
0000
0000
1000
0000
0000
0000
0010
0000
0100
0000
0010
0000
,  // measure 14
1000
0000
1000
0001
0000
0001
1000
0001
,  // measure 15
0010
0100
0010
0100
1000
0000
0001
0000
0011
0000
0000
0000
0110
0000
0000
0000
,  // measure 16
1100
1000
0001
0010
0000
0011
0000
1001
,  // measure 17
0000
0000
1000
0000
0100
0000
0010
0001
0100
0000
0010
1000
0100
0000
0000
0000
,  // measure 18
0101
0001
1000
0010
0000
1010
0000
1001
,  // measure 19
0000
0000
0001
0000
0100
0000
0010
1000
0001
0000
0100
0000
0110
0000
0000
0000
,  // measure 20
1010
0010
0100
0001
0000
0101
0000
1001
,  // measure 21
0000
0000
1000
0000
0010
0000
0100
0010
1000
0000
0001
0100
0010
0000
0000
0000
,  // measure 22
0011
0001
0100
0010
0000
1000
0001
0100
,  // measure 23
0020
1000
0100
0001
,  // measure 24
0130
0000
0000
0000
0010
0000
0000
0000
0100
0000
0000
0000
0010
0000
0000
0000
1000
0000
0000
0000
0000
0000
0000
0000
2002
3003
0000
0000
0000
0000
0000
0000
0100
0000
0000
0000
0000
0000
0000
0000
0000
0000
0000
0000
0000
0000
0000
0000
0001
0000
0000
0000
0000
0000
0000
0000
0100
0000
0000
0000
0000
0000
0000
0000
,  // measure 25
1000
0000
1000
0100
0001
0000
0010
0100
,  // measure 26
1000
0100
0010
0100
1000
0000
1000
0010
,  // measure 27
0001
0000
0001
0010
1000
0000
0001
0010
,  // measure 28
0100
0010
0001
0010
0100
0100
0000
1100
,  // measure 29
0000
1100
0000
0101
0000
0101
0000
0110
,  // measure 30
0000
0010
1000
0001
0010
0000
0010
0001
,  // measure 31
0000
0000
0001
0000
0000
0000
1000
0000
0000
0000
1000
0000
0000
0000
0100
0010
,  // measure 32
0000
0010
1000
0000
0001
1000
0001
1000
0001
0000
0000
0000
0100
0000
0010
0000
,  // measure 33
1000
0000
1000
0010
0100
0000
0001
1000
,  // measure 34
0100
0001
0100
1000
0001
0000
0010
0100
,  // measure 35
0001
0000
0001
0100
0010
0000
0001
1000
,  // measure 36
1000
0010
0100
0001
0010
0010
0000
0110
,  // measure 37
0000
0110
0000
1100
0000
1100
0000
0101
,  // measure 38
0000
0001
0100
0010
1000
0000
0001
0100
,  // measure 39
0000
0010
0000
1000
0000
0001
1000
0001
,  // measure 40
0010
0000
0100
1000
0100
1000
0100
1000
0001
0000
0000
0000
0110
0000
0000
0100
,  // measure 41
1000
0000
0100
0000
0010
0000
0001
0000
0100
0000
0000
0000
1001
0000
0000
1000
,  // measure 42
0010
0000
1000
0000
0001
0000
0100
0000
1000
0000
0000
0000
0110
0000
0000
0010
,  // measure 43
0001
0000
0010
0000
0100
0000
1000
0000
0010
0000
0000
0000
1001
0000
0000
0001
,  // measure 44
0100
0001
1000
0010
0100
0001
0100
0110
,  // measure 45
0000
1010
0000
1100
0000
0101
0000
0011
,  // measure 46
0000
0000
1001
0000
0000
0000
0010
0100
0010
0000
0001
0000
1000
0000
0100
0000
,  // measure 47
0000
0000
1000
0000
0001
0000
0010
0000
0100
1000
0100
1000
0100
0000
0010
0001
,  // measure 48
0010
0001
0010
0000
0002
0000
0000
0000
1003
0100
0010
0000
0110
0000
0000
0000
,  // measure 49
1000
0010
1000
0010
1000
0000
0001
0100
0001
0100
0001
0000
1000
0000
0100
0000
,  // measure 50
0010
0000
0001
0100
0001
0000
0010
0100
0010
0000
1000
0010
1000
0000
2002
0000
,  // measure 51
0000
0000
0000
0000
,  // measure 52
0000
0000
0000
0000
,  // measure 53
0000
0000
0000
0000
,  // measure 54
3003
0000
0000
0000
;
