#TITLE:HandClap;
#SUBTITLE:;
#ARTIST:Fitz and The Tantrums;
#TITLETRANSLIT:;
#SUBTITLETRANSLIT:;
#ARTISTTRANSLIT:;
#GENRE:;
#CREDIT:;
#BANNER:;
#BACKGROUND:;
#LYRICSPATH:;
#CDTITLE:;
#MUSIC:HandClap.ogg;
#OFFSET:0.000000;
#SAMPLESTART:88.970001;
#SAMPLELENGTH:13.700000;
#LASTBEATHINT:201.360382;
#SELECTABLE:YES;
#BPMS:0.000000=70.000000
,15.000000=140.000000
,48.000000=70.000000
,52.000000=140.000000
,100.000000=70.000000
,104.000000=140.000000
,120.000000=68.000000
,149.500000=140.000000
;
#STOPS:15.000000=0.429000,
149.500000=1.030000
;
#BGCHANGES:;
#KEYSOUNDS:;
#ATTACKS:;

//---------------dance-single - ----------------
#NOTES:
     dance-single:
     :
     Beginner:
     2:
     0.157308,0.221574,0.008952,0.000000,0.000000,123.000000,122.000000,1.000000,0.000000,7.000000,0.000000,0.157308,0.221574,0.008952,0.000000,0.000000,123.000000,122.000000,1.000000,0.000000,7.000000,0.000000:
// measure 0
0000
0000
0000
0000
,  // measure 1
0000
0000
0000
0000
,  // measure 2
0100
0100
0010
0010
,  // measure 3
0001
0001
1000
00M0
,  // measure 4
1000
0000
0100
0000
,  // measure 5
0100
0000
1000
0000
,  // measure 6
0001
0000
0100
0000
,  // measure 7
0100
0000
0001
0000
,  // measure 8
0010
0000
0001
0000
,  // measure 9
0001
0000
0010
0000
,  // measure 10
1000
0000
0010
0000
,  // measure 11
0010
0000
0100
0000
,  // measure 12
10M0
0000
0001
0001
,  // measure 13
0M10
0000
0010
0000
,  // measure 14
0001
0001
0001
0001
,  // measure 15
1000
0000
1000
0000
,  // measure 16
0100
0100
0100
0100
,  // measure 17
1000
0000
0010
0000
,  // measure 18
0100
0000
0001
0000
,  // measure 19
0001
0000
0010
0000
,  // measure 20
0100
0000
1000
0000
,  // measure 21
0010
0000
1000
0000
,  // measure 22
0001
0000
0100
0000
,  // measure 23
0100
0000
1000
0000
,  // measure 24
0001
0000
0010
0000
,  // measure 25
1M00
0000
0001
0001
,  // measure 26
01M0
0000
0100
0000
,  // measure 27
0010
0010
0010
0010
,  // measure 28
1000
0000
1000
0000
,  // measure 29
0001
0001
0001
0001
,  // measure 30
M010
0010
0100
0100
,  // measure 31
1000
1000
0001
0001
,  // measure 32
0100
0100
0010
0010
,  // measure 33
1000
1000
0001
0001
,  // measure 34
1000
0100
0010
0100
,  // measure 35
0001
0100
0010
0100
,  // measure 36
1000
0010
0100
0001
,  // measure 37
1001
0000
0000
00M0
0000
0000
0000
0000
,  // measure 38
1000
0000
0100
0000
,  // measure 39
1000
0000
1000
0000
,  // measure 40
0010
0000
0100
0000
,  // measure 41
0001
0000
0010
0000
,  // measure 42
0001
0000
0100
0000
,  // measure 43
0001
0000
0001
0000
,  // measure 44
0010
0000
0100
0000
,  // measure 45
1000
0000
0010
0000
,  // measure 46
0100
0000
0001
0000
,  // measure 47
0010
0000
0100
0000
,  // measure 48
0100
0000
1000
0000
,  // measure 49
0010
0000
0100
0000
;

//---------------dance-single - ----------------
#NOTES:
     dance-single:
     :
     Hard:
     8:
     0.498781,0.558131,0.367051,0.071620,0.174573,390.000000,349.000000,41.000000,8.000000,7.000000,0.000000,0.498781,0.558131,0.367051,0.071620,0.174573,390.000000,349.000000,41.000000,8.000000,7.000000,0.000000:
0000
0000
0000
0000
,
0000
0000
0000
0000
,
1000
0000
0000
0100
0001
0000
0000
0100
0010
0000
0000
0001
0100
0000
0010
0100
,
0001
0000
0000
0100
1000
0000
0000
0100
0010
0000
0000
1000
0M01
0000
0010
0000
,
0001
0100
0001
0100
1000
0100
0001
0010
,
1000
0010
0001
1000
0001
0100
0010
1000
,
0000
0100
1000
0100
0001
0100
1000
0010
,
0001
0010
1000
0001
1000
0010
0100
0001
,
0000
1000
0001
0100
0001
0001
1000
1000
,
0100
0100
0010
0010
0001
0010
0100
1000
,
0000
0001
1000
0010
1000
1000
0010
0010
,
0100
0100
0001
0001
0010
0100
1000
0002
,
00M0
0000
0000
0000
0003
0000
0000
0100
0001
1000
0100
0010
0100
0000
0000
0000
,
M010
0001
0100
1000
0100
0000
0001
0000
,
1010
1010
1010
1010
1010
0000
1002
0103
,
0010
1000
0100
0001
0100
0000
1000
0000
,
0011
0011
0011
0011
0011
0000
2001
3010
,
1000
0100
1000
1000
0001
0100
0001
0001
,
0010
0100
0010
0010
0001
0100
0010
1000
,
0000
0001
0100
0001
1000
0010
1000
1000
,
0100
0010
0100
0100
1000
0010
0100
0001
,
0000
1000
0001
0001
0010
0100
1000
1000
,
0010
0100
0010
0010
1000
0001
0100
0100
,
0000
0001
1000
1000
0100
0010
0001
0001
,
1000
0010
0100
0100
0001
0100
0010
0020
,
M000
0000
0000
0000
0000
0000
0030
0100
0010
1000
0001
0010
0100
0000
0000
0000
,
001M
0100
1000
0100
0001
0000
0100
0000
,
1100
1100
1100
1100
1100
0000
1002
0103
,
0010
0100
0001
0100
1000
0000
0100
0000
,
0101
0101
0101
0101
0101
0000
0110
0000
,
100M
0000
0100
0010
0001
0000
0100
0010
0000
0000
0000
0000
1000
0001
0100
0010
,
0000
1000
0100
0010
0001
0000
0010
0100
0000
0000
0000
0000
0001
0100
1000
0020
,
0000
0000
0130
0010
1000
0000
0100
0010
0000
0000
0000
0000
0001
0010
1000
0010
,
0000
0001
0100
0010
1000
0000
0110
0000
1001
0000
0000
0000
0100
0001
0010
0100
,
1000
0000
1000
0100
1000
0000
0001
0000
0001
0100
0001
0000
0010
0000
0100
0000
,
1000
0000
1000
0010
1000
0000
0001
0000
0001
0010
0001
0000
0100
0000
0010
0000
,
0100
0000
0001
0010
0100
0000
1000
0000
0100
0010
0001
1000
0001
0010
0100
2000
,
0002
0000
0000
3M03
0110
0000
1001
0000
,
1100
0000
0010
0001
0101
0000
0010
1000
,
1100
0000
0101
0000
0001
0100
1000
0100
,
1010
0000
1000
0100
0011
0000
0001
0100
,
1000
0100
0001
1000
0010
0100
0010
0100
,
0101
0000
0001
0100
1100
0000
1000
0100
,
0101
0000
1100
0000
1000
0100
0001
0100
,
0011
0000
0100
0010
1010
0000
0100
0010
,
0001
0010
1000
0010
0100
0000
1001
0000
,
1000
0000
1000
0100
0001
0000
0100
0000
,
0010
0000
0010
0001
1000
0000
0010
0100
,
0001
0000
0001
0100
1000
0000
0100
0000
,
0010
0000
0010
1000
0001
0000
0010
0100
;

//---------------dance-single - ----------------
#NOTES:
     dance-single:
     :
     Medium:
     6:
     0.386235,0.513480,0.107430,0.089525,0.035810,302.000000,290.000000,12.000000,10.000000,7.000000,0.000000,0.386235,0.513480,0.107430,0.089525,0.035810,302.000000,290.000000,12.000000,10.000000,7.000000,0.000000:
0000
0000
0000
0000
,
0000
0000
0000
0000
,
0100
0000
0001
0000
0010
0000
0100
1000
,
0100
1000
0010
M100
,
0001
0100
0001
0000
1000
0100
1000
0000
,
0001
0010
0001
0000
1000
0010
0100
0001
,
0000
0001
1000
0000
1000
0010
1000
0000
,
0001
1000
0001
0000
0100
0010
0100
0010
,
0000
0010
1000
0000
0100
1000
0001
0000
,
0100
0001
1000
0000
0010
1000
0001
0010
,
0000
0100
0010
0000
0010
0001
1000
0000
,
0010
1000
0001
0000
0100
0001
1000
0100
,
000M
0000
0000
0000
0000
0000
0000
0000
0010
0100
0010
0100
0010
0000
0000
0000
,
M001
0100
0001
0100
0001
0000
1000
0000
,
0010
0010
0010
0010
0010
0000
0110
0000
,
1000
0100
1000
0100
1000
0000
0001
0000
,
0100
0100
0100
0100
0100
0000
1001
0000
,
1000
0100
0001
0000
0001
0100
1000
0000
,
1000
0010
0001
0000
0001
0010
1000
0001
,
0000
0001
1000
0000
0001
0010
1000
0000
,
1000
0010
0001
0000
0001
0100
1000
0100
,
0000
0001
0010
0000
0100
0010
0001
0000
,
0100
0010
1000
0000
0001
1000
0001
1000
,
0000
0100
0010
0000
1000
0010
0100
0000
,
0001
0100
0010
0000
0001
1000
0010
0100
,
000M
0000
0000
0000
0000
0000
0000
0000
0001
1000
0001
1000
0001
0000
0000
0000
,
M010
0100
0010
0100
0010
0000
0001
0000
,
1000
1000
1000
1000
1000
0000
2001
0000
,
3100
0010
0100
0010
0100
0000
1000
0000
,
0001
0001
0001
0001
0001
0000
1001
0000
,
01M0
0001
0010
0100
1000
0000
0001
1000
,
0100
1000
0010
0100
0001
0000
1000
0001
,
1000
0010
0100
0001
1000
0000
0100
0010
,
0100
0001
0100
1000
0100
0000
1000
0001
,
0011
0001
0001
0001
1000
1000
1000
1100
,
1010
0010
0010
0010
0100
0100
0100
0101
,
0001
0000
0010
0000
0100
0000
1000
0000
0001
1000
0001
1000
0001
1000
0001
1000
,
0002
0000
0000
0M03
0011
0000
1010
0000
,
1001
0000
0001
0100
0001
0000
1000
0100
,
1000
0000
1000
0000
0001
0100
0001
1000
,
0010
0000
1000
0100
1000
0000
0001
0100
,
0001
1000
0001
1000
0001
0000
0100
0000
,
0110
0000
0010
1000
0010
0000
0100
0001
,
0100
0000
0100
0000
0010
1000
0010
0100
,
0001
0000
0010
0100
1000
0000
0010
0100
,
0001
1000
0001
1000
0001
0000
0010
0000
,
0002
0000
0003
0100
0020
0000
1030
0000
,
0020
0000
0030
0100
0002
0000
1003
0001
,
2000
0000
3000
0100
0020
0000
0031
0000
,
0020
0000
0030
0100
2000
0000
3001
1000
;

//---------------dance-single - ----------------
#NOTES:
     dance-single:
     :
     Easy:
     3:
     0.262180,0.311770,0.161144,0.071620,0.000000,205.000000,187.000000,18.000000,8.000000,7.000000,0.000000,0.262180,0.311770,0.161144,0.071620,0.000000,205.000000,187.000000,18.000000,8.000000,7.000000,0.000000:
0000
0000
0000
0000
,
0000
0000
0000
0000
,
0100
1000
0010
0100
,
0100
0001
0010
M100
,
1000
0100
1000
1000
,
0001
0100
0001
0001
,
0000
1000
0010
1000
,
0001
0010
0010
0001
,
0000
0100
0010
0010
,
1000
0100
0100
0001
,
0000
0100
1000
1000
,
0010
0001
0001
0010
,
M000
0000
0000
0000
0100
0100
0100
0000
,
001M
1000
0001
0100
,
0110
0110
0110
1002
,
0013
0001
1000
0100
,
0110
0110
0110
2001
,
3001
0001
0100
0100
,
0010
0010
1000
1000
,
0000
1000
0100
0100
,
0010
0010
0001
0001
,
0000
1000
0001
0001
,
0010
0010
1000
0010
,
0000
0001
1000
1000
,
0100
0100
0001
0100
,
M000
0000
0000
0000
0010
0010
0010
0000
,
001M
0001
0100
1000
,
1100
0101
0011
1010
,
0010
1000
0100
0001
,
0101
1100
1010
0011
,
M010
0100
1000
1000
,
0010
0100
0001
0001
,
1000
0100
0010
0010
,
0001
0010
0100
0100
,
1000
0000
0100
0010
0001
0000
1000
0000
,
0001
0000
0100
0010
1000
0000
0001
0000
,
1000
0000
0010
0100
0001
0000
0010
0100
,
1000
0000
0000
000M
0010
0000
0010
0000
,
1000
0100
0001
0100
,
1000
1000
0001
0001
,
0010
1000
0010
0001
,
0100
0100
0010
1000
,
0001
0100
1000
0100
,
0001
0001
1000
1000
,
0010
0001
0010
1000
,
0001
0010
0100
1000
,
0002
0100
0203
0010
,
0320
1000
1030
1001
,
2000
0100
3200
0010
,
0320
0001
0031
1001
;
