#TITLE:That Person's Name Is;
#SUBTITLE:;
#ARTIST:Sound Horizon;
#TITLETRANSLIT:;
#SUBTITLETRANSLIT:;
#ARTISTTRANSLIT:;
#GENRE:;
#CREDIT:;
#BANNER:That Person's Name Is.png;
#BACKGROUND:That Person's Name Is-bg.png;
#LYRICSPATH:;
#CDTITLE:cdtitle.png;
#MUSIC:That Person's Name Is.ogg;
#OFFSET:-0.280000;
#SAMPLESTART:12.158500;
#SAMPLELENGTH:12.000000;
#LASTBEATHINT:270.496002;
#SELECTABLE:YES;
#BPMS:0.000000=158.000000
;
#STOPS:
;
#BGCHANGES:;
#KEYSOUNDS:;
#ATTACKS:;

//---------------dance-single - ----------------
#NOTES:
     dance-single:
     :
     Beginner:
     2:
     0.183262,0.226158,0.066517,0.028507,0.000000,135.000000,128.000000,7.000000,3.000000,0.000000,0.000000,0.183262,0.226158,0.066517,0.028507,0.000000,135.000000,128.000000,7.000000,3.000000,0.000000,0.000000:
0000
0000
0000
0000
,
0000
0000
0000
0000
,
0110
0000
0000
0000
,
0010
0000
1000
0000
,
0001
0000
0001
0000
,
0010
0000
0100
0000
,
2000
0000
0000
0000
,
3001
0000
0100
0000
,
0010
0000
0010
0000
,
1000
0000
0100
0000
,
1000
0000
0001
0000
,
0010
0000
0010
0000
,
0001
0000
0100
0000
,
1000
0000
0100
0000
,
0010
0000
0010
0000
,
0110
0000
0000
0000
,
0001
0000
0010
0000
,
0100
0000
1000
0000
,
1000
0000
0001
0000
,
0010
0000
0010
0000
,
0001
0000
0100
0000
,
0010
0000
1000
0000
,
0001
0000
0001
0000
,
1000
0000
1000
0000
,
0100
0000
0010
0000
,
0001
0000
1000
0000
,
1000
1000
0000
0000
,
0010
0000
0100
0000
,
0010
0000
1000
0000
,
1000
0000
0001
0000
,
0001
0001
0000
0000
,
0010
0000
0100
0000
,
0010
0000
0001
0000
,
1000
0000
1000
0000
,
0010
0000
0100
0000
,
0001
0000
1000
0000
,
0001
0000
0100
0000
,
0000
0001
0001
0000
,
0010
0000
0010
0000
,
0110
0000
1000
0000
,
0001
0000
0001
0000
,
0100
0000
0010
0000
,
1000
0000
1000
0000
,
0100
0000
1000
0000
,
0001
0000
0010
0000
,
1000
0000
0010
0000
,
0001
0000
0100
0000
,
0010
0000
1000
0000
,
1001
0000
0000
0000
,
0110
0000
0000
0000
,
0001
0000
1000
0000
,
0010
0000
0100
0000
,
0002
0000
1000
0000
,
2003
0000
0001
0000
,
3001
0000
0100
0000
,
0010
0000
1000
0000
,
0001
0000
0001
0000
,
1000
0000
0010
0000
,
1000
0000
1000
0000
,
1000
0000
1000
0000
,
0010
0000
0010
0000
,
0010
0000
0010
0000
,
0100
0000
0100
0000
,
0100
0000
0100
0000
,
0001
0000
0001
0000
,
1000
0000
1000
0000
,
0010
0000
0010
0000
,
0100
0000
0000
0110
,
1001
0000
0000
0000
;

//---------------dance-single - ----------------
#NOTES:
     dance-single:
     :
     Hard:
     14:
     0.760196,0.840017,0.380098,0.351591,0.551142,560.000000,520.000000,40.000000,37.000000,0.000000,0.000000,0.760196,0.840017,0.380098,0.351591,0.551142,560.000000,520.000000,40.000000,37.000000,0.000000,0.000000:
0000
0000
0000
0000
,
0000
0000
0000
0000
,
2010
0010
0010
0010
0010
0010
0010
3010
,
0010
1000
0000
0001
0100
0000
0001
0010
0000
0100
1000
0000
1001
0000
0000
0000
,
2000
0000
0000
0000
0000
0000
3010
0100
0001
0000
0000
0000
1000
0000
0000
0000
,
0010
0000
0000
1000
0000
0000
0100
0000
1000
0000
0000
0000
0011
0000
0000
0000
,
0001
0100
1000
0100
0001
0010
1000
0010
,
0001
0100
0000
0010
1000
0000
0100
1000
0000
0001
0010
0000
0110
0000
0000
0000
,
0001
0010
0100
1000
0010
1000
0001
0100
,
0001
0000
0010
0000
0100
0000
0010
0000
0001
0000
0100
0000
0010
0000
0100
0001
,
0010
0000
0100
0000
0010
0000
0100
1000
0010
0000
0000
1000
0000
0000
0001
0000
,
0010
0000
0001
0000
0100
0000
0001
0000
0020
0000
0000
0000
0130
0000
1000
0001
,
1000
0000
0000
0010
0000
0000
0100
0000
0001
0000
0010
0000
0100
0010
0100
0000
,
0001
0000
0000
0100
0000
0000
0010
0000
0001
0000
0100
0000
0010
1000
0010
0000
,
1010
0000
0000
1100
0000
0000
0110
0000
0000
0010
0001
0000
1000
0000
0100
0000
,
0001
0000
0000
0100
0000
1000
0001
1000
0001
0000
0100
0000
1001
0000
0000
0000
,
0010
1000
0100
1000
0010
0001
1000
0001
,
0010
0000
0100
0000
0001
0000
0010
0000
0100
0000
1000
0000
0001
0000
1000
0100
,
0010
0000
0001
0000
0100
0000
0001
0100
0010
0000
0000
1000
0000
0000
0001
0000
,
0010
0000
1000
0000
0001
0000
0100
0000
0010
0001
0000
1000
0100
0000
0110
0000
,
0100
0000
0000
1000
0000
0000
0010
0000
0100
0010
0100
0000
0001
0100
0001
0000
,
0100
0000
0000
0001
0000
0000
0010
0000
0100
0010
0100
0000
1000
0100
0010
0000
,
0011
0000
0000
0101
0000
0000
0110
0000
0000
1000
0001
0000
0010
0000
0100
0000
,
1000
0000
0000
1000
0001
0000
0010
0000
0000
0000
0001
0000
0100
0000
0010
0000
,
0100
0000
0000
0001
0000
0000
1000
0000
0010
0000
0000
0000
0110
0000
0000
0000
,
0001
0000
0010
0000
0100
0010
0100
0010
0002
0000
0000
0000
0000
0000
0103
0000
,
0010
0000
0000
0100
0020
0000
0000
0000
1000
0000
0000
0000
0130
0010
0100
0010
,
1000
0000
0000
1100
0000
0000
0200
0000
0000
0000
0310
0000
0001
0000
0100
0000
,
0001
0000
0000
0101
0000
0000
0200
0000
0000
0000
0310
0000
1000
0000
0100
0000
,
2000
0000
0000
0000
3100
1000
0100
1000
0002
0000
0000
0000
0000
0000
0103
0000
,
0010
0000
0000
1000
0020
0000
0000
0000
0001
0000
0000
0000
0130
0010
0100
0010
,
1000
0000
0100
0001
0000
0100
2000
0000
0000
0000
3010
0000
0100
0000
0001
0000
,
0020
0000
0000
0032
0000
0000
0103
0000
0110
0000
0000
1001
0000
0000
0100
0000
,
0001
0010
1000
0010
0001
0100
1000
0100
,
0001
0000
0010
0000
0100
0000
1000
0000
0002
0000
0000
0000
0000
0000
1003
0010
,
0100
0000
0000
0001
0000
0000
0010
0000
0200
0000
0000
0000
0310
0000
0001
0000
,
2000
0000
0000
0000
0010
0000
0000
0000
3100
1000
0000
0001
0100
0000
0001
1000
,
0010
0000
0110
0000
0000
0000
0001
0100
0002
0000
0000
0000
2003
0000
0000
0000
,
3010
0000
0000
1000
0000
0000
0100
0000
0020
0000
0000
0000
0000
0000
0030
0000
,
0110
0000
0000
0000
0000
0000
0001
0100
0010
0000
0000
1010
0000
0000
0011
0000
,
0110
0100
0010
0001
0100
0010
0100
0001
,
0010
0100
1000
0010
0100
0010
1000
0100
,
0010
0000
0100
0000
0010
0000
0001
0020
0000
0000
0130
0000
1000
0000
0010
2000
,
0000
0000
3100
0000
0010
0000
0100
0000
1000
0001
0000
0100
0010
0000
0110
0000
,
0001
0000
0100
0000
0001
0000
1000
0001
0000
0001
1000
0000
0010
0000
0000
0000
,
1000
0000
0100
0000
1000
0000
0001
1000
0000
1000
0001
0000
0010
0000
0100
0000
,
1000
0000
0010
0000
1000
0000
0001
0020
0000
0000
0031
0000
0010
0000
0100
2000
,
0000
3001
0010
1000
0010
0001
1000
0001
,
0010
0000
0100
0000
0010
0000
0001
1000
0010
0000
0000
1000
0100
0000
0010
0000
,
0001
0000
0000
0000
0000
0000
0100
0001
0010
0000
0000
0110
0000
0000
1001
0000
,
2000
0000
0000
0000
0000
0000
3001
0100
0002
0000
0000
0000
2003
0000
0000
0000
,
3010
0000
0000
0100
0000
0000
0001
0000
0010
0000
0000
0000
0110
0000
0000
0000
,
2000
0100
3002
0100
2003
0100
3002
0103
,
0001
0000
0010
0000
0100
0000
1000
0000
0001
1000
0001
1000
0010
0000
0100
0000
,
0001
0000
0010
0000
1000
0000
0010
0100
1000
0000
0010
0000
0110
0000
0000
0000
,
1000
0000
0010
0000
0001
0000
0010
0100
0001
0000
0010
0000
1001
0000
0000
0000
,
2000
0100
0002
3003
0002
0100
2000
3003
,
0010
0100
0000
0001
0010
0000
0100
1000
0000
0010
0100
0000
1001
0000
0000
0000
,
1000
0100
1000
0100
0010
0000
0100
0000
0001
0100
0001
0100
0010
0000
0100
0000
,
1000
0010
1000
0010
0100
0000
0010
0000
0001
0010
0001
0010
0100
0000
0010
0000
,
1000
0001
1000
0001
1000
0000
0010
0000
0100
0010
0100
0010
0100
0000
0001
0000
,
0010
0100
0010
0100
0010
0000
0001
0000
0010
0000
0100
0000
1000
0000
0001
0000
,
0001
1000
0001
1000
0010
0000
0100
0000
0001
1000
0001
1000
0100
0000
0010
0000
,
0001
0010
0001
0010
0100
0000
1000
0000
0010
1000
0010
1000
0001
0000
0100
0000
,
0110
0000
0000
0101
0000
0000
1200
0000
0000
0000
0310
0000
0100
0000
0010
0000
,
0110
0000
0000
0011
0000
0000
1020
0000
0000
0000
1030
0000
0010
0000
0100
0000
,
0101
0000
0000
1010
0000
0000
2001
0000
0000
0000
3100
0000
0010
0000
0100
0000
,
0010
0001
0010
0001
1000
0100
1000
0100
0010
0000
0000
0000
0110
0000
0000
0000
,
1001
0000
0000
0000
;

//---------------dance-single - ----------------
#NOTES:
     dance-single:
     :
     Easy:
     6:
     0.321726,0.355392,0.161542,0.190049,0.000000,237.000000,220.000000,17.000000,20.000000,0.000000,0.000000,0.321726,0.355392,0.161542,0.190049,0.000000,237.000000,220.000000,17.000000,20.000000,0.000000,0.000000:
0000
0000
0000
0000
,
0000
0000
0000
0000
,
2002
0000
0000
3003
,
0020
0000
0230
0301
,
0010
0000
0001
0100
,
0010
1000
0001
0010
,
0200
0000
1000
0000
,
0320
0000
0001
0030
,
0001
0010
0100
1000
,
0001
1000
0100
0000
,
1000
0000
0001
0100
,
0010
0000
1000
0000
,
0010
0100
0001
0000
,
0010
0100
1000
0000
,
0001
0001
1000
1000
,
0110
0000
0000
1001
,
1000
0100
0010
0001
,
1000
0001
0010
0000
,
0001
0000
1000
0010
,
0100
0000
0001
0000
,
0100
0010
1000
0000
,
0100
0010
0001
0000
,
1000
1000
0001
0001
,
0010
0100
1000
0010
,
0100
0001
0010
0110
,
2000
0000
0010
0000
,
3001
0012
0000
0103
,
0010
0010
1000
0100
,
0010
0010
0001
0100
,
0002
0000
0010
0000
,
1003
2010
0000
3100
,
0001
0100
1000
0010
,
0001
0010
1000
0100
,
0010
0000
0001
0010
,
0100
1000
0001
0000
,
1000
0010
0100
0001
,
0002
0000
1000
1003
,
0000
0010
0100
0010
,
1000
0001
0020
0000
,
0031
0000
1000
0001
,
1000
0100
0010
0010
,
0001
0010
0100
0100
,
1000
0010
0001
0010
,
1000
0001
0100
0010
,
1000
1000
0100
0010
,
0001
0001
0100
0010
,
1000
0010
0001
0010
,
2000
3200
0320
0032
,
0103
0010
0100
0010
,
1001
0000
1010
0011
,
0100
0010
0001
0100
,
0010
1000
0001
0010
,
0001
0100
0010
1000
,
0002
0000
2003
0010
,
3100
0010
0001
0100
,
0010
0100
0001
0010
,
0100
1000
1000
0100
,
0020
0000
0230
0000
,
1300
0100
1000
0100
,
0010
0001
0010
0001
,
0100
0001
0100
0001
,
1000
0010
1000
0010
,
0100
0010
0100
0010
,
1000
0001
1000
0001
,
0011
0000
1010
0000
,
0101
0000
1100
0000
,
0110
0000
1001
0000
,
1000
0010
0001
0110
,
1001
0000
0000
0000
;

//---------------dance-single - ----------------
#NOTES:
     dance-single:
     :
     Challenge:
     16:
     0.891873,0.969250,0.323083,0.247064,0.874226,657.000000,623.000000,34.000000,26.000000,0.000000,0.000000,0.891873,0.969250,0.323083,0.247064,0.874226,657.000000,623.000000,34.000000,26.000000,0.000000,0.000000:
// measure 0
0000
0000
0000
0000
,  // measure 1
0000
0000
0000
0000
,  // measure 2
0120
0100
0100
0100
0100
0100
0100
0130
,  // measure 3
0010
1000
0001
1000
0100
0000
0010
0001
1000
0001
0100
0000
0110
0000
0000
0000
,  // measure 4
0001
0000
0000
0000
0100
0000
0010
1000
0001
0000
0000
0000
0110
0000
0000
0000
,  // measure 5
0001
0010
0000
0100
1000
0000
0001
0000
0010
0000
0000
0000
1001
0000
0000
0000
,  // measure 6
1000
0100
0001
0100
1000
0010
0001
0010
,  // measure 7
1000
0010
0100
0010
1000
0000
0001
0100
0010
0100
0001
0000
1001
0000
0000
0000
,  // measure 8
0001
0000
0010
0000
0100
1000
0100
0000
1000
0000
0010
0000
0100
0001
0100
0000
,  // measure 9
0001
0000
1000
0000
0010
0100
0010
0000
1000
0000
1000
0001
0000
0001
0010
0000
,  // measure 10
0001
0000
0100
0000
0010
1000
0010
0000
1000
0000
0001
0100
0000
0001
1000
0000
,  // measure 11
0010
0000
1000
0000
0100
0000
0010
0000
0001
0000
0010
0000
0100
0010
0100
0010
,  // measure 12
0001
0000
0010
0000
0100
1000
0100
0000
1000
0000
0010
0000
0100
0001
0100
0000
,  // measure 13
0001
0000
1000
0000
0010
0100
0010
0000
1000
0000
0001
0000
0010
0100
0010
0000
,  // measure 14
0001
0000
0001
1000
0000
1000
0001
0000
0000
0001
0010
0000
0110
0000
1100
0000
,  // measure 15
1001
0000
0000
0100
0000
0100
0001
0100
0010
0000
1000
0000
1001
0000
0000
0000
,  // measure 16
1000
0000
0010
0000
0100
0010
1000
0000
0001
0000
0100
0000
0010
0100
0001
0000
,  // measure 17
1000
0000
0100
0000
0010
0100
1000
0000
0001
0000
0010
0100
0000
0010
0001
0000
,  // measure 18
1000
0000
0100
0000
0010
0001
1000
0000
0010
0100
0000
0010
0100
0000
0001
0000
,  // measure 19
0010
0000
0001
0000
0100
0000
0010
0000
1000
0000
0001
1000
0001
1000
0001
0000
,  // measure 20
1000
0100
0000
1000
0010
0000
0100
0000
0010
0100
0010
0000
0100
0001
0100
0000
,  // measure 21
0001
1000
0000
0001
0010
0000
0100
0000
1000
0100
1000
0000
0100
0010
0100
0000
,  // measure 22
0010
0000
0001
0010
0000
0100
1000
0000
0000
0001
1000
0000
1010
0000
0110
0000
,  // measure 23
0101
0000
0000
1001
0000
0000
1010
0000
0000
0000
0010
0000
0100
0000
0010
0000
,  // measure 24
2000
0000
0000
3200
0000
0000
0320
0000
0031
0000
0000
0000
1001
0000
0000
0000
,  // measure 25
0001
0000
0100
0000
0001
1000
0100
1000
0020
0000
0000
0000
0000
0000
0130
0000
,  // measure 26
0010
0000
0000
1000
0010
0000
0000
0000
0100
0000
0001
1000
0001
1000
0001
1000
,  // measure 27
0010
0000
0010
0100
0000
0100
0002
0000
0000
0000
0010
0000
1000
0000
0103
0000
,  // measure 28
0010
0000
0010
1000
0000
1000
0200
0000
0000
0000
0310
0000
0100
0000
1000
0000
,  // measure 29
0001
0000
1000
0000
0100
1000
0001
0100
0020
0000
0000
0000
0000
0000
0130
0000
,  // measure 30
0010
0000
0000
1000
0010
0000
0000
0000
0100
0000
0010
1000
0001
1000
0100
0000
,  // measure 31
0010
0000
0010
0001
0000
1000
0200
0000
0000
0000
0310
0000
0100
0000
1000
0000
,  // measure 32
0010
0000
0010
1000
0000
0001
0100
0000
0101
0000
0000
1010
0000
0000
0110
0000
,  // measure 33
0100
0000
0010
0000
1000
0010
1000
0000
0100
0000
0010
0000
0001
0010
0001
0000
,  // measure 34
1000
0000
1000
0001
0000
0001
0100
0000
0001
0000
0001
1000
0000
1000
0100
0000
,  // measure 35
1000
0010
0000
0100
0010
0000
0100
0000
0002
0000
0000
0000
0013
0000
0100
0000
,  // measure 36
1000
0010
1000
0000
0001
0010
0001
0000
1000
0100
1000
0000
0001
0100
0001
1000
,  // measure 37
0000
0000
1010
0000
0000
0000
0010
0100
0002
0000
0000
0000
2003
0000
0000
0000
,  // measure 38
3010
0100
0000
0001
1000
0000
0100
0000
0020
0000
0000
0000
0000
0000
0031
1000
,  // measure 39
0100
0000
0000
0000
0000
0000
0010
0100
0010
0000
0000
1001
0000
0000
0110
0000
,  // measure 40
0010
0000
0001
0000
0010
0000
0100
0010
0000
0100
0010
0000
0001
0000
0100
0000
,  // measure 41
0010
0000
1000
0000
0010
0000
0100
0010
0000
0100
0010
0000
1000
0000
0100
0000
,  // measure 42
0010
0000
0100
0000
1000
0000
0001
0020
0000
0000
0130
0000
0010
0000
0001
0200
,  // measure 43
0000
0000
0310
0000
1000
0010
1000
0010
0100
0001
0100
0001
1000
0000
1001
0000
,  // measure 44
0100
0000
0010
0000
1000
0000
0001
0100
0000
0001
0100
0000
0010
1000
0001
0010
,  // measure 45
0100
0000
0010
0000
0001
0000
1000
0100
0000
1000
0100
0000
0010
0001
0100
0001
,  // measure 46
0010
0000
0100
0000
0010
0000
0001
0200
0000
0000
0310
0000
1000
0000
0010
0200
,  // measure 47
0000
0301
0020
0130
2000
3010
0002
1003
,  // measure 48
0100
0010
1000
0100
0100
0010
1000
0001
,  // measure 49
0101
0000
0000
0000
0000
0000
0000
0000
0110
0000
0000
1001
0000
0000
0110
0000
,  // measure 50
0100
0000
0001
0000
0100
0010
1000
0000
0100
0000
1000
0000
0100
0010
0001
0000
,  // measure 51
0010
0000
0100
0000
1000
0001
0010
0000
0100
0000
0010
0000
0001
1000
0100
0000
,  // measure 52
1000
0000
0010
1000
0100
0000
0020
0000
0000
0000
0031
0100
0001
0000
0010
0000
,  // measure 53
0100
0010
0100
0000
1000
0001
1000
0000
0010
0100
0010
0100
0000
0000
1010
0000
,  // measure 54
1000
0100
0010
0001
0010
0100
1000
0000
,  // measure 55
0001
0000
0100
0000
0010
0100
0010
0100
0002
0000
0000
0000
0023
0000
0000
0000
,  // measure 56
0000
0130
1000
0000
0001
1000
0010
0000
,  // measure 57
1000
0100
1000
0100
0010
0001
0010
0001
0100
0010
0100
0010
1000
0000
0000
0000
,  // measure 58
0001
0100
0001
0100
0010
1000
0010
0000
1000
0100
1000
0100
0010
0001
0010
0000
,  // measure 59
0001
1000
0001
1000
0010
0100
0010
0000
1000
0001
1000
0001
0010
0100
0010
0100
,  // measure 60
1000
0100
1000
0100
0010
0001
0010
0000
0001
0100
0001
0100
0010
1000
0010
0000
,  // measure 61
1000
0001
1000
0001
0100
0010
0100
0000
0001
0010
0100
1000
0010
0100
0001
1000
,  // measure 62
0100
0010
0100
0010
0001
0010
0001
0000
0100
0010
0100
0010
1000
0010
1000
0000
,  // measure 63
0001
1000
0001
1000
0010
1000
0010
0000
1000
0001
1000
0001
0100
0001
0100
0000
,  // measure 64
0010
0100
0010
0100
0000
0010
2000
0000
0000
0000
3001
0000
0110
0000
1001
0000
,  // measure 65
0010
0100
0010
0100
0000
0010
0002
0000
0000
0000
1003
0000
0110
0000
1001
0000
,  // measure 66
1000
0001
1000
0001
0000
0010
0200
0000
0000
0000
0310
0000
1001
0000
0110
0000
,  // measure 67
1000
0010
0100
0001
0010
0100
1000
0001
0010
0000
0000
0000
0010
0100
0000
0000
,  // measure 68
1001
0000
0000
0000
;

//---------------dance-single - ----------------
#NOTES:
     dance-single:
     :
     Medium:
     9:
     0.490055,0.516933,0.304078,0.351591,0.000000,361.000000,329.000000,32.000000,37.000000,0.000000,0.000000,0.490055,0.516933,0.304078,0.351591,0.000000,361.000000,329.000000,32.000000,37.000000,0.000000,0.000000:
0000
0000
0000
0000
,
0000
0000
0000
0000
,
0220
0000
0000
0030
,
0302
0023
0230
2300
,
3002
0000
0103
0001
,
0010
0100
1000
0010
,
0100
0001
0100
1000
,
0200
0000
0320
0000
,
1030
0010
1000
0000
0001
0100
0001
0000
,
0001
0010
0100
0010
0001
0000
0000
0100
,
0010
0000
0000
1000
0010
0000
0100
0000
,
0102
0000
0023
0000
,
0130
0000
0010
0001
0100
0001
0010
0000
,
0100
0000
1000
0010
0100
0010
1000
0000
,
0001
1000
0010
0100
,
1001
0000
0000
0110
,
0100
0001
0100
0000
0010
1000
0010
0000
,
1000
0100
0010
0001
0100
0000
0000
0001
,
1000
0000
0000
0100
0010
0000
0001
0000
,
1001
0000
0000
0100
0020
0000
0000
1030
,
0100
0000
0010
0100
1000
0001
0010
0000
,
0100
0000
0010
0001
0100
0010
1000
0000
,
0001
1000
0010
0100
,
0102
2003
3200
0320
,
0032
2003
3020
0230
,
0301
0000
0100
0001
0010
0000
0000
0100
,
0010
0100
0010
0000
0001
0000
1001
0000
,
1000
0100
1000
0010
0000
0100
0001
0000
,
0001
0100
0001
0010
0000
0100
1000
0100
,
1000
0000
0100
1000
0010
0000
0000
0100
,
0010
0100
0010
0000
1000
0000
1001
0000
,
0010
0001
0010
0100
0000
0010
0001
1000
,
0010
0100
0010
1000
0001
0000
1001
0000
,
1000
0000
0100
1000
0010
0000
0110
0000
,
0100
0010
1000
0001
0100
0000
0101
0000
,
0100
0000
0010
1000
0100
0000
1100
0100
,
0020
0032
2003
3020
,
0030
0100
0000
0010
0100
0000
1001
0000
,
0001
0100
0020
0000
,
1030
0000
0000
0100
1000
0000
1001
0000
,
0001
0100
0001
0100
0010
0000
1010
0000
,
1000
0000
0010
0100
0001
1000
0010
0000
,
1000
0100
1000
0000
0001
0100
0001
0000
,
1000
0001
1000
0001
1000
0000
0010
0000
,
1000
0100
0010
0001
0010
0100
1000
0000
,
0001
0100
0010
1000
0010
0100
0001
0000
,
1000
0001
1000
0001
0010
0100
0010
0001
,
0020
0230
2300
3002
,
0103
0010
0100
0010
1000
0001
0010
0100
,
1000
0000
1001
0110
,
0001
0100
0010
0000
1000
0010
0100
0000
,
0002
0023
0230
2300
,
3002
0010
1000
0100
,
2003
0100
0001
0010
,
3001
0000
0100
0010
1000
0000
1001
0000
,
1000
0000
0010
0100
0001
0000
1001
0000
,
1000
0100
0010
0000
0001
0010
0100
0000
,
2000
0000
3002
0000
,
0013
0100
1000
0100
0010
0100
1000
0000
,
0010
0100
0001
0100
0010
0100
0001
0000
,
0010
0001
1000
0001
0010
0001
1000
0000
,
0100
1000
0001
1000
0100
1000
0001
0000
,
0100
0010
1000
0010
0100
0001
0010
0000
,
0100
0010
0001
0010
0100
1000
0010
0000
,
1010
0000
0000
0101
0000
0000
1001
0000
,
0011
0000
0000
1100
0000
0000
1001
0000
,
0101
0000
0000
1010
0000
0000
1001
0000
,
1100
0011
0110
1001
,
0100
0000
0000
0000
;
