#TITLE:Plasma Boss Colress;
#SUBTITLE:;
#ARTIST:Junichi Masuda;
#TITLETRANSLIT:;
#SUBTITLETRANSLIT:;
#ARTISTTRANSLIT:;
#GENRE:;
#CREDIT:;
#BANNER:Plasma Boss Colress.png;
#BACKGROUND:Plasma Boss Bolress-bg.png;
#LYRICSPATH:;
#CDTITLE:;
#MUSIC:Plasma Boss Colress.ogg;
#OFFSET:-0.150000;
#SAMPLESTART:12.360000;
#SAMPLELENGTH:12.000000;
#LASTBEATHINT:280.374573;
#SELECTABLE:YES;
#BPMS:0.000000=157.000000
,272.000000=78.500000
;
#STOPS:
;
#BGCHANGES:;
#KEYSOUNDS:;
#ATTACKS:;

//---------------dance-single - ----------------
#NOTES:
     dance-single:
     :
     Beginner:
     2:
     0.158077,0.239605,0.148120,0.095842,0.000000,127.000000,110.000000,17.000000,11.000000,0.000000,0.000000,0.158077,0.239605,0.148120,0.095842,0.000000,127.000000,110.000000,17.000000,11.000000,0.000000,0.000000:
0000
0000
0000
0000
,
0000
0000
0000
0000
,
0000
0000
0000
0000
,
0000
0000
0000
0000
,
0000
0000
0000
0000
,
0000
0000
0000
0000
,
0000
0000
0000
0000
,
0000
0000
0000
0000
,
0100
0000
0000
0000
,
0001
0000
0010
0000
,
0100
0000
0000
0000
,
1000
0000
0001
0000
,
0100
0000
0000
0000
,
0010
0000
1000
0000
,
0000
0000
0001
0000
,
0100
0000
0010
0000
,
1000
0000
1000
0000
,
0010
0000
1000
0000
,
0100
0000
0001
0000
,
0100
0000
0010
0000
,
0001
0000
0001
0000
,
0010
0000
0001
0000
,
0100
0000
1000
0000
,
0100
0000
0010
0000
,
1010
0000
0101
0000
,
0000
1000
0000
0001
,
0011
0000
1100
0000
,
0000
0001
0000
1000
,
1100
0000
0011
0000
,
0000
1000
0000
0001
,
0101
0000
1010
0000
,
0100
0000
0010
0000
,
2000
3000
0200
0300
,
0020
0030
0002
0003
,
0200
0300
0020
0030
,
2000
3000
0002
0003
,
0200
0000
0000
0000
,
0000
0000
0000
0000
,
0300
0000
0000
0000
,
0010
0010
0010
0010
,
0010
0000
1000
0000
,
0100
0000
0010
0000
,
0001
0000
0100
0000
,
0001
0000
1000
0000
,
0100
0000
1100
0000
,
0100
0000
1100
0000
,
0010
0000
0011
0000
,
0010
0000
0011
0000
,
0001
0000
0101
0000
,
0001
0000
0101
0000
,
1000
0000
1010
0000
,
1000
0000
1010
0000
,
0100
0100
0000
0000
,
0001
0000
0010
0000
,
0100
0000
0000
0000
,
0010
0000
0001
0000
,
1000
0000
0100
0000
,
1000
0000
0001
0000
,
0100
0000
0010
0000
,
1000
0000
0010
0000
,
1000
1000
0000
0000
,
0001
0000
0010
0000
,
0100
0000
0000
0000
,
0001
0000
0100
0000
,
1000
0000
0001
0000
,
0000
0000
0100
0000
,
0001
0000
0000
0000
,
0010
0000
0100
0000
,
2002
0000
0000
3003
;

//---------------dance-single - ----------------
#NOTES:
     dance-single:
     :
     Easy:
     5:
     0.252675,0.335448,0.226536,0.374656,0.000000,203.000000,177.000000,26.000000,43.000000,0.000000,0.000000,0.252675,0.335448,0.226536,0.374656,0.000000,203.000000,177.000000,26.000000,43.000000,0.000000,0.000000:
0000
0000
0000
0000
,
0000
0000
0000
0000
,
0000
0000
0000
0000
,
0000
0000
0000
0000
,
2002
0000
0000
3000
,
0200
0000
0000
0003
,
0020
0000
0000
0300
,
1030
1010
1001
0101
,
0100
0002
0000
0010
,
2003
0000
3020
0000
,
0230
0001
0000
0310
,
2000
0000
3002
0000
,
0203
1000
0000
0301
,
2000
0000
3020
0000
,
1000
0000
0230
0000
,
0302
0000
0023
0000
,
0130
1100
0000
0011
,
0000
1100
0000
0101
,
0000
1010
0000
0101
,
0000
1001
0000
0110
,
0000
1010
0000
0011
,
0000
1100
0000
0011
,
0000
0101
0000
1010
,
0000
0110
0000
1001
,
1000
1000
0100
0100
,
0000
0010
0000
0010
,
0001
0001
0100
0100
,
0000
0010
0000
0010
,
0100
0100
0001
0001
,
0000
1000
0000
1000
,
0010
0010
1000
1000
,
0000
0001
0000
0001
,
0010
0100
0010
0001
,
1000
0001
1000
0010
,
1000
0001
0100
0001
,
1000
0010
0100
0001
,
2000
0000
0000
0000
,
0000
0000
0000
0000
,
3002
0000
0000
0000
,
0103
0100
0100
0100
,
0110
0010
0000
1000
,
0000
0001
0000
0010
,
0000
0100
0000
1000
,
0000
0001
0000
0100
,
0001
0010
0100
0010
,
0001
0100
0010
0110
,
1000
0010
0100
0010
,
1000
0100
0010
0110
,
0001
0010
1000
0010
,
0001
0100
0010
1001
,
1000
0010
0001
0010
,
1000
0100
0010
0202
,
0303
1200
0000
1300
,
0002
0000
0023
0000
,
0230
1000
0000
0001
,
2300
0000
3020
0000
,
0230
1000
0000
0301
,
0020
0000
0032
0000
,
2003
0000
3200
0000
,
0320
0000
0032
0000
,
0203
0010
0000
0301
,
2000
0000
0010
0000
,
3002
0100
0000
1000
,
0023
0000
0100
0000
,
0031
1000
0200
0000
,
1300
0001
0200
0000
,
0301
0010
0100
1000
,
0010
1000
0100
0010
,
0002
0000
2003
0000
,
3200
0000
0320
0000
,
0130
0000
0000
0000
;

//---------------dance-single - ----------------
#NOTES:
     dance-single:
     :
     Medium:
     10:
     0.455562,0.487924,0.226536,0.174259,0.000000,366.000000,340.000000,26.000000,20.000000,0.000000,0.000000,0.455562,0.487924,0.226536,0.174259,0.000000,366.000000,340.000000,26.000000,20.000000,0.000000,0.000000:
0000
0000
0000
0000
,
0000
0000
0000
0000
,
0000
0000
0000
0000
,
0000
0000
0000
0000
,
0220
0000
0000
0030
1300
0000
0000
1000
,
0200
0000
0000
0000
0310
0000
0000
0010
,
0200
0000
0000
0000
0301
0000
0000
0001
,
0100
1100
0011
0101
,
1010
0000
1000
0010
0100
0010
1000
0000
,
0001
0000
0010
0001
0100
0001
0010
0000
,
0101
0000
0001
0100
0010
0100
0001
0000
,
1000
0000
0100
1000
0010
1000
0100
0000
,
0110
0000
0010
0001
1000
0010
0100
0000
,
0001
0000
0100
0010
1000
0001
0010
0000
,
1001
0000
0010
1000
0001
0010
0100
0000
,
0100
0010
0100
0010
0001
0000
1000
0000
,
0100
0000
1100
0000
0000
0101
0000
0000
,
1010
0000
0000
0101
0000
0000
1100
0000
,
0001
0010
0000
0100
0000
0100
0001
0000
,
0100
0000
1000
0010
0001
0010
1000
0000
,
0001
0000
0011
0000
0000
1010
0000
0000
,
0101
0000
0000
1100
0000
0000
0110
0000
,
0001
0010
0000
0100
0000
0100
0001
0000
,
0100
1000
0010
0000
0100
0001
0010
0000
,
0001
0000
0000
0001
1000
0000
0000
1000
,
0100
0010
0100
0010
0100
0010
0100
0000
,
1000
0000
0000
1000
0001
0000
0000
0001
,
0010
0100
0010
0100
0010
0100
1000
0000
,
0010
0000
0000
0010
0100
0000
0000
0100
,
0001
1000
0001
1000
0001
1000
0001
0000
,
0100
0000
0000
0100
0010
0000
0000
0010
,
1000
0001
1000
0001
1000
0001
1000
0000
,
0010
1000
0000
1000
0100
0000
0100
0010
,
0000
0010
0001
0000
0001
0100
0001
0010
,
0100
1000
0000
1000
0010
0000
0010
0100
,
0000
0100
0001
0000
0010
0100
1000
0001
,
0200
0000
0010
0000
,
0001
0000
0010
0000
,
0320
0000
1000
0000
,
0130
0110
1010
1001
,
0011
0000
0001
0100
0010
0000
0100
0010
,
1000
0001
0010
0000
0100
0000
0010
0001
,
0100
0010
0000
0010
0000
0000
1010
0000
,
1000
0010
0000
0100
0000
0100
0010
0000
,
1100
0000
1000
0010
0100
0000
0010
0100
,
0001
1000
0100
0000
0010
0000
0100
1000
,
0010
0100
0000
0100
0001
0000
0010
0000
,
0001
0100
0010
1000
0001
0010
0100
1000
,
0001
0000
1001
0000
1000
0010
0100
0000
,
0010
0000
0110
0000
0100
0001
0010
0000
,
0001
0100
0010
1000
0000
0100
0010
0001
,
1000
0001
0000
0100
0000
0010
1000
0010
,
0100
0001
0100
0000
0001
1000
0001
0000
,
2000
3200
0302
0203
,
1300
0010
1000
0000
0100
1000
0100
0000
,
2000
3020
0032
0023
,
1030
0010
1000
0000
0001
0100
0001
0000
,
1000
0100
1000
0000
0001
0010
0001
0000
,
0100
0010
0100
0000
0002
0000
0010
0000
,
0203
1000
0320
0100
,
2030
0000
3001
0010
0100
0010
0001
0000
,
0100
0000
1000
0100
0010
1000
0100
0000
,
0010
0000
0001
0010
0100
0001
0100
0000
,
1000
0000
0010
0100
0001
0000
0100
0010
,
1000
0000
0001
0010
0100
0000
0100
0010
,
0001
0000
1000
0010
0100
0000
0100
0010
,
1000
0000
0100
1000
0010
0100
0001
0000
,
0001
0000
0100
0001
0010
0100
1000
0000
,
0002
0100
1000
0010
,
2003
0100
0001
0010
,
3100
0000
0000
0000
;

//---------------dance-single - ----------------
#NOTES:
     dance-single:
     :
     Hard:
     14:
     0.648491,0.731886,0.191684,0.191684,0.453072,521.000000,499.000000,22.000000,22.000000,0.000000,0.000000,0.648491,0.731886,0.191684,0.191684,0.453072,521.000000,499.000000,22.000000,22.000000,0.000000,0.000000:
// measure 0
0000
0000
0000
0000
,  // measure 1
0000
0000
0000
0000
,  // measure 2
0000
0000
0000
0000
,  // measure 3
0000
0000
0000
0000
0000
0000
0000
0000
0000
0000
0000
0000
0000
0000
0010
0100
,  // measure 4
0001
0000
0000
0000
1010
0000
0000
1000
,  // measure 5
0100
0000
0000
0000
0011
0000
0000
0001
,  // measure 6
0100
0010
1000
0001
,  // measure 7
0010
0000
1000
0000
0010
0000
0001
0000
0100
0000
1000
0000
0100
0001
0100
0001
,  // measure 8
0100
0000
0010
0000
1000
0000
0100
0000
0010
0001
0010
0000
0100
0000
1000
0000
,  // measure 9
0000
0000
0010
0000
0100
0000
0001
0000
1000
0100
1000
0000
0010
0000
0100
0000
,  // measure 10
0000
0000
0100
0000
0001
0000
0010
0000
0100
1000
0100
0000
0010
0000
0001
0000
,  // measure 11
0000
0000
0100
0000
0010
0000
1000
0000
0001
0010
0001
0000
1000
0010
1000
0000
,  // measure 12
0001
0000
0100
0000
0010
0000
1000
0000
0001
0010
0001
0000
1000
0000
0100
0000
,  // measure 13
0000
0000
0001
0000
0100
0000
1000
0000
0010
1000
0010
0000
0200
0000
0000
0000
,  // measure 14
0000
0000
0301
0000
0010
0000
0100
0000
1000
0010
1000
0000
0100
0000
0010
0000
,  // measure 15
0001
0010
0001
0010
0001
0000
1000
0000
0100
1000
0100
1000
0100
0000
0010
0000
,  // measure 16
0001
0000
0000
0000
0001
0100
0001
0000
0000
0000
1000
0100
1000
0000
0000
0000
,  // measure 17
0010
1000
0010
0000
0000
0000
0100
0001
0100
0000
0000
0000
1001
0000
0000
0000
,  // measure 18
0001
0010
0000
0100
0000
1000
1000
0000
,  // measure 19
0100
0000
0010
0000
0001
0000
0010
0000
1000
0000
0010
0000
0001
1000
0001
0000
,  // measure 20
0100
0001
0100
0001
2000
0000
0000
0000
3000
0000
0100
1000
0100
0000
0000
0000
,  // measure 21
0010
0001
0010
0000
0000
0000
0001
0100
0001
0000
0000
0000
1000
0010
1000
0000
,  // measure 22
0100
0010
0000
0010
0000
0001
1000
0000
,  // measure 23
0001
0100
0010
1000
0100
0010
0001
0000
,  // measure 24
1000
0100
0000
0100
0010
0000
0011
0000
0000
0000
0001
0000
0100
0000
1000
0000
,  // measure 25
0000
0000
0100
0010
0100
0010
0000
0000
1000
0001
1000
0001
0000
0000
0100
0000
,  // measure 26
0001
0100
0000
0100
0010
0000
1010
0000
0000
0000
1000
0000
0100
0000
0001
0000
,  // measure 27
0100
0000
0100
0000
1000
0010
1000
0010
0000
0100
0001
0100
0010
0000
0100
0000
,  // measure 28
0001
0010
1000
0001
0100
1000
0010
0100
,  // measure 29
0000
0000
0001
0100
0001
0100
0000
0000
0010
1000
0010
1000
0000
0000
0100
0000
,  // measure 30
1000
0000
0000
1000
0000
0000
1001
0000
0000
0000
0001
0000
0100
0000
0001
0000
,  // measure 31
0010
0000
1100
0000
1100
0000
0000
0000
0101
0000
0000
0101
0000
0000
0100
0000
,  // measure 32
0010
1000
0100
0001
0100
1000
0010
0100
,  // measure 33
1000
0100
0010
1000
0100
0001
0100
0010
,  // measure 34
0010
0001
0100
1000
0100
0001
0010
0100
,  // measure 35
0001
0100
1000
0010
0100
0001
1000
0100
,  // measure 36
0020
0000
0000
0001
0000
0000
0100
0000
,  // measure 37
0000
0001
0000
0000
0031
0000
2000
0000
,  // measure 38
0000
3200
0000
1000
0000
0000
0310
0000
,  // measure 39
0110
1001
0101
1010
,  // measure 40
1000
0000
0010
1000
0010
0000
0100
0000
0001
0100
0001
0000
0010
0000
0001
0010
,  // measure 41
0001
0000
1000
0000
0100
1000
0010
0000
0100
0000
0000
0000
1001
0000
0000
0000
,  // measure 42
0001
0000
0100
0010
0100
0000
0001
0000
1000
0010
1000
0000
0100
0000
1000
0001
,  // measure 43
1000
0000
0010
0000
0100
0001
0010
0000
0000
0000
1100
0000
0110
0000
0000
0000
,  // measure 44
0002
0000
0000
0203
0000
0000
0320
0000
0000
0230
0000
0000
0302
0000
0000
0023
,  // measure 45
0000
0000
0230
0000
0000
2300
0000
0000
3020
0000
0000
0230
0000
0000
0320
0000
,  // measure 46
0000
2030
0000
0000
3200
0000
0000
0320
0000
0000
0032
0000
0000
0203
0000
0000
,  // measure 47
0310
0100
0010
0100
0010
1000
0010
1000
0001
0100
0001
0100
0020
0000
0000
0000
,  // measure 48
1030
0000
0000
1000
0100
0000
0010
0000
0000
0010
0001
0000
0100
0000
0000
0100
,  // measure 49
0010
0000
0001
0000
0000
0001
0010
0000
1000
0000
0100
0000
0010
0000
0001
0000
,  // measure 50
0100
0000
0000
0100
0001
0000
0010
0000
0000
0010
0100
0000
1000
0000
0000
1000
,  // measure 51
0010
0000
0001
0000
0000
0001
0010
0000
1000
0000
0100
0000
0010
0000
0001
0000
,  // measure 52
0100
0010
0100
0010
1000
0000
0000
0000
0100
0000
1000
0000
0010
0000
0100
0000
,  // measure 53
0001
0000
0001
0100
0010
1000
0100
0000
,  // measure 54
0010
0100
0010
0100
1000
0000
0001
0000
0100
0000
0001
0000
0010
0000
0100
0000
,  // measure 55
1000
0000
0000
0000
1000
0000
0100
0000
0010
0000
0001
0000
0100
0000
0001
0100
,  // measure 56
0001
0000
1000
0100
0001
0100
1000
0000
,  // measure 57
0001
0010
1000
0010
0001
0000
1001
0000
,  // measure 58
1000
0100
0010
0000
0001
0100
1000
0000
,  // measure 59
0100
0001
0010
0000
0001
0010
1000
0000
,  // measure 60
0010
0000
0000
0010
0001
0000
0100
0000
0010
0100
0010
0000
1010
0000
0000
0000
,  // measure 61
0010
0000
0000
0010
1000
0000
0100
0000
0010
0001
0010
0000
0011
0000
0000
0000
,  // measure 62
0001
0000
0000
0001
0100
0000
0010
0000
1000
0100
1000
0000
1001
0000
0000
0000
,  // measure 63
1000
0000
0000
1000
0100
0000
0010
0000
0001
0100
0001
0000
1001
0000
0000
0000
,  // measure 64
0100
0000
1000
0010
0100
0000
0000
0000
0100
0000
0001
0010
0100
0000
0000
0000
,  // measure 65
0010
0000
0001
0100
0010
0000
0000
0000
0010
0000
1000
0100
0010
0000
0000
0000
,  // measure 66
0001
0100
0010
1000
0010
0100
0001
1000
,  // measure 67
0100
1000
0100
1000
0010
0100
0010
0100
0001
0010
0001
0010
0100
1000
0100
0000
,  // measure 68
1000
0000
0000
0000
1000
0100
0000
0000
1000
0100
0000
0000
0010
0001
0000
0000
,  // measure 69
0001
0000
0000
0000
0001
0100
0000
0000
0001
0100
0000
0000
0010
1000
0000
0000
,  // measure 70
0001
0000
0000
0000
;
