#VERSION:0.83;
#TITLE:Lost In Thoughts All Alone;
#SUBTITLE:(Super Smash Bros. Remix);
#ARTIST:Hiroki Morishita;
#TITLETRANSLIT:;
#SUBTITLETRANSLIT:;
#ARTISTTRANSLIT:;
#GENRE:;
#ORIGIN:;
#CREDIT:;
#BANNER:Lost In Thoughts All Alone.png;
#BACKGROUND:Lost In Thoughts All Alone-bg.png;
#PREVIEWVID:;
#JACKET:Lost In Thoughts All Alone-jacket.png;
#CDIMAGE:;
#DISCIMAGE:;
#LYRICSPATH:;
#CDTITLE:cdtitle.png;
#MUSIC:Lost In Thoughts All Alone.ogg;
#OFFSET:-2.875000;
#SAMPLESTART:53.930000;
#SAMPLELENGTH:10.700000;
#SELECTABLE:YES;
#BPMS:0.000=44.667,
5.000=134.000,
56.000=89.333,
72.000=134.000,
192.000=89.333;
#STOPS:;
#DELAYS:;
#WARPS:;
#TIMESIGNATURES:0.000=4=4;
#TICKCOUNTS:0.000=4;
#COMBOS:0.000=1;
#SPEEDS:0.000=1.000=0.000=0;
#SCROLLS:0.000=1.000;
#FAKES:;
#LABELS:0.000=Song Start;
#LASTSECONDHINT:102.500000;
#BGCHANGES:;
#KEYSOUNDS:;
#ATTACKS:
;

//---------------dance-single - ----------------
#NOTEDATA:;
#CHARTNAME:;
#STEPSTYPE:dance-single;
#DESCRIPTION:;
#CHARTSTYLE:;
#DIFFICULTY:Beginner;
#METER:1;
#RADARVALUES:0.107543,0.193026,0.028954,0.077210,0.000000,78.000000,75.000000,3.000000,8.000000,0.000000,0.000000,0.000000,0.000000,0.000000,0.107543,0.193026,0.028954,0.077210,0.000000,78.000000,75.000000,3.000000,8.000000,0.000000,0.000000,0.000000,0.000000,0.000000;
#CREDIT:;
#NOTES:
// measure 0
0000
0000
0000
0000
,  // measure 1
0000
1001
0000
0000
,  // measure 2
1000
0000
0000
0001
,  // measure 3
0000
0000
0100
0000
,  // measure 4
0000
0010
0000
0000
,  // measure 5
1000
0000
0000
0100
,  // measure 6
0000
0000
1000
0000
,  // measure 7
0000
0000
0010
0000
0000
0100
0000
0000
,  // measure 8
0001
0000
0000
1000
,  // measure 9
0000
0000
0100
0000
,  // measure 10
0000
0010
0000
0000
,  // measure 11
0001
0000
0000
0100
,  // measure 12
0000
0000
0000
0000
0002
0000
0000
0003
,  // measure 13
0000
0000
2000
0000
0000
3000
0000
0000
,  // measure 14
1000
1000
1000
0000
,  // measure 15
0110
0000
0001
0001
,  // measure 16
0001
0000
1001
0000
,  // measure 17
0100
0100
0100
0000
,  // measure 18
1000
0000
0000
0001
,  // measure 19
0000
0000
0010
0000
,  // measure 20
0000
0100
0000
0000
,  // measure 21
2000
0000
3000
0002
,  // measure 22
0000
0003
0200
0000
,  // measure 23
0300
0020
0000
0030
,  // measure 24
1000
0000
0000
0001
,  // measure 25
0000
0000
0001
0000
,  // measure 26
0000
0000
0010
0000
0000
0010
0000
0000
,  // measure 27
0010
0000
0000
0100
,  // measure 28
0000
0000
1000
0000
,  // measure 29
0000
0000
0010
0000
0000
1000
0000
0000
,  // measure 30
0001
0000
0000
1000
,  // measure 31
0000
0000
1000
0000
,  // measure 32
0000
0000
0100
0000
0000
0100
0000
0000
,  // measure 33
0100
0000
0000
0010
,  // measure 34
0000
0000
0001
0000
,  // measure 35
0000
0200
0000
0000
,  // measure 36
0310
0000
0000
1000
,  // measure 37
0000
0000
0001
0000
,  // measure 38
0000
0010
0000
0000
,  // measure 39
0100
0000
0000
1000
,  // measure 40
0000
0000
0001
0000
,  // measure 41
0000
0010
0000
0000
,  // measure 42
0001
0000
0000
0100
,  // measure 43
0000
0000
0010
0000
,  // measure 44
0000
0001
0000
0000
,  // measure 45
1000
0000
0000
0100
,  // measure 46
0000
0000
0010
0000
,  // measure 47
0000
1000
0000
0000
,  // measure 48
0001
0000
1000
0000
,  // measure 49
0200
0000
0000
0000
,  // measure 50
0300
0000
0000
0000
;

//---------------dance-single - ----------------
#NOTEDATA:;
#CHARTNAME:;
#STEPSTYPE:dance-single;
#DESCRIPTION:;
#CHARTSTYLE:;
#DIFFICULTY:Medium;
#METER:8;
#RADARVALUES:0.354341,0.434308,0.328144,0.579078,0.048256,257.000000,223.000000,34.000000,60.000000,0.000000,0.000000,0.000000,0.000000,0.000000,0.354341,0.434308,0.328144,0.579078,0.048256,257.000000,223.000000,34.000000,60.000000,0.000000,0.000000,0.000000,0.000000,0.000000;
#CREDIT:;
#NOTES:
0000
0000
0000
0000
,
0000
0000
1000
0010
0100
0001
0010
0100
,
2000
0000
0000
0000
3100
0010
0002
0000
,
0000
0000
0103
0010
2000
0000
0000
3002
,
0000
0103
0101
1010
,
0200
0000
0000
0000
1300
0010
0200
0000
,
0000
0302
2003
0000
,
3010
1000
0020
0000
0130
0001
2000
0000
,
3002
0000
0000
0000
0013
0100
2000
0000
,
0000
0000
3010
0100
0002
0000
0000
2003
,
0000
3010
1010
0101
,
0020
0000
0000
0000
0031
0100
0020
0000
,
0000
0000
1030
0010
0200
0000
0000
0302
,
0000
0000
0023
0000
0000
0130
0010
0000
,
0011
0000
0000
1001
0000
0000
1100
0000
0000
0000
0000
0100
,
1000
0100
0010
0001
0000
0000
1010
0000
0000
0110
0000
0000
,
0101
0000
0000
0000
0000
0001
0100
0010
1000
0001
0000
0000
,
0110
1001
1100
0011
,
1000
0100
1000
1100
0000
0000
0001
0100
,
0001
0101
0000
0000
1000
0010
1000
1010
,
0000
0000
0001
0010
0020
0000
0000
0130
,
2000
0000
3001
0100
0020
0000
0032
0000
,
0013
0100
0000
0000
0002
0000
1003
0100
,
0020
0000
2030
0000
3010
0001
0100
0010
,
2000
0000
0000
0000
3001
0010
2000
0000
,
0000
0000
3001
0100
2000
0000
0000
3020
,
0000
0130
0110
1001
,
0002
0000
0000
0000
0103
0010
0002
0000
,
0000
0000
2003
0000
3200
0000
0000
0301
,
0010
0100
2000
0000
3000
1000
0010
0100
,
0002
0000
0000
0000
1003
0010
0002
0000
,
0000
0000
1003
0100
0002
0000
0000
0023
,
0000
0130
1001
0110
,
2000
0000
0000
0000
3010
0100
2000
0000
,
0000
0000
3001
0010
2000
0000
0000
3002
,
0000
0000
0103
0001
1000
0100
1000
0010
,
0200
0000
0300
0101
0010
1000
0200
0000
,
0300
1100
1000
0010
0002
0000
0000
1003
,
0100
0001
0010
0000
0110
0000
1100
0000
,
2000
0000
3000
1100
0100
0010
0002
0000
,
0003
0101
0200
0000
0320
0000
0030
1010
,
1000
0001
0020
0000
0031
0100
0010
1000
,
0020
0000
0030
1010
0100
0001
0020
0000
,
0030
0011
0001
0100
2000
0000
0000
3001
,
0010
1000
0100
0000
0110
0000
0011
0000
,
0002
0000
0003
0011
0010
0100
2000
0000
,
3000
1001
0001
0010
0200
0000
0300
1000
,
0001
1000
0010
0100
0010
1000
0001
1000
,
0200
0000
0000
0000
1300
0010
0200
0000
0000
0000
0301
0010
,
0200
0000
0000
0000
,
0300
0000
0000
0000
;

//---------------dance-single - ----------------
#NOTEDATA:;
#CHARTNAME:;
#STEPSTYPE:dance-single;
#DESCRIPTION:;
#CHARTSTYLE:;
#DIFFICULTY:Hard;
#METER:12;
#RADARVALUES:0.591487,0.627334,0.636986,0.376401,0.164072,429.000000,363.000000,66.000000,39.000000,0.000000,0.000000,0.000000,0.000000,0.000000,0.591487,0.627334,0.636986,0.376401,0.164072,429.000000,363.000000,66.000000,39.000000,0.000000,0.000000,0.000000,0.000000,0.000000;
#CREDIT:;
#NOTES:
0000
0000
0000
0000
,
0000
0000
0000
0000
0010
1000
0000
0100
0000
0100
1000
0000
0001
0100
0001
0100
,
0001
1000
0100
1100
1000
0001
0010
0001
,
0100
0000
0110
0010
1000
0001
0100
0101
,
0001
0000
1000
0000
0100
0000
0010
0000
0011
0000
0000
0000
1100
0000
0100
0010
,
0100
0010
0001
1001
1000
0100
1000
0010
,
0100
0000
0110
0100
0001
1000
0100
1100
,
0010
0100
0010
0001
1000
0010
0001
1000
,
0100
0010
1000
1010
0010
0100
0001
0010
,
0001
0000
1001
0001
0100
0010
1000
1010
,
0010
0000
0100
0000
0001
0000
1000
0000
1010
0000
0000
0000
0101
0000
0001
1000
,
0001
0010
0100
0110
1000
0100
1000
0001
,
1000
0000
1001
1000
0010
0100
0001
0101
,
0100
0010
1000
0010
0100
0001
0010
0100
,
2200
3300
0220
0330
0022
0030
2000
3000
,
0200
0000
0000
0303
0000
0000
0010
0000
0100
0000
0010
0000
2020
0000
0000
3030
0000
0000
2002
0000
0000
3003
0000
0000
,
0202
0000
0000
0003
0000
0000
2000
0000
0000
3000
0000
0000
0020
0000
0000
0330
0000
0000
1000
0000
0001
0000
1000
0000
,
2200
0000
0000
3300
0000
0000
0022
0000
0000
0033
0000
0000
0202
0000
0000
0303
0000
0000
0001
0000
1000
0000
0000
0000
,
1000
0100
1000
1001
0000
0100
0001
0010
,
0001
1001
0000
0100
1000
0010
1000
1001
,
0000
0001
0100
0010
0020
0000
1030
0100
,
0020
0000
0031
0100
1020
0000
0230
0000
,
0301
0010
0100
1000
0002
0000
0013
0100
,
2100
0000
0000
0000
3001
0100
0000
0010
1000
0000
0100
0000
0010
0100
0010
0100
,
1000
0001
0010
0011
0001
1000
0100
1000
,
0010
0100
0110
0001
2000
0000
3010
1010
,
1000
0000
0001
0000
0010
0000
0100
0000
1100
0000
0000
0000
0011
0000
0010
0100
,
0010
0100
1000
1001
0001
0010
0002
0000
,
0103
0010
1010
1000
0100
1000
0010
0100
,
0010
0000
1000
0000
0001
0000
0010
0001
0010
0001
0100
0000
0010
1000
0010
1000
,
0100
0010
1000
1010
0010
0100
1000
0010
,
1000
1001
0001
0100
0020
0000
1030
1010
,
0010
0000
0100
0000
0001
0000
0010
0000
0011
0000
0000
0000
1100
0000
1000
0001
,
1000
0010
0100
0110
1000
0100
1000
0001
,
1000
0000
1001
1000
0010
0100
0001
0101
,
0100
0010
1000
1100
0101
1100
0011
1010
,
0011
0001
0100
0110
0010
1000
1100
1000
,
0010
0110
0100
0001
0022
0000
0033
1001
,
1000
0000
0100
0000
0010
0000
0001
0000
0100
0000
0000
0000
0110
0000
0001
1000
,
0100
0010
0001
1001
1000
0010
0100
0010
,
1000
1001
0200
0000
1300
0001
0010
0011
,
0001
1000
1010
1000
0100
0010
0001
0100
,
0001
1000
0100
0110
0100
1000
0001
0100
,
0010
1010
0010
0100
0001
1000
0100
0011
,
0000
0000
0001
0000
1000
0000
0100
1000
0100
0000
0010
0001
0010
0000
0100
0010
,
0100
1000
0010
0101
0001
1000
0100
0010
,
0001
1100
1000
0001
2000
0000
3100
0002
,
0000
0000
0103
0000
1000
0010
0000
0100
0001
0000
1000
0000
0100
0010
0001
0100
,
0002
0000
0000
0000
0103
0010
2000
0000
0000
0000
3100
0010
,
0200
0000
0000
0000
,
0300
0000
0000
0000
;

//---------------dance-single - ----------------
#NOTEDATA:;
#CHARTNAME:;
#STEPSTYPE:dance-single;
#DESCRIPTION:;
#CHARTSTYLE:;
#DIFFICULTY:Easy;
#METER:4;
#RADARVALUES:0.194405,0.313667,0.221980,0.154421,0.000000,141.000000,118.000000,23.000000,16.000000,0.000000,0.000000,0.000000,0.000000,0.000000,0.194405,0.313667,0.221980,0.154421,0.000000,141.000000,118.000000,23.000000,16.000000,0.000000,0.000000,0.000000,0.000000,0.000000;
#CREDIT:;
#NOTES:
0000
0000
0000
0000
,
0000
1000
0100
0010
,
0001
0000
0000
0100
0000
0000
0010
0000
,
0000
0100
0000
0000
0001
0000
0000
0000
,
0000
0000
1002
0003
0000
0110
0000
0000
,
1000
0000
0000
0100
0000
0000
0010
0000
,
0000
0100
0000
0000
2000
0000
0000
0000
,
0000
3020
0000
0000
,
0130
0000
0000
0001
0000
0000
0010
0000
,
0000
0001
0000
0000
0100
0000
0000
0000
,
0000
0000
2001
3000
0000
0110
0000
0000
,
0100
0000
0000
1000
0000
0000
0001
0000
,
0000
0010
0000
0000
0100
0000
0000
1000
,
0000
0000
0010
0000
0000
0100
0000
0000
,
0101
0101
0101
0000
,
0010
0000
1010
1010
,
1010
0000
0100
0000
,
1100
1100
0011
0011
,
0001
0000
0000
0011
0000
0000
1000
0000
,
0000
1010
0000
0000
0100
0000
0000
0101
,
0000
0000
0010
0000
0000
1100
0000
0000
,
2000
3000
1000
0002
,
0000
0003
0200
0300
,
0100
0020
0000
0030
,
1000
0000
0000
0010
0000
0000
0001
0000
,
0000
0010
0000
0000
1000
0000
0000
0000
,
0000
0000
1100
0000
0000
0101
0000
0000
,
0001
0000
0000
0100
0000
0000
1000
0000
,
0000
0100
0000
0000
0001
0000
0000
1000
,
0000
0000
0020
0000
0000
0230
0000
0000
,
0301
0000
0000
0010
0000
0000
1000
0000
,
0000
0010
0000
0000
0001
0000
0000
0000
,
0000
0000
0101
0000
0000
1100
0000
0000
,
1000
0000
0000
0100
0000
0000
0001
0000
,
0000
0010
0000
0000
2000
0000
0000
0000
,
0000
3002
0000
0000
,
0013
0000
0000
0100
0000
0000
1000
0000
,
0000
0001
0000
0000
0100
0000
0000
0000
,
0000
0000
0001
0000
0000
0110
0000
0000
,
0010
0000
0000
0100
0000
0000
0001
0000
,
0000
0010
0000
0000
0100
0000
0000
1000
,
0000
0020
0000
0000
,
1030
0000
0000
1000
0000
0000
0001
0000
,
0000
0001
0000
0000
0100
0000
0000
0100
,
0000
0000
0010
0000
0000
0010
0000
0000
,
1000
0000
0000
0100
0000
0000
0010
0000
,
0000
0001
0000
0000
1000
0000
0000
0010
,
0000
0000
0100
0000
0000
0001
0000
0000
,
2000
0000
3002
0000
,
0203
0000
0000
0000
,
0300
0000
0000
0000
;
