#TITLE:Ink Me Up;
#SUBTITLE:(Splatfest Theme);
#ARTIST:Toru Minegishi ft. Squid Sisters;
#TITLETRANSLIT:;
#SUBTITLETRANSLIT:;
#ARTISTTRANSLIT:;
#GENRE:;
#CREDIT:;
#BANNER:Ink Me Up (Splatfest Theme).png;
#BACKGROUND:Ink Me Up (Splatfest Theme)-bg.png;
#LYRICSPATH:;
#CDTITLE:cdtitle.png;
#MUSIC:Ink Me Up (Splatfest Theme).ogg;
#OFFSET:-0.698000;
#SAMPLESTART:11.850000;
#SAMPLELENGTH:12.000000;
#LASTBEATHINT:321.932404;
#SELECTABLE:YES;
#BPMS:0.000000=172.000000
;
#STOPS:
;
#BGCHANGES:;
#KEYSOUNDS:;
#ATTACKS:;

//---------------dance-single - ----------------
#NOTES:
     dance-single:
     :
     Beginner:
     3:
     0.197996,0.306104,0.102035,0.153052,0.000000,163.000000,151.000000,12.000000,18.000000,0.000000,0.000000,0.197996,0.306104,0.102035,0.153052,0.000000,163.000000,151.000000,12.000000,18.000000,0.000000,0.000000:
0000
0000
0000
0000
,
0000
0000
0000
0000
,
0000
0000
0000
0000
,
0000
0000
0000
0000
,
1000
0000
0001
0000
,
0100
0000
0010
0000
,
1001
2002
0000
0000
,
3003
0000
0110
0000
,
1000
0000
0010
0000
,
0100
0000
0001
0000
,
0100
0000
0010
0000
,
1000
1000
1000
0000
,
0001
0000
0010
0000
,
0100
0000
1000
0000
,
0100
0000
0010
0000
,
0001
0001
0001
0000
,
1000
0000
0100
0000
,
0001
0000
0100
0000
,
0010
0020
0000
0000
,
0030
0000
1001
0000
,
0000
1000
0000
0001
,
0000
1000
0000
0001
,
0010
0020
0000
0000
,
0030
0000
0110
0000
,
1000
2000
0000
0000
,
3010
0000
0100
0000
,
0001
0002
0000
0000
,
0103
0000
0010
0000
,
1000
0002
0000
0000
,
0013
0000
0100
0000
,
1000
0000
0001
0000
,
0100
0000
0010
0000
,
0100
0200
0000
0000
,
0301
0000
1000
0000
,
0010
0020
0000
0000
,
1030
0000
0001
0000
,
0100
0020
0000
0000
,
1030
0000
0001
0000
,
0010
0000
0100
0000
,
1000
0000
0001
0000
,
1000
0000
0000
0000
,
1000
0000
0100
0000
,
0110
0000
0000
0000
,
0001
0000
0100
0000
,
0001
0000
0001
0000
,
1000
0000
1000
0000
,
0010
0000
0100
0000
,
1001
1001
1001
0000
,
0001
0000
0100
0000
,
0010
0000
1000
0000
,
0010
0000
0100
0000
,
0001
0001
0001
0000
,
1000
0000
0100
0000
,
0010
0000
0001
0000
,
0010
0000
0100
0000
,
1000
1000
1000
0000
,
0001
0000
0010
0000
,
1000
0000
0010
0000
,
0100
0200
0000
0000
,
0300
0000
1001
0000
,
0000
0001
0000
1000
,
0000
0001
0000
1000
,
0100
0200
0000
0000
,
0300
0000
0110
0000
,
0001
0002
0000
0000
,
0103
0000
0010
0000
,
1000
2000
0000
0000
,
3010
0000
0100
0000
,
0001
2000
0000
0000
,
3100
0000
0010
0000
,
0001
0000
1000
0000
,
0010
0000
0100
0000
,
0010
0020
0000
0000
,
1030
0000
0001
0000
,
0100
0200
0000
0000
,
0301
0000
1000
0000
,
0010
0200
0000
0000
,
0301
0000
1000
0000
,
0100
0000
0010
0000
,
0001
0000
1000
0000
,
1001
0000
0000
0000
;

//---------------dance-single - ----------------
#NOTES:
     dance-single:
     :
     Easy:
     7:
     0.397207,0.476162,0.518677,0.204069,0.000000,327.000000,266.000000,61.000000,24.000000,0.000000,0.000000,0.397207,0.476162,0.518677,0.204069,0.000000,327.000000,266.000000,61.000000,24.000000,0.000000,0.000000:
0000
0000
0000
0000
,
0000
0000
0000
0000
,
0000
0000
0000
0000
,
0000
0000
0000
0000
,
1100
0010
0101
0010
,
1010
0100
0011
0100
,
1001
0220
0000
0330
,
1000
0010
0100
0001
,
0010
0010
0001
0100
,
0010
0010
1000
0100
,
1000
1000
0001
0100
,
0110
0110
1001
0000
,
0010
0010
1000
0100
,
0010
0010
0001
0100
,
0001
0100
1000
0100
,
0110
0110
1001
0000
,
1000
1100
0000
0101
,
0000
0110
0000
1001
,
0001
0010
1000
0010
,
0001
1000
0001
0100
,
0000
1010
0000
0011
,
0000
1001
0000
0110
,
0110
2002
0000
3003
,
0001
0010
0100
1000
,
1000
0020
0100
0001
,
0130
0010
1000
0100
,
1000
1000
0100
0100
,
0010
0010
0001
0100
,
0001
0020
0100
1000
,
0130
0010
0001
0100
,
0001
0001
0100
0100
,
0010
0010
1000
0100
,
1000
1020
0100
1000
,
0130
0010
1000
0100
,
1000
1000
0001
0001
,
0100
0100
0010
1000
,
0001
0021
0100
0001
,
0130
0010
0001
0100
,
1020
0000
0100
0001
,
1030
1010
0101
1001
,
2000
0000
3002
0000
,
0203
0000
0320
0000
,
2030
0000
3200
0000
,
0320
0000
0032
0000
,
1003
1100
0000
0101
,
0000
1010
0000
0011
,
0000
1001
0000
0110
,
0011
1100
1010
0101
,
0100
0100
1000
0010
,
0100
0100
0001
0010
,
0001
0001
1000
0010
,
0110
0110
1001
0000
,
0100
0100
0001
0010
,
0100
0100
1000
0010
,
1000
0010
0001
0010
,
0110
0110
1001
0000
,
0001
0011
0000
1010
,
0000
0110
0000
1001
,
1000
0100
0001
0100
,
1000
0001
1000
0010
,
0000
0101
0000
1100
,
0000
1001
0000
0110
,
0110
2002
0000
3003
,
1000
0100
0010
0001
,
0001
0200
0010
1000
,
0310
0100
0001
0010
,
0001
0001
0010
0010
,
0100
0100
1000
0010
,
1000
0200
0010
0001
,
0310
0100
1000
0010
,
1000
1000
0010
0010
,
0100
0100
0001
0010
,
0001
0201
0010
0001
,
0310
0100
0001
0010
,
0001
0001
1000
1000
,
0010
0010
0100
0001
,
1000
1200
0010
1000
,
0310
0100
1000
0010
,
0201
0000
0010
1000
,
0301
0101
1010
1001
,
0110
0000
0000
0000
;

//---------------dance-single - ----------------
#NOTES:
     dance-single:
     :
     Hard:
     13:
     0.648649,0.748255,0.620711,0.272093,0.119041,534.000000,461.000000,73.000000,32.000000,0.000000,0.000000,0.648649,0.748255,0.620711,0.272093,0.119041,534.000000,461.000000,73.000000,32.000000,0.000000,0.000000:
0000
0000
0000
0000
,
0000
0000
0000
0000
,
0000
0000
0000
0000
,
0000
0000
0000
0000
,
0100
1000
0011
0000
0100
0001
1010
0000
,
1000
0010
0110
0000
0100
0001
1001
0000
,
0100
0001
1010
0000
0100
1000
0011
0000
,
0001
0000
0100
0000
0001
0000
0010
0000
0100
1000
0100
1000
0010
1000
0010
1000
,
0001
0000
0110
0000
1000
0010
0100
0001
,
0000
1000
0100
0010
0001
0000
1001
0100
,
1000
0010
0001
0010
1000
0100
0001
0100
,
2200
3300
0022
0033
2200
3300
1001
0000
,
0010
0000
1001
0000
0100
1000
0001
0010
,
0000
0001
1000
0010
0100
0000
0010
0100
,
0001
0010
0001
0010
0100
1000
0001
0100
,
1010
0000
0011
0000
1000
0010
0100
0000
,
0001
0110
1000
0110
,
0010
1001
0100
1001
,
1000
1020
0100
0001
,
0100
0000
2030
0000
3001
0100
0010
1000
,
0001
0110
1000
0110
,
0100
1001
0010
1001
,
0101
1020
0001
0130
,
1100
0021
1000
0130
,
1000
0100
0020
0000
0001
0000
0130
1000
,
0010
0000
0010
0100
0000
0100
0001
0000
,
1000
1000
0010
0100
0000
0100
0110
0000
,
0001
0001
0100
0010
0000
1000
0001
1000
,
0001
0100
0020
0000
1000
0000
0130
0001
,
0010
0100
0000
2000
0000
3100
1000
0000
,
0001
0010
1000
0010
0001
0100
1000
0100
,
0001
0000
1000
0000
0100
0000
0010
0000
0001
0010
0001
0010
0100
1000
0100
1000
,
0001
0000
1200
0000
0010
0000
0301
0100
,
0010
0000
0100
0001
0000
0100
1000
0000
,
0010
1000
0001
0000
0100
0001
1000
0100
,
0010
0000
0100
1000
0000
0100
0001
0100
,
1000
0000
0201
0000
0010
0000
1300
0100
,
0001
0100
1000
0100
0001
0000
0010
0100
,
1000
0000
1200
0000
0010
0000
0301
0100
,
0010
0000
0001
0000
0010
0000
1000
0000
0010
0100
0010
0100
1000
0100
0010
0100
,
1000
0101
0001
1100
,
1000
0000
0011
0000
1000
0010
0100
0010
,
1000
1010
0001
0011
,
1000
0000
0000
0000
1100
0000
0000
0000
0100
0010
0100
0010
0001
1000
0001
1000
,
0100
0010
1001
0000
0010
0100
1001
0000
,
1000
0001
0110
0000
0001
1000
0110
0000
,
1010
0102
0013
1100
,
1001
0000
0000
0000
1001
0000
0000
0000
1000
0001
1000
0001
0100
0010
0100
0010
,
1000
0000
0110
0000
0001
0100
0010
1000
,
0000
0001
0010
0100
1000
0000
1001
0010
,
0001
0100
1000
0100
0001
0010
1000
0010
,
0022
0033
2200
3300
0022
0033
1001
0000
,
0100
0000
1001
0000
0010
0001
1000
0100
,
0000
1000
0001
0100
0010
0000
0100
0010
,
1000
0100
1000
0100
0010
0001
1000
0010
,
0101
0000
1100
0000
0001
0100
0010
0000
,
1000
0110
0001
0110
,
0100
1001
0010
1001
,
0001
0201
0010
1000
,
0010
0000
0302
0000
1003
0010
0100
0001
,
1000
0110
0001
0110
,
0010
1001
0100
1001
,
1010
0201
1000
0310
,
0011
1200
0001
0310
,
0001
0010
0200
0000
1000
0000
0310
0001
,
0100
0000
0100
0010
0000
0010
1000
0000
,
0001
0001
0100
0010
0000
0010
0110
0000
,
1000
1000
0010
0100
0000
0001
1000
0001
,
1000
0010
0200
0000
0001
0000
0310
1000
,
0100
0000
0100
0010
0000
0010
0001
0000
,
1000
0100
0001
0100
1000
0010
0001
0010
,
1000
0000
0001
0000
0010
0000
0100
0000
1000
0100
1000
0100
0010
0001
0010
0001
,
1000
0000
0021
0000
0100
0000
1030
0010
,
0100
0000
0010
1000
0000
0010
0001
0000
,
0100
0001
1000
0000
0010
1000
0001
0010
,
0100
0000
0010
0001
0000
0010
1000
0010
,
0001
0000
1020
0000
0100
0000
0031
0010
,
1000
0010
0001
0010
1000
0000
0100
0010
,
0001
0000
0021
0000
0100
0000
1030
0010
,
0100
0000
1000
0000
0100
0000
0001
0000
0100
0010
0100
0010
0001
0010
0100
0010
,
0001
0000
0000
0000
;

//---------------dance-single - ----------------
#NOTES:
     dance-single:
     :
     Medium:
     10:
     0.530824,0.578197,0.467659,0.255087,0.000000,437.000000,382.000000,55.000000,30.000000,0.000000,0.000000,0.530824,0.578197,0.467659,0.255087,0.000000,437.000000,382.000000,55.000000,30.000000,0.000000,0.000000:
// measure 0
0000
0000
0000
0000
,  // measure 1
0000
0000
0000
0000
,  // measure 2
0000
0000
0000
0000
,  // measure 3
0000
0000
0000
0000
,  // measure 4
1000
0100
0010
0000
0001
0100
0010
0000
,  // measure 5
1000
0010
0100
0000
0001
0010
0100
0000
,  // measure 6
1100
0022
0000
0033
,  // measure 7
0001
0100
0010
1000
0010
0100
0001
0000
,  // measure 8
1000
0000
0100
0000
1000
0010
0100
0010
,  // measure 9
0000
1000
0001
0010
0100
0000
0010
0000
,  // measure 10
0001
0010
0001
0010
0100
1000
0100
1000
,  // measure 11
0010
0010
0020
0030
,  // measure 12
0010
0000
1000
0000
0001
1000
0100
0010
,  // measure 13
0000
0010
0001
0010
0100
0000
1000
0000
,  // measure 14
0100
1000
0100
1000
0001
0010
0001
0010
,  // measure 15
0100
0100
0100
0000
,  // measure 16
0100
0011
0100
1010
,  // measure 17
0010
1100
0010
0101
,  // measure 18
1001
0120
1000
0230
,  // measure 19
0010
0001
0310
1001
,  // measure 20
0100
1010
0100
0011
,  // measure 21
0010
0101
0010
1100
,  // measure 22
0110
1002
0010
0100
,  // measure 23
2003
0000
0100
0000
0010
0000
3001
0100
,  // measure 24
0010
0000
2020
0000
3000
0130
0010
0100
,  // measure 25
0010
0000
0010
1000
0000
1000
0100
0000
,  // measure 26
1000
0001
1000
0001
0000
0000
0110
0000
,  // measure 27
0001
1000
0001
1000
0000
0000
0110
0000
,  // measure 28
0001
0021
0000
0130
,  // measure 29
0010
0001
0000
1000
0000
1000
0001
0000
,  // measure 30
0100
0010
0100
0010
1000
0010
1000
0000
,  // measure 31
0001
0100
0001
1000
0001
1000
0001
0000
,  // measure 32
1000
2200
3000
0310
,  // measure 33
0001
0000
0001
0100
0000
0010
1000
0000
,  // measure 34
0001
0000
0000
0000
1000
0100
0001
0100
,  // measure 35
1000
0000
0010
0100
0000
0100
0010
0000
,  // measure 36
1000
0000
0202
0000
0003
0310
0100
0010
,  // measure 37
0100
0010
1000
0001
0100
0000
0001
0000
,  // measure 38
1000
0000
0220
0000
0300
0130
0010
0100
,  // measure 39
1000
0010
0001
0010
1000
0000
1001
0000
,  // measure 40
0001
0100
0010
0000
0100
0001
0010
0000
,  // measure 41
0100
1000
0010
0000
0100
0010
1000
0000
,  // measure 42
0001
1000
0010
0000
0001
1000
0100
0000
,  // measure 43
0001
1000
0100
0000
0010
0001
1000
0000
,  // measure 44
0100
0110
0010
1001
,  // measure 45
0001
0110
1000
1001
,  // measure 46
0101
1010
1100
0011
,  // measure 47
1001
0000
1001
0000
0010
0100
0010
0000
,  // measure 48
0010
0000
1000
0000
0001
1000
0100
0010
,  // measure 49
0000
0010
0100
1000
0001
0000
0001
0000
,  // measure 50
0100
0001
0100
0001
1000
0010
1000
0010
,  // measure 51
0100
0100
0200
0300
,  // measure 52
0001
0000
0010
0000
0100
0010
0001
1000
,  // measure 53
0000
0001
0100
0001
1000
0000
0010
0000
,  // measure 54
1000
0010
1000
0010
0100
0001
0100
0001
,  // measure 55
1000
1000
1000
0000
,  // measure 56
1000
0101
1000
0011
,  // measure 57
0001
1010
0001
1100
,  // measure 58
0110
1002
0010
2003
,  // measure 59
0001
0100
3001
0110
,  // measure 60
1000
0011
1000
0101
,  // measure 61
0001
1100
0001
1010
,  // measure 62
1001
0210
0001
1000
,  // measure 63
0320
0000
1000
0000
0001
0000
0130
0001
,  // measure 64
1000
0000
0022
0000
0030
1003
0001
1000
,  // measure 65
0001
0000
0001
0010
0000
0010
1000
0000
,  // measure 66
0010
0100
0010
0100
0000
0000
1001
0000
,  // measure 67
0100
0010
0100
0010
0000
0000
1001
0000
,  // measure 68
0100
0102
0000
1003
,  // measure 69
0001
0100
0000
0010
0000
0010
0100
0000
,  // measure 70
0001
1000
0001
1000
0010
1000
0010
0000
,  // measure 71
0100
1000
0100
0010
0100
0010
0100
0000
,  // measure 72
0010
2020
0030
0001
,  // measure 73
3100
0000
0100
1000
0000
0001
0010
0000
,  // measure 74
0100
0000
0000
0100
0010
0001
0100
0001
,  // measure 75
0010
0000
0001
1000
0000
1000
0001
0000
,  // measure 76
0010
0000
2200
0000
0300
3001
1000
0001
,  // measure 77
1000
0001
0010
0100
1000
0000
0100
0000
,  // measure 78
0010
0000
2002
0000
3000
1003
0001
1000
,  // measure 79
0010
0100
0001
0010
0100
0000
0110
0000
,  // measure 80
1001
0000
0000
0000
;
